EASY
BASIC
(212.0){1},,,,,
{2}1,1,
{2}1,1,
{2}2,2,
{2}2,2,
{2}3,3,
{2}3,3,
{2}4,4,
{2}4,4,
{1}4/5,
{1}4/5,
{1}5/6,
{1}5/6,
{1}3/4,
{1}3/4,
{2}4,5,
{2}4,4b/5b,
{4}5,5,5,,
{4}6,6,6,,
{4}7,7,7,,
{4}8,1,8,,
{1}1h[1:1],,
{1}1-5[4:3],,
{2}6,6,
{2}7,7,
{1}8-4[4:3],,
{2}3,3,
{2}2,2,
{1}1h[2:1]/8h[2:1],
{1}1/8,
{2}1,1,
{2}2,2,
{2}3,3,
{2}4,4,
{1}3h[1:1]/5h[1:1],,
{1}4h[1:1]/6h[1:1],,
{1}2/7,
{4}1,1,1,,
{4}8,8,8,,
{4}7,7,7,,
{4}6,6,5/6,,
{1}4h[2:1],
{1}5h[2:1],
{4}4,4,3/5,,
{4}5,5,4/6,,
{4}5,5,5,,
{4}4,4,4,,
{4}3,3,3,,
{4}2,2,1/2,,
{1}8h[2:1],
{1}1h[2:1],
{4}8,8,1/7,,
{4}1,1,2/8,,
{2}1,1,
{4}2,2,1/2,,
{2}3,3,
{4}4,4,4/5,,
{2}5,5,
{4}6,6,5/6,,
{2}7/8,1/2,
{1}1h[2:1]/8h[2:1],
{1}1,
{1}1,
{1}3,
{1}3,
{1}5,
{1}5,
{1}7,
{1}7/8,
{2}8,8,
{1}8,
{2}6,6,
{1}6,
{2}4,4,
{1}4,
{2}2,2,
{1}1/2,
{1}2h[1:1]/7h[1:1],,
{4}1,1,1,,
{4}8,8,8,,
{4}1,8,1,8,
{4}1,8,,,
{1}1b,
{4}1,1,1,,
{4}2,2,2,,
{4}3,4,3,,
{2}3/4,3/5,
{2}5/6,4/6,
{4}5,4,5,,
{1}4h[2:1]/6h[2:1],
{4}4,4,4,,
{4}5,5,5,,
{4}6,6,6,,
{4}7,8,7,,
{2}7/8,1/7,
{2}1/2,2/8,
{4}1,8,1,,
{1}1h[2:1]/8h[2:1],
{2}7/8,7/8,
{4}1/2,1/2,1/2,,
{4}3,4,3,,
{4}6,5,6,,
{2}5/6,5/6,
{4}3/4,3/4,3/4,,
{4}2,1,2,,
{1}7h[2:1]/8h[2:1],
{2}1/2,1/2,
{4}7/8,7/8,7/8,,
{4}6,5,6,,
{4}3,4,3,,
{2}3/4,3/4,
{4}5/6,5/6,5/6,,
{2}7/8,1/2,
{1}1h[2:1]/8h[2:1],
{2}1/2,7/8,
{1}1b,
E
ADVANCED
(212.0){1},,,,,
{4}3,3,3,,
{4}6,6,6,,
{4}3,3,3,,
{4}6,6,6,,
{4}3,3,4,,
{4}6,6,5,,
{4}4,5,4,,
{4}4/5,4/5,3b/6b,,
{4}3,4,3,,
{4}6,5,6,,
{4}3,4,3,,
{4}6,5,6,,
{4}2,1,2,,
{4}7,8,7,,
{4}2,1,2,,
{4}7,8,7,,
{2}1/2,1^6[2:1]/2^5[2:1],{1},
{2}1/7,1-5[2:1]/7-3[2:1],{1},
{2}6h[2:1],5,
{2}3h[2:1],4,
{4}5,5,4,4,
{4}5,4,3/6,,
{2}3h[2:1],4,
{2}6h[2:1],5,
{4}3,4,2/5,,
{4}6,5,4/7,,
{2}2h[2:1],1,
{2}7h[2:1],8,
{4}2,1,3/8,,
{4}7,8,1/6,,
{2}3h[2:1],4,
{2}6h[2:1],5,
{2}2h[2:1],3,
{2}7h[2:1],6,
{1}1b>7[4:5],,
{1}8<2[4:5],
{8},,,,,,,1/8,{1},
{4}3,3,4,4,
{4}3,4,2/5,,
{4}6,6,5,5,
{4}6,5,4/7,,
{4}3,3,6,6,
{1}4-1[2:1]/5-8[2:1],
{4}2,2,7,7,
{2}1h[4:1]/8h[4:1],1/8,
{4}2,2,1,1,
{4}2,1,3/8,,
{4}7,7,8,8,
{4}7,8,1/6,,
{4}6,6,3,3,
{1}4-1[2:1]/5-8[2:1],
{4}7,7,2,2,
{2}1h[4:1]/8h[4:1],1/8,
{4}7,7,6,6,
{4}5,5,3/4,,
{4}2,2,3,3,
{4}4,4,5/6,,
{4}7,7,6,6,
{4}5,5,3/4,,
{2}4/5,3/6,
{4}2/7,2b/7b,,,
{1}1-4[2:1],
{1}8-5[2:1],
{1}2-5[2:1],
{1}7-4[2:1],
{1}3-8[2:1],
{1}6-1[2:1],
{1}4-8[2:1],
{1}5-1[2:1],
{2}3h[2:1],4,
{2}6h[2:1],5,
{2}2h[2:1],4,
{2}7h[2:1],5,
{1}1h[2:1]/8h[2:1],
{4}2/7,2/7,1/8,,
{1}1-6[2:1]/2-5[2:1],
{1}7-4[2:1]/8-3[2:1],
{4}2,2,1,1,
{4}1/2,3/8,4/7,,
{4}7,7,8,8,
{4}7/8,1/6,2/5,,
{4}4/5,4/5,3/6,3/6,
{4}2/7,2b/7b,,,
{1}4h[2:1]/5h[2:1],
{4}2/7,2/7,1b/8b,,
{4}2,1/2,7,7/8,
{4}2,1/2,3/8,,
{4}6,5/6,3,3/4,
{1}4-1[2:1]/5-8[2:1],
{4}7,7/8,2,1/2,
{2}4h[4:1]/5h[4:1],3/6,
{4}7,7/8,2,1/2,
{4}7,7/8,1/6,,
{4}2,1/2,7,7/8,
{4}2,1/2,3/8,,
{4}3,3/4,6,5/6,
{4}3,2/4,6,5/7,
{4}2,1/2,7,7/8,
{1}1-4[2:1]/8-5[2:1],
{4}2,3,4,5,
{4}6,7,1/8,,
{4}7,6,5,4,
{4}3,2,1/8,,
{4}2,3,4,5,
{4}6,7,1/8,,
{2}1/2,7/8,
{4}1/8,1b/8b,,,
{4}1,2,3,4,
{4}5/6,5/6,7/8,,
{4}8,7,6,5,
{4}3/4,3/4,1/2,,
{4}1,2,3,4,
{4}5/6,5/6,7/8,,
{2}1/2,7/8,
{4}2/7,1b/8b,,,
{2}2/4,5/7,
{4}1/8,2b/7b,
E
EXPERT
(212.0){1},
{8}4/5,,4/5,,4,5,4,,
{8}4,5,4,5,,5,4,,
{8}4/5,,4/5,,5,4,5,,
{8}5,4,5,4,5,,2/7,,
{4}6,5/7,3,2/4,
{4}5/6,1/2,3/8,,
{4}6h[2:1],5,3h[2:1],4,
{4}6h[4:1],5,7/8,1/6,
{4}3,2/4,6,5/7,
{4}3/4,7/8,1/6,,
{4}2,1/3,7,8/6q3[8:3],
{8},,,,1/8,1/8,,2h[8:5]/7h[8:5],
{8},,,,,,,2h[8:5]/5h[8:5],
{8},,,,,,,4h[8:5]/7h[8:5],{1},
{8}4/5,,3/6,,2/7,2/7,,6h[8:5],
{8},,5,,5,,3,3h[8:5],
{8},,4,,4,,6,6h[8:5],
{4},5,5,1/8,
{8}4-1[4:1]/5-8[4:1],,,,,,,1^4[8:1]/8^5[8:1],
{2},2-6[8:1]/7-3[8:1],
{1}1s5[2:1],
{4}6h[4:1],7h[4:1],8h[4:1],1h[4:1],
{4}2h[4:1],3h[4:1],4h[4:1],5<4[1:1],{1},
{8},,,,,,,4h[4:1]/5h[4:1],
{8},,4/5,,3/6,3/6z2[8:5],,,
{8},,,,,,,3h[4:1]/4h[4:1],
{4},3/4,2/5,,
{8}5,,6,,4/7,,,7h[4:1]/8h[4:1],
{8},,7/8,,1/6,,,1h[4:1]/2h[4:1],
{8},,1/2,,3/8,,,5h[4:1]/6h[4:1],
{4},5/6,4/7,,
{8}4,,3,,2/5,,,1h[4:1]/2h[4:1],
{8},,1/2,,3/8,,,5/6,
{8},7,,3/4,,2^7[4:1],,,
{4},,6,5/6,
{4}3,3/4,6,5/7,
{4}3,2/4,7,6/8,
{8}2,,1/3,,5/6,,4/7,4/7,{1},
{8},,,,,3,4,2/5,
{8},1/8,1/8,,2/7,2/7,,3/6<3[2:1],
{8},,,,,,,1/8,
{8},2/7,2b/7b,,1-6[8:1]/2-5[8:1],,,,
{8},,7/8,,1/6,,7/8,7-4[8:1]/8-3[8:1],
{4},,1/6,4/5,
{4}6,5/7,3,2/4,
{4}7,1/6,2,3/8,
{8}4/5,,2/7,,5h[4:1]/6h[4:1],,,5/6,
{8},3/8,,4/5,,2/7,,2/7,
{8},3/5,3/5,,4/6,4/6,,4-1[8:1]/5-8[8:1],
{2},7-4[8:1]/8-3[8:1],
{8},,1/2,,3/8,,1/2,1-6[8:1]/2-5[8:1],
{4},,1/6,4/5,
{4}3,2/4,6,5/7,
{4}2,3/8,7,1/6,
{8}4/5,,2b/7b,,3h[4:1]/4h[4:1],,,3/4,
{8},1/6,,1/8,,3/6,,2/7,
{8},4/6,4/6,,3/5,3/5,,4^1[8:3]/5^8[8:3],{1},
{4}6,4/7,3,2/5,
{4}4/5,1/8,2/7,,
{4}3h[2:1],4,6h[2:1],5,
{4}1h[4:1],8,4/5,2/7,
{4}3,2/5,6,4/7,
{4}4/5,1/8,2/7,,
{8}6,5/6,,,3,3/4,,,
{8}1,8,1,2/7,,,,,
{2}5/6h[4:5],5,
{4}5,5,4/7,,
{2}4/3h[4:5],4,
{4}4,4,2/5,,
{2}5/6h[4:5],4,
{4}5,5,4/7,,
{2}4/3h[4:5],5,
{4}4,4,2/5,,
{4}6h[4:3],2,4,5,
{4}3h[4:3],7,5,4,
{2}7-4[4:1],2-5[4:1],
{8}8-4[4:1],,,,1h[4:1],,8,8<1[8:5],{1},
{4}2/4,3,5/7,6,
{2}2-5[4:1],7-4[4:1],
{2}1-5[4:1],8-4[4:1],
{1}1>8[4:3],
{4},,,1/8,
{8}4/5,,4/5,,5,4,5,,
{8}5,4,6,3,,4/5,4/5,,
{8}2/7,,2/7,,1,8,1,,
{8}1,8,2,7,,,,,
{8}2v5[8:3]/8v5[8:3],,,,,,,1h[4:1]/8h[4:1],
{8},,1/8,,2b/7b,,,4-1[8:1]/5-8[8:1],
{4},,5/6,4/7,
{4}3/4,2/5,7/8,1/6,
{8}4/5,,2b/7b,,3h[4:1]/6h[4:1],,,3/6,
{8},5/4-1[8:1],,5b-8[8:1],,4b,,2/7,
{8},1/7,1/7,,2/8,2/8,,4-1[8:1]/5-8[8:1],
{2},3-8[8:1]/4-7[8:1],
{8},,7/8,,1/6,,5/6,5-2[8:1]/6-1[8:1],
{4},,3/8,4/5,
{4}6,4/7,3,2/5,
{4}6,4/7,1/2,3/8,
{8}4/5,,2b/7b,,5h[4:1]/6h[4:1],,,5/6,
{8},3/8,,3/4,,1/6,,4/5,
{8},1/7,1/7,,2/8,2/8,,4^1[4:1]/5^8[4:1],{1},
{4}3,2/5,6,4/7,
{4}4/5,7/8,1/6,,
{4}6h[2:1],5,3h[2:1],4,
{4}8h[4:1],1,4/5,2/7,
{4}6,4/7,3,2/5,
{4}4/5,1/2,3/8,,
{8}5/6,5/6,,,3/4,3/4,,,
{4}2/7,2/7,4/5,1/8,
{8}6,5,4/7,,3,4,2/5,,
{4}1-6[8:1]/2-5[8:1],,3/8,4/5,
{4}7h[2:1],8,2h[2:1],1,
{4}5h[4:1],4,1/8,2/7,
{8}3,4,2/5,,6,5,4/7,,
{4}7-4[8:1]/8-3[8:1],,1/6,4/5,
{4}5/7,6,2/4,3,
{4}4/6,5,4,4/5,
{8}1/7,1/7,,,2/8,2/8,,,
{1}2b/7b,
E
MASTER
(212.0){1},
{8}2,,3/4,,6,5,6,,
{8}7,6,5,4-8[8:1],,7,7,,
{8}7,,5/6,,3,4,3,,
{8}2,3,4,5-1[8:1],,,,,
{8}3,4,2,,6,5,7,,
{8}2,1,3,,2/4,,2,1,
{8}3,8,4,7,4,6,3,5,
{8}3,4,2h[8:3],4,,1,,,
{8}6,5,7,,3,4,2,,
{8}7,8,6,,5/7,,,6/8,
{8},7,2,8,3,1,,4/3-7[8:1],
{8},,,,8b,8b,,7/1h[1:1],
{8},,6,,5,,4,4,
{8},2,2,,1/3,,,2/8h[8:9],
{8},3,3,,4,,5,,
{8}6,,7,,6/8,6/8,,7/1h[1:1],
{8},,6,,5,,4,4,
{8},2,2,,1/3,,,2/8h[8:7],
{8},3,3,,4,,5,,
{8}7,8-3[8:1],7,8,,,,1^6[8:1]/2^5[8:1],
{2},7-3[8:1]/8-4[8:1],
{2}1-6[8:1]/2^5[8:1],7^4[8:1]/8-3[8:1],
{4}1^6[8:1]/2^5[8:1],,3/8,1/2,
{4}4/7,7/8,2/5,1/8,
{1}3qq8[4:3]/7qq4[4:3],
{8},,,,3/7,3/7,,1h[8:3],
{8},,7h[8:3],,5,5,,2h[8:3],
{8},4,4,,1,6,3,8h[8:3],
{4},7h[4:1],6h[4:1],5h[4:1],
{8}4h[4:1],,3h[4:1],,2,,,4h[4:1],
{8},7,7,8,1/6,,,5h[4:1],
{8},2,2,1,3/8,,,1h[8:3],
{4},2h[4:1],3h[4:1],4h[4:1],
{8}5h[4:1],,6h[4:1],,7,,,5h[4:1],
{8},2,2,1,3/8,,,2/4,
{8},5/7,,1/3,,6/8,,7h[4:1],
{8},8,6,3,4,2/5,,2h[4:1],
{8},1,3,6,5,4/7,,7h[4:1],
{8},8,6,3,4,2/5,,2h[4:1],
{8},1,3,6,8,7,1,8b/2b>8[8:7],{1},
{8},,,,,1/8,1/8,2v7[2:1]/7<2[2:1],
{8},,,,,,,3/6,
{8},1,8,2,7,3,5,4/5,
{8},2/7,1b/8b,,2,1,8,7-4[8:1],
{8},8,8-3[8:1],,1,,,2-5[8:1],
{8},1,1-6[8:1],,8,,,5-1[8:1],
{8},,8,,1/7,2/6,3/5,4-8[8:1],
{8},,1,,2/8,3/7,4/6,,
{8}2-5[8:1]/7-4[8:1],,2/7,,1/8,,3/6,4/5,
{8},2/7,,4-1[8:1]/5-8[8:1],,,,7-4[8:1],
{8},5-1[8:1],5,8-4[8:1],8,2-6[8:1],2,4-8[8:1],
{8},1,,,7,8,1,2-5[8:1],
{8},1,1-6[8:1],,8,,,7-4[8:1],
{8},8,8-3[8:1],,1,,,4-8[8:1],
{8},,1,,2/8,3/7,4/6,5-1[8:1],
{8},,8,,1/7,2/6,3/5,,
{8}2-5[8:1]/7-4[8:1],,2/7,,1/8,2/7,3/6,4/5,
{8},2/7,,4-1[8:1]/5-8[8:1],,,,2-5[8:1],
{8},4-8[8:1],4,1-6[8:1],1,5<4[8:5],5,4,{1},
{4}8/7-3[8:1],8,8/1-5[8:1],8,
{4}2-6[8:1],5-1[8:1],8,,
{4}1/2-6[8:1],1,1/8-4[8:1],1,
{4}7-3[8:1],4-8[8:1],1,,
{4}8/7-3[8:1],8,8/1-5[8:1],8,
{4}2-6[8:1],5-1[8:1],8,,
{8}1/3,1/3,,,6/8,6/8,,,
{8}4,5,4,2b/7b,,1/8,1/8,,
{8}2/5h[2:3],,1,,8,,7,7,
{8},6,6,,4,,,6/1h[8:13],
{8},5,5,,4,,3,3,
{8},2,2,,8,,2/7,,
{8}3/8h[2:3],,4,,5,,6,6,
{8},7,7,,1,,,7/4h[8:13],
{8},8,8,,1,,2,2,
{8},3,3,,5,,3b/6b,,
{2}8-5[8:1]*-6[8:1],1-3[8:1]*-4[8:1],
{4}7^4[8:1]/8^3[8:1],,2/5,7/8,
{2}1-3[8:1]*-5[8:1],8-4[8:1]*-6[8:1],
{8}1^6[8:1]/2^5[8:1],,,,4,4<4[8:7]*>4[8:7],,4,{1},
{2}7-4[8:1]*-5[8:1],2-4[8:1]*-5[8:1],
{4}7^4[8:1]/8^3[8:1],,2/5,7/8,
{2}2-4[8:1]*-6[8:1],7-2[8:1]*-5[8:1],
{1}3V14[1:1]*pp4[1:1],
{8},,,,2/8,,2,2,
{8}3qq5[8:5],,8,,7,7,6,6pp4[8:5],{1},
{8}5/6,,3/8,,3,4,3,,
{8}6,5,6,4/7,2,1,8,7<3[8:3],
{4},3>7[4:1],1h[8:3],,
{8}1b-6[8:1],,1/8b-3[8:1],,1b/8,,,1-6[8:1],
{8},,5^2[4:1],,6,7,8,8-3[8:1],
{8},,4^7[4:1],,3,2,1,,
{8}1-6[8:1]/2-5[8:1],,1/2,,8^6[8:1],,1,1^3[8:1],
{8},7,,4b-1[8:1]/5b-8[8:1],,4b/5b,,6-1[8:1],
{8},8-4[8:1],8,5-1[8:1],5,3-7[8:1],3,1-5[8:1],
{8},4,,,7,8,1,2>6[8:3],
{4},6<2[4:1],8h[8:3],,
{8}8-3[8:1],,8/1-6[8:1],,1/8,,,8-3[8:1],
{8},,4^7[4:1],,3,2,1,1-6[8:1],
{8},,5^2[4:1],,6,7,8,,
{8}7-4[8:1]/8-3[8:1],,7/8,,1^3[8:1],1,8,8^6[8:1],
{8},1,,4-1[8:1]/5-8[8:1],,4/5,,3-8[8:1],
{8},1-5[8:1],1,4-7[8:1],4,8<1[8:5],8,1,{1},
{4}4/3-7[8:1],4,4/5-1[8:1],4,
{4}6-2[8:1],1-5[8:1],4,,
{4}5/6-2[8:1],5,5/4-8[8:1],5,
{4}3-7[8:1],8-4[8:1],5,,
{4}4/3-7[8:1],4,4/5-1[8:1],4,
{4}6-2[8:1],1-5[8:1],4,,
{2}5-2[8:1]/6-1[8:1],3-8[8:1]/4-7[8:1],
{8}5,4,5,3/6,2,1,2,3/8,
{8},7,8,1/6,,2,1,3h[4:1],
{8},4,3-8[8:1]/4-7[8:1],,3/4,,,6/8h[4:1],
{8},7,5,6,4,5,4,4w8[4:1],
{8},4,,,7,8,7,1/6,
{8},2,1,3/8,,7,8,6h[4:1],
{8},5,5-2[8:1]/6-1[8:1],,5/6,,,3,
{8}2/4,2/4,,6,5,7,1,8,
{8}1-6[8:1],8-3[8:1],1b,8b,,,,2,
{8}1/3,1/3,,4,5,4,2/7,2/7,
{8}1,8,1,3b/6b,
E
Re:MASTER
最終更新:2026年10月03日 22:51