アットウィキロゴ

フォルテシモBELL

アーティスト 天王洲 なずな(CV:山本 彩乃)

BPM EASY BASIC ADVANCED EXPERT MASTER Re:MASTER
121 1 3 7+ 9 12+ -

EXPERT MASTER Re:MASTER
譜面制作者 玉子豆腐 ロシェ@ペンギン -

EASY


BASIC

(121.0){1},,,,
{2}8,8,
{2}7,7,
{2}6,6,
{2}5,5,
{2}4,4,
{2}3,3,
{2}2,2-6[4:3],{1},
{4}8,8,8,,
{4}7,7,7,,
{4}6,6,6,,
{4}5,5,5,,
{4}4,4,4,,
{4}3,3,3,,
{4}2,2,2,,
{1}1b,
{1}1h[2:1],
{1}2h[2:1],
{1}3h[2:1],
{1}4h[2:1],
{1}5h[2:1],
{1}6h[2:1],
{1}7h[2:1],
{1}8b,
{2}1/8,1/8,
{4}1,1,1,,
{4}2,2,1/2,,
{4}3,3,3,,
{4}4,4,3/4,,
{4}6,6,6,,
{4}5,5,5/6,,
{4}7,7,7,,
{2}1/8,2/7,
{4}8,8,8,,
{4}7,7,7/8,,
{4}6,6,6,,
{4}5,5,5/6,,
{4}3,3,3,,
{4}4,4,3/4,,
{4}2,2,2,,
{1}1/8,
{1}8-5[2:1],,
{1}4-1[2:1],,
{1}7-3[4:3],,
{1}2-6[4:3],,
{1}8h[2:1],
{1}7h[2:1],
{4}6,6,5/6,,
{4}5,5,5/6,,
{4}3,3,3/4,,
{4}4,4,3/4,,
{4}2,2,1/2,,
{2}1/2,1/2,
{4}2,2,1/2,,
{4}1,1,1/2,,
{4}3,3,3/4,,
{4}4,4,3/4,,
{4}6,6,5/6,,
{4}5,5,5/6,,
{4}7,7,7/8,,
{2}7,8,
{2}1,{1}2-6[4:3],,
E

ADVANCED

(121.0){1},,,,
{4}1,1,2,2,
{4}3,3,4,4,
{4}5,5,6,6,
{4}7,7,1/8,,
{4}7,7,6,6,
{4}5,5,4,4,
{4}3,3,2,2,
{1}1^4[8:3]/8^5[8:3],
{4}3,4,2/5,,
{4}6,5,4/7,,
{4}4,4,5,5,
{4}4,5,3/6,,
{4}6,5,4/7,,
{4}3,4,2/5,,
{2}5/6,3/4,
{4}4/5,4/5,2/7,,
{4}3h[2:1],,4,3/4,
{4}6h[2:1],,5,5/6,
{4}2h[2:1],,1,1/2,
{4}7h[2:1],,8,7/8,
{2}2-5[4:1],7-4[4:1],
{2}1-5[4:1],8-4[4:1],
{2}2-6[4:1],7-3[4:1],
{1}1s5[2:1],
{4}7/8,7/8,1/2,1/2,
{4}3,2/4,6,5/7,
{4}3,2/4,7/8,,
{4}6,5/7,3,2/4,
{4}6,5/7,1b/2b,,
{1}3>6[2:1],
{1}6<3[2:1],
{4}4/5,4/5,3/6,3/6,
{4}2/7,2/7,1b/8b,,
{4}6,5/7,3,2/4,
{4}6,5/7,1/2,,
{4}3,2/4,6,5/7,
{4}3,2/4,7b/8b,,
{4}1/2,1/2,3/8,,
{4}7/8,7/8,1/6,,
{4}1/8,2/7,3/6,4^1[8:3]/5^8[8:3],{1},
{1}1qq6[4:5]/2pp5[4:5],,
{1}7qq4[4:5]/8pp3[4:5],,
{4}3h[4:1],4,6h[4:1],5,
{4}2h[4:1],3,7h[4:1],6,
{4}2h[4:1],1,7h[4:1],8,
{4}1/8,1/8,2b/7b,,
{2}3h[2:1],4,
{4}6h[2:1],,5,4/5,
{4}3,2/4,6,5/7,
{4}3,2/4,1/8,,
{4}2,1/3,7,6/8,
{4}2,1/3,7,6/8,
{4}1/2,1/2,7/8,7/8,
{4}1/8,2/7,3/6,,
{4}3/4,3/4,2/5,2/5,
{4}5/6,5/6,4/7,4/7,
{4}1/8,2/7,3/6,4/5,
{1}4-1[4:1]/5-8[4:1],
{4}1/2,1/2,4/7,,
{4}7/8,7/8,2/5,,
{4}3,3/4,6,5/6,
{4}3h[4:1],4,2/5,1,
{4}6h[4:1],5,4/7,8<1[1:1],{1},,
E

EXPERT

(121.0){8}3h[8:3],,,4h[8:3],,,3,,
{8}6h[8:3],,,5h[8:3],,,6,,
{8}3,6,4,5h[4:1],,4,,4^1[8:3]/5^8[8:3],
{4},,,2b/7b,
{4}4,3/4,5,5/6,
{8}3,3,2/4,,6,6,5/7,,
{4}1,1/2,8,7/8,
{8}2,2,1/3,,7,7,6/8,,
{4}3/4,2/5,5/6,4/7,
{8}2,1,3/8,,7,8,1/6,,
{8}4/5,,3/6,,2/7,,8/1>7[2:1],1/8h[8:5],
{4},,,1b/8b,
{16}3h[16:3],,,4,,,2/5,,2/5,,,,7/8,,,,
{16}6h[16:3],,,5,,,4/7,,4/7,,,,1/2,,,,
{16}3h[16:3],,,4,,,2/5,,2/5,,,,7/8,,,,
{8}5/6,,3/8,3h[8:3]/8h[8:3],,,,,
{16}2h[16:3],,,1,,,3/8,,3/8,,,,5/6,,,,
{16}7h[16:3],,,8,,,1/6,,1/6,,,,3/4,,,,
{4}2^5[8:1],1,7^4[8:1],8,
{2}1h[2:1],8b,
{4}5/4h[4:1],3,4/5h[4:1],6,
{4}6/3h[4:1],2,3/6h[4:1],7,
{4}7/2h[4:1],1,2/7h[4:1],8,
{4}8/1h[4:1],2,1/8h[4:1],7,
{4}1h[4:1],2h[4:1],3h[4:1],7h[4:1],
{4}6h[4:1],5h[4:1],2h[4:1],3h[4:1],
{1}4pp4[2:1]*qq4[2:1],
{4}1-5[8:1],8-4[8:1],2-5[8:1],7,
{4}8-4[8:1],1-5[8:1],7-4[8:1],2b,
{8}4,4>7[4:1],5,5,,,,,
{8}7h[4:1],,2-5[8:1],2,,1b,,,
{8}7h[8:3],8,1,2h[2:1],,3,4,5h[8:3],
{16},,6,,6,,,,2/4,,,5/7,,,3/6,,
{8}3^8[8:1],,7,7,,6,6,6^1[8:1],
{8},2,2,2,,,2/7,,
{16}5h[16:3],,,6h[16:3],,,7,,3h[16:3],,,2h[16:3],,,1,,
{4}5h[4:1],3h[4:1],7h[4:1],2b,
{8}5,5<2[4:1],4,4,,,,,
{8}2h[4:1],,7-4[8:1],7,,8b,,,
{8}2h[8:3],1,8,7h[2:1],,6,5,4h[8:3],
{16},,3,,3,,,,5/7,,,2/4,,,3/6,,
{16}2h[16:3],,,3h[16:3],,,4,,4,,,,1/8,,,,
{16}7h[16:3],,,6h[16:3],,,5,,5,,,,1/8,,,,
{8}3/8,,5/6,5/6,,1/6,,3qq2[8:3]/4pp5[8:3],{1},
{1}2qq5[8:3],
{1}7pp4[8:3],
{4}2,3pp8[8:3],,,
{4}7,6qq1[8:3],,,
{1}2q1[8:3]/3<8[8:3],
{1}6>1[8:3]/7p8[8:3],
{4}3/5,1/7,4/6,2/8,
{4}3/4,7/8,5/6,1/2,
{8}2/7,,1/8,1^4[16:3]/8^5[16:3],,,,,
{16}4h[4:1]/5h[4:1],,,,,,3/6,,,,2b/5b,,,4b/7b,,,
{8}7/2h[8:3],,8,7h[2:1],,6,5,4h[8:3],
{16},,3,,3,,,,5/7,,,2/4,,,3/6,,
{8}6^1[16:3],,2,2,,3,3,3^8[8:1],
{8},7,7,7,,,3/6,,
{16}1/2,,,3/8,,,4/7,,7/8,,,1/6,,,2/5,,
{4}4,4/6,2/6,2b/7b,
{8}4,4>7[4:1],5,5,,,,,
{8}7h[4:1],,2-5[8:1],2,,1b,,,
{8}7h[8:3],8,1,2h[2:1],,3,4,5h[8:3],
{16},,6,,6,,,,1/3,,,6/8,,,2/7,,
{16}1/2,,,3/8,,,4/7,,4/7,,,,1/8,,,,
{16}7/8,,,1/6,,,2/5,,2/5,,,,1/8,,,,
{8}3/8,,5/6,5/6,,1/6,,3-8[8:3]/7-4[8:3],
{8},,,,,,2/6,2-5[8:3]/6-1[8:3],
{8},,,,,,1/2,{1}1bqq6[4:3]/2bpp5[4:3],,
E

MASTER

(121.0){8}2,3,4,5pp7[8:1],,8,1,,
{8}7,6,5,4qq2[8:1],,1,8,7,
{8}6,5^8[8:1],4,5^2[8:1],,5qq2[8:3]*pp8[8:3],,5,
{2},3qq1[8:1]/7qq5[8:1],
{8}1/2,8,7,5/6,4,3,2/1^4[8:1],8,
{4}1^6[8:1],1pp5[4:1],1,,
{8}4/5,6,7,1/8,2,3,4/5,4/5,
{8},3/6,3/6q8[4:1],,2,,1,,
{8}7/8,1,2,3/4,5,6,7/8^5[8:1],1,
{4}8^3[8:1],8qq4[4:1],8,,
{16}3/6,,4/5,,4/5,,3,4,3,,6,5,6,,1b^4[4:1]/8b^5[4:1],,
{8},,,,,4,5,,
{16}1^6[16:3],,,6<3[16:5],,,4,,4,,,,5,,,,
{16}8^3[16:3],,,3>6[16:5],,,5,,5,,,,4,,,,
{16}2/4,,,5/3V14[4:1]*pp4[4:1],,,3,,,,,,,,5,,
{8}6,7,8,1h[8:3],,8,8,,
{16}2^7[16:3],,,7pp4[16:5],,,5,,5,,,,6,,,,
{16}7^2[16:3],,,2qq5[16:5],,,4,,4,,,,3,,,,
{2}1^4[8:1]/5p8[8:1],4q1[8:1]/8^5[8:1],
{8}2h[4:1],,4h[4:1],,6h[4:1],,8,1,
{8}7<3[4:1],,3q7[4:1],,7pp2[2:1],,5,5,
{4},4,3,2/5,
{8}2>6[4:1],,6p2[4:1],,2qq7[2:1],,4,4,
{4},5,6,4/7,
{8}6h[4:1],,3h[4:1],,7h[4:1],,2h[8:5],1,
{8},8,,7,,5,4,3,
{8}2^4[8:1],,6^8[8:1],,1,2,3,4pp4[8:3]*qq4[8:3],
{8},,,,,,7p2[4:1],8,
{4}7,1,2/8,3b/7b,
{8}8/1h[4:3],,2,2>8[4:1],,,,1,
{8}2,3,4,5-3[8:1]/6-8[8:1],,5/6,,,
{8}1/2,8,7,5/6z2[4:1],,5,,4,
{16},,1/3,,1/3,,,,4,,,3/5,,,2/6,,
{8}1/8,,4/5,6/3>6[2:1],,5,,4,
{16},,3,,2,,1/8,,,,4,,5,,3,4,
{16}3,,,2/4,,,1/5,,6/8h[16:3],,,1,,,2/7,,
{8},4/5,5/4^1[8:1]*^7[8:1],,4w8[8:1],,4,,
{8}4/5,,3/6,3v1[8:1]/6v8[8:1],,,,2,
{8}3/4,5,6,7/8V64[4:1]*V24[4:1],,8,,,
{8}1/2,3,4,6/5-2[8:1]*^2[8:1],,5-8[8:1]*^8[8:1],,5,
{16},,1,,2/8,,,,1/5,,,3/7,,,1,8,
{16}2^7[16:3],,,7p2[16:3],,,4,,4^1[8:1]*^7[8:1],,,,,,,,
{16}7^2[16:3],,,2q7[16:3],,,5,,5^2[8:1]*^8[8:1],,,,,,,,
{8}1,2/8,3/7,6/4^1[8:1]*^7[8:1],,4w8[8:3],,4,
{16},,,,,,,,3/6,,3/6,,5,4,5,,
{16}3,4,3,,2/5,,6,5,6,,4/7,,3,4,3,,
{16}2/5,,6,5,6,,4/7,4^1[8:1]/7qq5[8:1],,,,,,,,6/8,
{16},6,5,4,3,,2/5,,6,,4/7,,8b/1b>5[8:1],,,,
{16},,8,,,1/7,,,6,5,6,,4/5,,3/6,,
{16}7,,6/8,,5,4h[8:3],,2,,2,,2,4,,3/5,,
{16}2,,1/3,,4,5h[8:3],,7,,7,,7,5,,4/6,,
{8}5/1^4[8:1],,5/1^6[8:1],,1/5,,1/5,1b/5bpp8[8:3],
{8},1,2,3,4,,2/7,,
{8}3,,4,4w8[4:1],,,,,
{16}2,,3,,4,,5h[4:1],,,,6b,,,1b/8b,,,
{8}7,6/8,1/5,4/2pp6[8:3],,1,8,7,
{16},,4/5,,4/5,,,,6/8,,,1/3,,,4/5,,
{8}1,8,7,6<2[4:1],,5,4,3>7[4:1],
{16},,4,,5,,6,,,,4/5,,2/7,,3,4,
{16}2h[16:3],,,1,,,3/8,,7h[16:3],,,8,,,1/6,,
{16},,4,5,4,5,4,5,2h[8:1],,1h[8:1],,8h[8:1],,7h[8:1],,
{8}4,,1/8,1/8qq1[4:1],,,,2,
{8}1/3,4/8,5/7,6qq4[8:1]*pp8[8:1],,6,,,
{8}4/5,3/6,2/7,1/8h[2:1],,3q8[4:1],3,3,
{16},,1,,2/8,,,,1/3,,,6/8,,,4,5,
{16}4v7[16:3],,,7^1[16:3],,,6,,6-2[8:1],,,,,,1,,
{16}1^7[16:3],,,7v4[4:1],,,6,,6-2[8:1],,,,,,1,,
{8}2/8,3/7,4/6,5,,2p6[4:1]/7q3[4:1],,2/7,
{8},,4/5,,4,3,2,1b/8b,
{8},4/5,2/7,,1/5,2/6,3/7,4b/8bw4[8:5],,,,,,,,
E

Re:MASTER


名前:
コメント:

タグ:

+ タグ編集
  • タグ:
最終更新:2026年10月03日 22:52