アットウィキロゴ

私の中の幻想的世界観及びその顕現を想起させたある現実での出来事に関する一考察

アーティスト 小仏 凪(CV:佐倉 薫)

BPM EASY BASIC ADVANCED EXPERT MASTER Re:MASTER
175 2 6 8 9+ 13 -

EXPERT MASTER Re:MASTER
譜面制作者 Moon Strix 玉子豆腐 -

EASY


BASIC

(175.0){1},,,,
{2}5,5,
{2}6,6,
{2}7,7,
{1}1h[2:1]/8h[2:1],
{4}8,8,8,,
{4}7,7,7,,
{4}6,6,6,,
{1}4h[2:1]/5h[2:1],
{4}4,4,4,,
{4}3,3,3,,
{4}2,2,2,,
{1}1h[2:1]/8h[2:1],
{1}1-4[4:3],,
{1}8-5[4:3],,
{2}1,1/2,
{2}8,7/8,
{1}2h[2:1]/7h[2:1],
{4}1,1,8,8,
{4}1,1,2,,
{4}2,2,3,,
{4}3,3,4,,
{4}4,4,4/5,,
{2}5/6,5/6,
{2}3/4,3/4,
{4}5,5,4/6,,
{4}4,4,3/5,,
{1}5h[2:1],
{1}4h[2:1],
{1}6h[2:1],
{1}3h[2:1],
{1}2h[2:1]/4h[2:1],
{1}3h[2:1]/5h[2:1],
{1}4h[2:1]/6h[2:1],
{4}5/7,,8b,8,
{4}1,1,2,2,
{4}3,3,4,4,
{4}5,5,6,6,
{2}7/8,1/8,
{2}7,6,
{2}5,4,
{2}3,2,
{1}1h[2:1]/2h[2:1],
{4}8,8,7,7,
{4}6,6,5,5,
{4}4,4,3,3,
{4}1/2,1/2,1/2,,
{2}2,3,
{2}4,5,
{1}5h[2:1]/6h[2:1],
{1}3h[2:1]/4h[2:1],
{2}5,5,
{2}6,5/6,
{2}7,7,
{2}8,1/8,
{2}1,1,
{2}2,1/2,
{2}3,3,
{2}4,4/5,
{1}5h[2:1],
{1}4h[2:1],
{1}5h[2:1]/6h[2:1],
{1}3h[2:1]/4h[2:1],
{2}3/4,4/5,
{2}5/6,4/5,
{4}3,4,5,6,
{4}4/5,,4b,4,
{1}4-1[4:3],,
{1}5-8[4:3],,
{4}4,4,5,5,
{4}4,4,5,5,
{1}4h[2:1],
{1}3h[2:1]/5h[2:1],
{4}6,6,7,7,
{4}8,8,1,1,
{1}2h[2:1],
{1}3h[2:1]/4h[2:1],
{4}2,2,1,1,
{4}8,8,7,7,
{1}6h[2:1],
{1}4h[2:1]/5h[2:1],
{4}6,6,7,,
{4}7,7,8,,
{4}8,8,1,,
{4}1,1,2,,
{4}2,2,3,,
{4}3,3,4,,
{4}4,4,5,,
{1}4h[2:1]/5h[2:1],
{4}3,3,2,,
{4}2,2,1,,
{4}1,1,8,,
{4}8,8,7,,
{4}7,7,6,,
{4}6,6,5,,
{4}5,5,4,,
{1}4h[2:1]/5h[2:1],
{4}4/5,4b/5b,
E

ADVANCED

(175.0){1}3/4,
{1}2/3,
{1}1/2,
{1}1/8,
{2}7/8,7,
{2}6/7,6,
{2}5/6,5,
{1}4-1[2:1]/5-8[2:1],
{4}2b/7b,7,6,6,
{4}5,5,4/6,,
{4}2,2,3,3,
{4}4,4,3/5,,
{4}3,3,6,6,
{4}4/5,4/5,3/6,,
{4}3/6,2/7,1/8,1/8,
{2}2h[4:1]/7h[4:1],2b/7b,
{1}2h[2:1],
{1}1h[2:1],
{1}8h[2:1],
{1}7h[2:1],
{4}6,5,4/7,,
{4}3,4,2/5,,
{4}5,5,4,4,
{4}3/6,2/7,1/8,,
{2}2h[2:1],1,
{2}7h[2:1],8,
{2}1h[2:1],8,
{2}8h[2:1],1,
{4}2,1,3/8,,
{4}7,8,1/6,,
{4}1,1,8,8,
{4}2/7,3/6,4/5,,
{2}3h[2:1],4h[2:1],
{2}5h[2:1],6,
{2}6h[2:1],5h[2:1],
{2}4h[2:1],3,
{2}7/8,1/2,
{2}3/4,5/6,
{4}4,3,2,1,
{4}1/8,1/8,2b/7b,,
{4}3,3/4,6,5/6,
{4}7,6/8,1/5,,
{4}6,5/6,3,3/4,
{4}2,1/3,4/8,,
{4}4,3,2/4,,
{4}5,6,5/7,,
{4}4,3/5,6,5/7,
{4}4,3/5,2/6,,
{4}6,5/6,3,3/4,
{4}2,1/3,4/8,,
{4}3,3/4,6,5/6,
{4}7,6/8,1/5,,
{4}5,6,5/7,,
{4}4,3,2/4,,
{4}5,4/6,3,2/4,
{4}5,4/6,3/7,,
{1}8-3[1:1],
{4},,1,1,
{1}1-6[1:1],
{4},,7,7,
{1}7-4[1:1],
{4},,2,2,
{1}2-5[1:1],
{4},,7,7,
{2}7h[2:1],8h[2:1],
{2}1h[2:1],2,
{2}2h[2:1],1h[2:1],
{2}8h[2:1],7,
{2}1/8,2/3,
{2}4/5,6/7,
{4}5,6,7,8,
{4}1/8,1/8,2b/7b,,
{1}8qq5[4:5],,
{1}4qq1[4:5],,
{4}2,1/2,7,7/8,
{4}6,5/6,3,3/4,
{4}5,4/6,4,3/5,
{4}4/5,3/6,2/7,,
{4}7,7/8,2,1/2,
{4}3,2/4,1/5,,
{4}2,1/2,7,7/8,
{4}6,5/7,4/8,,
{4}8,7,6/8,,
{4}1,2,1/3,,
{4}8,1/7,2,1/3,
{4}8,1/7,2/6,,
{4}3b/6b,3,2,2,
{4}1,1,2/8,,
{4}6,6,7,7,
{4}8,8,1/7,,
{4}2,2,7,7,
{4}1/8,1/8,2/7,,
{4}2/7,3/6,4/5,4/5,
{2}3h[4:1]/6h[4:1],3b/6b,
{4}7,7,8,8,
{4}1,1,2/8,,
{4}2,2,1,1,
{4}8,8,1/7,,
{4}2,2,7,7,
{4}1/8,1/8,2/7,,
{4}2/7,3/6,4/5,4/5,
{2}3h[4:1]/6h[4:1],2h[4:1]/7h[4:1],
{4},1h[4:7]/8h[4:7],,,{1},,
E

EXPERT

(175.0){4}3h[4:3],4,,4,
{4}6h[4:3],5,,5,
{4}3h[4:3],4,,4,
{4}6h[4:3],5,,5,
{4}3,3,6,6,
{4}2,2,7,7,
{4}1/2,1/2,7/8,7/8,
{2}5h[4:1]/7h[4:1],2h[4:1]/4h[4:1],
{4}2,1/2,7,7/8-4[4:1],
{4},,5,4/6,
{4}7,7/8,2,2/1-5[4:1],
{4},,4,3/5,
{4}2,1/2,7,7/8-4[4:1],
{4},,5,4/6,
{1}1^4[2:1]*^6[2:1],
{8}2h[4:1]/7h[4:1],,,,1b/8b,1b/8b,,,
{1}3h[1:1],
{1}4h[1:1],
{1}5h[1:1],
{2}6h[2:1],3,
{8}7h[8:3],,,8h[8:3],,,1,,
{8}2h[8:3],,,1h[8:3],,,8,,
{8}7h[8:3],,,8h[8:3],,,1,1^6[8:1],
{2},1^4[8:1],
{4}7,6/8,2,1/3,
{4}6,5/7,3,2/4,
{8}4/5,,4/5,,2/7,2/7,,1h[8:3]/8h[8:3],
{4},,3/8,1/6,
{8}7,,6/8,,1,7,1,,
{8}2,,1/3,,8,2,8,,
{8}4/5,,4/5,,2/7,2/7,,2/6,
{8},3/7,,1/6,,3/8,,,
{8}7/8h[8:5],,,,,6,,6pp2[8:5],{1},
{8}2/1h[8:5],,,,,3,,3qq7[8:5],{1},
{6}6,5,6,3,4,3,
{6}6,5,6,3,4,3,
{8}2h[4:1]/7h[4:1],,,,2/7,,1/8,1-4[8:1]/8-5[8:1],
{4},,1b/3b,6b/8b,
{8}2/7,,3,4,3,2/5,,1h[8:3],
{8},,7,,7h[4:1],,2,2-5[8:1],
{8},,7,7-4[8:1],,,1,1-5[8:1],
{8},,,,6,5,6,,
{8}3h[4:1]/4h[4:1],,,,2,2,,1/8,
{8},3/4,,2/7,,5/6,,1-4[8:1]/8-5[8:1],
{4},,,1/2,
{1}7^4[4:1]/8^3[4:1],
{8}2/7,,3/4,,3,4,3,5h[8:3],
{4},3h[4:1],2h[4:1],1h[4:1],
{2}8-3[8:1],1-6[8:1],
{2}7-3[8:1],2-6[8:1],
{8}8-4[8:1],,,,1,,6/8,6/8,
{8},1/3,1/3,,8,,4/5,,
{2}1h[4:1]/6h[4:1],2h[4:1]/5h[4:1],
{4}3h[2:1]/4h[2:1],,,2b/5b,
{8}5,5,,6,6,,7,7,
{8},8,8^3[4:1],,,,,,
{8}4,4,,3,3,,2,2,
{8},1,1V75[4:1],,,,,,
{8}5,5,,6,6,,7,7,
{8},8,8q4[4:1],,,,,,
{8}4,4,,3,3,,2,2,
{8},1,1^6[4:1],,,,,,
{8}3/8h[8:5],,,,,2,,2qq6[8:5],{1},
{8}6/1h[8:5],,,,,7,,7qq3[8:5],{1},
{6}3,4,3,6,5,6,
{6}2,3,2,7,6,7,
{8}3h[4:1]/6h[4:1],,,,3/6,,1/8,1-5[8:1]/8-4[8:1],
{4},,3/5,4/6,
{2}3h[1:1],4,
{2}4h[1:1],6,
{2}6h[2:1],5h[2:1],
{2}4h[2:1],5,
{4}4,4,3,3,
{4}2,2,1,1,
{4}1/3,1/3,2/4,2/4,
{2}7h[4:1]/8h[4:1],1/6,
{8}2/7,,4/7,,6,5,6,4h[8:3],
{4},6h[4:1],7h[4:1],8h[4:1],
{2}1-6[8:1],8-3[8:1],
{2}2-6[8:1],7-3[8:1],
{8}1-5[8:1],,,,8,,2/4,2/4,
{8},5/7,5/7,,8,,4/5,,
{2}3h[4:1]/6h[4:1],2h[4:1]/7h[4:1],
{4}1h[2:1]/8h[2:1],,,2b/7b,
{4}6,5/7,3,2/4^7[4:1],
{4},,7/8,1/6,
{4}3,2/4,6,7/5^2[4:1],
{4},,1/2,3/8,
{4}6,5/7,3,2/4^7[4:1],
{4},,7/8,1/6,
{4}4h[4:1]/5h[4:1],,3/6,2/7,
{16}1/8,,,1/8,,,3h[8:3]/6h[8:3],,,,,,,,,,
{4}7,5/6,2,3^8[4:1]/4^7[4:1],
{4},,1/2,3/8,
{4}2,3/4,7,5^2[4:1]/6^1[4:1],
{4},,7/8,1/6,
{4}3,1/8,6,1pp4[4:3]/8qq5[4:3],{1},
{1}5^2[2:1]*^8[2:1],
{2}1h[4:1]/3h[4:1],6h[4:1]/8h[4:1],
{4},{1}5<4[4:7],,,
E

MASTER

(175.0){8},,8^5[4:1],8,1v4[4:1],1,,,
{8},,4^1[4:1],4,5v8[4:1],5,,,
{8},,1^4[4:1],1,8v6[4:1],8,,,
{8},,7v8[4:1],7,4^1[4:1],4,,,
{8},,7,8,7,8h[8:3],,,
{8},,6,5,6,5h[8:3],,,
{8},,1,2,1,2h[8:3],,,
{2}3h[4:1],2h[4:1]/4h[4:1],
{16}1b/6b,,2/5,,3,4,,,3/5,,,2/6,,,1/7,,
{4}2^5[4:1],2,6,4/7,
{16}3/8,,4/7,,6,5,,,4/6,,,3/7,,,2/8,,
{4}7^4[4:1],7,3,2/5,
{16}3,,6,,4,5,,,3/6,,,2/7,,,1/8,,
{4}2>8[8:3]/7<1[8:3],2/7,,3/6,
{16}2/7,,,,2,3,4,5,8,7,6,5,1,2,3,4,
{8}5/7h[2:1],,,,8b,8b,,,
{8},,2,1,3,8h[4:1],,1,
{8},,7,8,6,1h[4:1],,8,
{8},,7,3,6,4h[8:7],,5h[8:5],
{4},,,3/6,
{16}1/6,,7,8,7,,2/5,,3,4,3,,2/5,,,,
{16}3/8,,2,1,2,,4/7,,6,5,6,,4/7,,,,
{16}3/6,,5,4,5,,3/6,,4,5,4,,2/7,,3/6,,
{16},,6,,3,,7,8,1,2,3,4,8,7,6,5,
{16}4,,,,3h[4:1],,,4,4h[8:3],,3,,2,,1,,
{16},,,,6h[4:1],,,5,5h[8:3],,6,,7,,8,,
{16},,,,1h[4:1],,,8,8h[8:3],,1,,2,,3,,
{16},,3/6,,4,5,4,,3/6,,3/6,,2/7,,,,
{16}3h[16:3],,,4,2,,6h[16:3],,,5,7,,3,,2/4,,
{16}7h[16:3],,,8,6,,2h[16:3],,,1,3,,7,,6/8,,
{16}3h[16:3],,,6,2,,7h[16:3],,,2,8,,1,,8^5[8:1],,
{8},8^3[8:1],,8-4[8:1],,8b,,,
{8}1h[2:1]/2h[2:1],,,,,3/1h[8:3],4,5h[8:7],
{8},8,7,6h[8:3],,,,,
{8}3h[2:1]/4h[2:1],,,,,5/3h[8:3],6,7h[8:7],
{8},2,1,8h[4:1],,,8,7,
{6}8,7,1/6,3,4,2/5,
{6}1,2,3/8,6,5,4/7,
{16}8,7,6,5,1,2,3,4,8,7,6,5,4,3,2,,
{4},,1b/6b,3b/8b,
{8},,7,2-5[8:1],5-2[8:1],2<5[4:1],7,7h[8:3],
{8},,2,,2/5,,7p3[8:1],7h[8:3],
{8},,2q6[8:1],2h[8:3],,,7pp2[8:3],7h[8:5],
{8},,,,3,7,4,6,
{8}5qq3[8:1]*pp7[8:1],,,,4,6,,4p8[8:1]/8p4[8:1],
{8},4/8,,4<8[4:1]/8>4[4:1],,4qq8[8:5]/8qq4[8:5],,,
{4},,,2V46[4:1]/6V82[4:1],
{8}2/6,,,,1/5,4/8,3/7,2/6,
{8}1b/5b,,2,7-4[8:1],4-7[8:1],7>4[4:1],2,2h[8:3],
{4},7,4/5,2/7,
{8}8h[4:1]/1v6[8:1],,,7,7h[4:1]/8v5[8:1],,,6,
{8}6h[4:1]/7v4[8:1],,,5,5h[4:1]/6v3[8:1],,,4pp8[8:3]*qq8[8:3],
{8}4,,,,,,1/5,3/7,
{8},4/8,2h[4:1]/6h[4:1],,,,8,,
{6}1/7,2/6,3/5,4,3/5,2/6,
{16}1b/7bp5[4:1],,,,,,1,2,3,,,,,,,,
{8}3,2/4,,6,5/7,,2,1/3,
{16},,7,,6/8,,,,3,4,3,4,1b,,,,
{8}6,5/7,,3,2/4,,7,6/8,
{16},,2,,1/3,,,,4,5,4,5,3,6,3,6,
{8}4,3/5,,5,4/6,,1,2/8,
{8},1/8,2qq4[8:3]/7pp5[8:3],,2/7,,,,
{8}5,4/6,,1,2/8,,4,3/5,
{8},3/4,3/4,2/5,2/5,1/6,1/6,7/8,
{8}7h[2:1]/8h[2:1],,,,,1/7h[8:3],2,3h[8:7],
{8},6,5,4h[8:3],,,,,
{8}5h[2:1]/6h[2:1],,,,,7/5h[8:3],8,1h[8:7],
{8},4,3,2h[4:1],,,2,1,
{6}2/8,4/7,2/8,1/7,2/5,1/7,
{6}3/8,5/7,3/8,1/7,2/4,1/7,
{16}8,7,6,5,1,2,3,4,8,7,6,5,4,3,2,,
{4},,8b,1b,
{8},,1,8,2,7,,3,
{8}5,4,6,3,7,2,8-4[8:1],8,
{8},,1-5[16:3],1,,,4,4pp4[8:3]*qq4[8:3],{1},
{4}7-4[4:1],7,2-5[8:1]*-6[8:1],2,
{4}8w4[8:1],8,1-3[8:1]*-7[8:1],1w5[2:1],
{4}1,,,3qq1[4:1]*pp5[4:1],
{8}3,,,,1/5,2/6,3/7,4/8,
{8}1b/5b,,7,2-5[8:1],5-2[8:1],2<5[4:1],7,7h[8:3],
{4},2,4/5,2/7,
{8}1h[4:1]/8v3[8:1],,,2,2h[4:1]/1v4[8:1],,,3,
{8}3h[4:1]/2v5[8:1],,,4,4h[4:1]/3v6[8:1],,,5pp1[8:3]*qq1[8:3],
{8}5,,,,,,4/8,2/6,
{8},1/5,3h[4:1]/7h[4:1],,,,1,,
{6}2/8,3/7,4/6,5,4/6,3/7,
{16}8b/2bq4[4:1],,,,,,8,7,6,,,,,,,,
{16}4/5,,3/6,,3,4,,6,5,,4,5,4,,3/6,,
{4}1^4[4:1],1,5,3/7,
{16}3/6,,4/5,,6,5,,3,4,,5,4,5,,3/6,,
{4}8^5[4:1],8,4,2/6,
{16}1/8,,2/7,,2,1,,7,8,,1,8,1,,3/6,,
{4}1pp4[8:3]/8qq5[8:3],1/8,,2/7,
{16}3/6,,,,7,6,5,4,1,2,3,4,8,7,6,5,
{16}2/4,,,5/7,,,1/8,,,,4/5,,2b/7b,,,,
{16}1/6,,2/5,,3,4,,6,5,,3,5,3,,2/6,,
{16}7,6,5,4,8,7,6,5,1,8,7,6,5,,,,
{16}3/8,,4/7,,6,5,,3,4,,6,4,6,,3/7,,
{16}2,3,4,5,1,2,3,4,8,1,2,3,4,,,,
{16}4/5,,3/6,,2,1,,7,8,,2,7,2,,1/8,,
{16}7,6,5,4,2,3,4,5,8,7,6,5,1,2,3,4,
{16}5b,,,,5,6,7,8,4,3,2,1,8,7,6,5,
{2}4h[4:1],3h[4:1]/5h[4:1],
{4},2h[4:7]/6h[4:7],,,{1},,
E

Re:MASTER


名前:
コメント:

タグ:

+ タグ編集
  • タグ:
最終更新:2026年10月03日 22:52