アットウィキロゴ

猛進ソリストライフ!

アーティスト 月鈴 那知(CV:今村 彩夏)

BPM EASY BASIC ADVANCED EXPERT MASTER Re:MASTER
189 4 7 9+ 12+ 13+ -

EXPERT MASTER Re:MASTER
譜面制作者 小鳥遊さん ロシェ@ペンギン -

EASY


BASIC

(189.0){4},,,1h[2:3],{1},
{2},1,
{2}1,8h[2:1],
{4},8,,8,
{4},1h[2:1],,,
{1}1-4[4:3],
{4},,,8-5[4:3],{1},
{2},1h[2:1],
{2},2,
{4}3,3h[16:11],,,
{2},4,
{2}4,5,
{1}5h[2:1],
{4}6h[2:1],,,6,
{4},6,,7h[2:1]/8h[2:1],
{2},7,
{2}7,6,
{2}6,5h[1:1]/6h[1:1],{1},
{2}5,5,
{2}4,4,
{1}4h[1:1]/5h[1:1],
{2},4,
{2}4,3,
{2}3,3h[1:1]/4h[1:1],{1},
{2}1/2,1/2,
{4}1,1,8,8-4[4:3],{1},
{2},1h[2:1],
{4},1,,2,
{4}2h[2:1],,,2,
{4},3,3h[2:1],,
{4},3,,4,
{4}4h[2:1],,,4,
{4},5,5h[2:1],,
{4},5,,6,
{4}6h[2:1],,,6,
{4},7,7h[2:1],,
{4},7,,8,
(126.0){1}8-4[2:1],
{16}3h[8:3],,,,,,,,,,,4h[8:3],,,,,
{8},,,5h[8:3],,,,,
{16},6h[8:3],,,,,,,,,,,{4}7-4[16:7],{1},
{8},2-5[16:7],,,,,,,
{16},,,,,,,(252.0)7h[4:3]/8h[4:3],,,,,,,,,
{16},,,,,,,,,,,1h[4:3]/2h[4:3],,,,,
{16},,,,,,,,,,,,,,,8h[8:3],
{16},,,,,,,,,,,1h[8:3],,,,,
{16},,,,,,,2h[8:3]/8h[8:3],,,,,,,,,
{16},,,1h[8:3]/7h[8:3],,,,,,,,,,,,1b/8b,{1},
{4}7h[8:3],,,7,
{4},6h[8:3],,,
{2}6,5h[8:3],
{4},5,,,
{4}4h[4:3],,,5,
{2},3h[8:3]/4h[8:3],
{4},3/4,,5h[8:3]/6h[8:3],
{2},5/6,
{4},3h[8:3],,,
{4}2h[8:3],,,1/8,
{2},2b/7b,
{4},2h[8:3],,,
{2}2,3h[8:3],
{4},3,,4h[8:3],
{2},4,
{4},5h[4:3],,,
{4}4,,,5h[8:3]/6h[8:3],
{2},5/6,
{4}3h[8:3]/4h[8:3],,,3/4,
{2},6h[8:3],
{4},7h[8:3],,,
{4}7/8,,,1/2,
{2},8^5[1:1],{1},
{2},4h[4:3]/6h[4:3],
{4},,,3h[4:3]/5h[4:3],{1},
{4},1/2,,,
{4}1/8,,,7/8,
{2},1b/8b,
{1}8h[4:3],
{4},7h[4:3],,,
{2},5h[4:3]/6h[4:3],
{4},,,3h[4:3]/4h[4:3],{1},
{4},3/4,,,
{4}1/2,,,7/8,
{2},5h[2:1]/6h[2:1],
{4},,,3/4,
{4},,4,5,
{4}4,5,,5/6,
{2},3/4,
{4},4/6,,,
{4}3/5,,,4,
{4}4,4,5,5,
{4}5,4,,,
{1}3h[2:1],
{4}1/2,,,7/8,
{2},1b/8b,
{4},,,1b/2b,{1},
{4}7b/8b,,,1/8,
{2},1h[4:3],
{4},8b,,,
{4}7h[8:3],,,7,
{4}7,6h[8:3],,,
{4}6,6,,4/5,
{2},3/6,
{4},2/7,,,
{1}1h[8:5]/8h[8:5],
{4}1,1,2/8,,
{4}8,8,1/7,,
{4}6,6,4,4,
{2}5h[2:1],4b,
{4}4h[8:3]/6h[8:3],,,4,
{4}4,3h[8:3]/5h[8:3],,,
{4}5,5,,3,
{2}3,3h[2:1]/4h[2:1],
{4},,6,6,
{4},5h[2:1]/6h[2:1],,,
{4},4h[1:2]/7h[1:2],,,
{2},(240.0),
(228.0){4},(216.0),(204.0),(189.0){16}5-2[16:33]/6-1[16:33],,,,,{1},,,
E

ADVANCED

(189.0){4},,,1,
{4}1,2,2,3,
{4}3/4,,5,5,
{4}6,6,7,7/8,
{4},8,8,7,
{4}7,6,5/6,,
{4}4,4,3,3,
{4}2,1/2,,1,
{4}2,3,4,5,
{4}6,7,8,,
{2}8,1,
{1}1pp5[4:3],
{4},,6,5/6,
{4}5/6,3,3/4,3/4,
{4}6h[1:1],,5,5,
{4}5,5/6,4,3h[1:1],
{4},4,4,4,
{4}3/4,5,6,7,
{4}8,8,7,6,
{4}4/5,3,2,1,
{4}1,2,3,4/5,
{4}6,7,8,8,
{4}7,6,4/5,3,
{4}2,1,1,2,
{4}3,4/5,2,3,
{4}4,4,3,2,
{4}1/8,7,6,5,
{4}5,6,7,1/8,
{4}1/8,2/7,,4/5,
{4}6,7,{2}6v3[1:1]/8v3[1:1],{1},
{2},4h[4:3],
{4},3h[4:3],,,
{4}2h[4:3],,,1h[4:3],
{2},8,
{4},5h[4:3],,,
{4}6h[4:3],,,7h[4:3],
{2},8h[4:3],
{4},1,,,
{4}2/7,,,3/6,
{2},4/5,
{4},4/5,,,
(126.0){4}6,5,4,3,
{16}2-6[4:1],,,,,,,,,,,7-3[4:1],,,,,
{8},,,2-5[4:1],,,,,
{16},7-4[4:1],,,,,,,,,,,3-8[4:1],,,,
{16},,,,,,,6-1[4:1],,,,,,,,,
{8},4/5,,4-1[4:1]/5-8[4:1],,,,,
{16},,,,,,,(252.0)1h[4:3]/2h[4:3],,,,,,,,,
{16},,,,,,,,,,,7h[4:3]/8h[4:3],,,,,
{16},,,,,,,,,,,,,,,5h[4:3]/6h[4:3],{1},
{16},,,,,,,3h[4:3]/4h[4:3],,,,,,,,,
{16},,,,,,,,,,,,,,,1b/8b,{1},
{4}7,7,6,5/6,
{4},2,2,3,
{4}3/4,,5,6,
{4}7,8,1,2,
{4}3h[4:3],,,1,
{4},,4,3,
{4},3/4,3/4,5,
{4}6,,5/6,5/6,
{4},4,3,3,
{4}5,6,6,2/7,
{4}2/7,1/8,1/8,,
{4},2,2,3,
{4}3/4,,7,7,
{4}6,5/6,,4,
{4}3,2,1,8,
{4}7,6h[4:3],,,
{4}8,,,5,
{4}6,,5/6,5/6,
{4}4,3,,3/4,
{4}3/4,,5,6,
{4}6,4,3,2,
{4}1/8,1/8,2/7,2/7,
{4}3/6,3/6,{2}4^1[4:3]/5^8[4:3],{1},
{4},,6,5,
{4}4,3/4,,6V83[4:3],{1},
{4},3,3,4,
{4}4,5,5,6,
{4}6,5,4/5,,
{4}1,2,3,1/2,
{4},8,7,6,
{4}7/8,,1,1,
{4}1,8,8,8,
{1}1-5[2:1],
{4},6h[1:1],,,
{4}5,5,,3h[4:3],
{2},4,
{4}2h[4:3],,,1h[4:3],
{2},8h[4:3],
{4},7,,6,
{4}5/6,,3,3/4,
{4},6,5/6,,
{4}3,3/4,,2,
{4}1/2,,7,7/8,
{4},2,1/2,,
{4}3/8,,,7,
{4}7/8,,1/6,1/6,
{2},1^4[2:1],
{4},,,8^5[2:1],{1},
{4}4,4,4,5,
{4}5,5,{2}3V14[4:3]/6V85[4:3],{1},
{4}6h[4:3],,,5,
{4}5/6,3h[4:3],,,
{4}4,3/4,,2h[4:3],
{2},1h[4:3],
{4},8h[4:3],,,
{1}7b,
{4}3,3/4,6,5/6,
{4}3,3/4,6,5/6,
{4}7,7/8,2,1/2,
{4}7,7/8,1/6,,
{4}3h[4:3],,,4,
{4}3/4,6h[4:3],,,
{4}5,5/6,,4,
{4}4,3,3,2,
{4}2,1,1,8,
{4}8,7,7,6,
{4}6,5,5<4[1:2],,
{2},(240.0),
(228.0){4},(216.0),(204.0),(189.0),
E

EXPERT

(189.0){8},,,,,,3,3,
{8}4,4,3,3,4,3,3,5,
{8}3,3,6,6,2/7,,3/6,,
{8}4/5,,4,4h[2:1],,5,,6,
{8}5,4,3h[4:3],,1,,1,,
{8}8,8h[8:5],,6,,5,5,,
{8}3h[4:1]/4h[4:1],,,5/2<4[8:7],,,,,
{8},,,,,,6,6,
{8}5,5,,4/7,,4/7,,3,
{8}3,2/4,,,1/8h[2:1],,1,,
{8}1,2/7,,2h[8:3]/7h[8:3],,,,,
{16}6,,5,,4,,3h[16:3],,,4h[16:3],,,3h[16:3],,,6h[16:3],
{16},,5h[16:3],,,6h[16:3],,,3^6[4:1],,,,,,,,
{4},7p2[8:3],,,
{1}1>8[1:1],
{8},,,,4/5,,6,6,
{8}5,5,6,6,5,6,6,4,
{8}6,6,3,3,2/7,,8,8h[4:1],
{8},7h[4:1],,6,,,6h[4:1],,
{8}5h[4:1],,4h[4:1],,3,3>6[8:5],,,
{8},,,,,,,1,
{8}1h[4:1],,2,2h[4:1],,3h[4:1],,4,
{4},4h[4:1],5h[4:1],6h[4:1],
{8}7,7<2[4:3],,,,,,,
{8},,,,2/7,,8,8h[4:1],
{8},7h[4:1],,6,,,6h[4:1],,
{8}5h[4:1],,4h[4:1],,3,3>6[8:5],,,
{4},,,5h[4:1],
{4}6h[4:1],7,,4h[4:1],
{4}3h[4:1],2h[4:1],{2}1w5[8:7],{1},
{4},,5/6h[2:1],4,
{4}3,4/3h[2:1],5,6,
{4}4/6h[2:1],3,2,5/3h[2:1],
{4}6,7,4/5h[2:1],6,
{4}7,5/4h[2:1],3,2,
{4}4/5h[2:1],6,8,5/4h[2:1],
{8}3,,1,,4/5,,6,5,
{8}6,,4/5,,3,4,3,,
{8}4/5,,7,5,6,,4/5,,
{8}2,4,3,,4/5,,8,5,
{8}7,,4/5,,1,4,2,,
(126.0){4}1/8,2/7,3/6,4/5,
{16}3/6,,4,,5,,6,6,5,,,4/7,,6,,5,
{16},3,3,4,,,2/5,,3,,4,,6,6,5,,
{16},3/6,,5,,4,,3,3,4,,,3/6h[4:1],,4,,
{16}5,,6,6,5,,,7/4h[4:1],,6,,5,,3,3,4,
{16},,2/5h[4:1],,3,,4,,6,6,5,,,6/3h[4:1],,5,
{16},4,,3,3,4,,(252.0)1h[4:1]/2h[4:1],,,,,,1h[4:1]/2h[4:1],,,
{16},,,3/8,,,,3/8,,,,7h[4:1]/8h[4:1],,,,,
{16},7h[4:1]/8h[4:1],,,,,,1/6,,,,1/6,,,,3h[4:1]/4h[4:1],
{16},,,,,3/4,,,,,,5h[4:1]/6h[4:1],,,,,
{16},5/6,,,,,,4/5,,,,,,3/6,,,
{16},,,2/7,,,,,,1/8,,,,,,1V35[16:9]/8V64[16:9],{1},
{8}2-5[4:1],,,1-6[4:1],,,2,,
{8}2,,7-4[4:1],,,8-3[4:1],,,
{8}7,,7,,2-5[4:1],,,1-6[4:1],
{4},2,3,4,
{4}5-2[4:1]/6-1[4:1],,,3/8,
{8},,,,7-4[4:1],,,8-3[4:1],
{4},7,7,2-5[4:1],
{8},1-6[4:1],,,2,,2,,
{8}2,,7-4[4:1],,,8-3[4:1],,,
{8}1-6[4:1],,,2-5[4:1],,,7,,
{4}8,1,2/7,,
{8},,7-4[4:1],,,8-3[4:1],,,
{8}7,,7,,2-5[4:1],,,1-6[4:1],
{4},2,2,7-4[4:1],
{8},8-3[4:1],,,7,,6,,
{4}5,3-8[4:1]/4-7[4:1],,,
{4}1/6,,,1-5[4:1],
{8},6h[4:1],,,4/7,,4/7,,
{8}8-4[4:1],,,3h[4:1],,,2/5,,
{4}2/5,2/5,5-1[4:1]/6-8[4:1],,
{4},3-1[4:1]/4-8[4:1],,,
{1}4qq1[1:1]/5pp8[1:1],
{2},2/7h[2:3],{1},
{8}1b,,,,3/6,,5,5,
{8},4,4,,4/5,,2/7,,
{4}6,5,4,3,
{4}2,3h[2:1],4,5,
{4}6h[2:1],5,4,2h[2:1],
{4}3,4,7h[4:1],6,
{4}4/5,,3,2,
{4}1,8,7,6,
{4}5h[2:1],,3,3,
{4}2/4,6,6,5/7,
{8}3,,3,,1,1,,2/7,
{8},8,8h[8:3],,,1,,,
{4}2,3,4,5,
{4}6,7p3[4:1],8,,
{4}2h[2:1],1,8,7h[2:1],
{4}8,1,3h[2:1],2,
{4}1,6h[4:1],7,1/8,
{8}7,8,7,,1/8,,2,1,
{8}2,,1/8,,7,8,7,,
{8}2/7,,3/6,,4/5,,3,4,
{8}3,4,3,,6,5,6,5,
{4}6,3h[4:1],2h[4:1],1h[4:1],
{4}8-4[4:1],,,5h[4:1],
{4}6h[4:1],7h[4:1],8h[4:1],1h[4:1],
{4}2h[4:1],3h[4:1],4qq1[8:7],,
{4},,,5pp8[8:7],{1},
{4}1,2/8,3/7,8,
{4}1/7,2/6,3-1[16:3]/5-7[16:3],,
{4},4-2[16:3]/6-8[16:3],,,
{8}1h[4:1],,,1h[4:1],,,2/8,,
{8}3/7,,8h[4:1],,,8h[4:1],,,
{4}1/7,2/6,3/5,3h[4:1]/4h[4:1],
{8},2/5,,,5h[4:1]/6h[4:1],,,4/7,
{4},1/8,2/7,3/6,
{1}4V61[8:3]/5V38[8:3],
{4}1/2,3,7/8,6,
{4}1/2,3,7/8,6,
{4}3/4,1,5/6,8,
{4}4/5,3/6,1b/8b,,
{8}3h[4:1]/4h[4:1],,,1h[4:1]/2h[4:1],,,3/8,,
{8}4/7,,5h[4:1]/6h[4:1],,,7h[4:1]/8h[4:1],,,
{4}1/6,2/5,3/4,6h[2:1],
{4}5,5,3h[4:3],4,
{4}4,4,5b-8[16:3],4,
{4}4b-2[16:3],5,5b-7[16:3],4,
{4}4b-1[16:3],5,5b<4[1:2],,
{2},(240.0),
(228.0){4},(216.0),(204.0),(189.0),
E

MASTER

(189.0){8},,,,,,3,4,
{8}2,5,4,2,3,4,2,5,
{8}4,5,3b/6b,,2pp4[4:1],,1<5[4:1],,
{8},3,2,1/4,,2,2,3,
{8}4/5,,7qq5[4:1],,8>4[4:1],,,6,
{8}7,5/8,,7,7,6,4/5,,
{8}2pp4[4:1],,1<5[4:1],,,3,2,1/4,
{8},2,2,3,4/5,,7,8,
{8}7,6/1-5[8:1],,7-3[8:1],,8pp4[8:3]*qq4[8:3],,,
{4},,3qq1[4:1],4<8[4:1],
{8},2,3,1/4,,8,7,6,
{16}5,,4,,3,,4h[16:3],,,5h[16:3],,,4h[16:3],,,3h[16:3],
{16},,2h[16:3],,,1,,,8qq5[2:1],,,,4,,,,
{4}3,1pp4[2:1],5,6,
{8}8-3[8:1]*-5[8:1],,8,,1/7,7/1-4[8:1]*-6[8:1],,1,
{8},5,4,5,2/7,,6,5,
{8}7,4,5,7,6,5,7,4,
{8}5,6,1/7,,1/2^5[8:1],,8,8,
{8},7-3[8:1]*-4[8:1],,,,,1/2,,
{8}3/8,,7/4h[8:3],,3,3>6[8:3],,4,
{8},5,,8,7,8,1/6,,
{8}5/6^1[8:1],,4,4,,2-7[8:1]/3-6[8:1],,,
{4},5,4/5,3/6<3[8:3],
{8}4,4,,5,,4/5,,6,
{8}5,6,4/7,,8/7^4[8:1],,1,1,
{8},2-5[8:1]*-6[8:1],,,,,7/8,,
{8}1/6,,2h[8:3],,1,1<5[4:1],,5,
{8}4,3,,2,1-5[8:1],2,1^4[8:1],,
{4}1^6[8:1],1,1V35[4:1]/5V71[4:1],,
{4},4/1v8[8:1],3,2>6[4:1],
{8}1,,8,,7/8,7/8,,1/6,
{8},4/5,3/6,,8bp4[4:1],,4<8[4:1],,
{4}2,1h[4:1],2h[4:1],3h[4:1],
{4}4q8[4:1],8<4[4:1],2,3h[4:1],
{4}2h[4:1],1h[4:1],8p2[8:3]*<3[8:3],,
{4},8p1[8:3]*<2[8:3],,,
{4}1>6[8:3]*q7[8:3],,,1>7[8:3]*q8[8:3],
{4},,1-5[4:1],5-3[8:1]*-7[8:1],
{4},1-5[4:1],5^3[8:1]*^7[8:1],,
{4}8-4[4:1],4-2[8:1]*-6[8:1],,8-4[4:1],
{4}4^2[8:1]*^6[8:1],,1pp4[2:1],7,
{4}6,5pp8[2:1],2,3,
(126.0){4}4b-1[8:1]*-2[8:1],4-6[8:1]*-7[8:1],4w8[8:1],4,
{16}2b/6b,,3,4,1pp3[8:1],,7,1,7,,,1/7,,4,5,2pp4[8:1],
{16},8,2,8,,,2/8,,3,4,1p5[8:1],,7,1,7,,
{16},1/7,,4,5,3,6,2,7,1,8,1,2b/7b,,6,5,
{16}8qq6[8:1],,2,8,2,,,2/8,,5,4,7qq5[8:1],,1,7,1,
{16},,1/7,,6,5,8q4[8:1],,2,8,2,,,2/8,,5,
{16}4,6,3,7,2,1/8,,(252.0)2b-5[4:1]*-7[4:1],,,,,,,,,
{16},,,{615}4/6,,,,,,,,,,,,,,,,,,,,,,,,,,,,,,,,,,,,,,,,,,,,,,,,,,,,,,,,,,,,,,,,,,,,,,,,,,,,,,,,,,,,,,,,,,,,,,,,,,,,,,,,,,,,,,,,,,,,,,,,,,,,,,,,,,,,,,,,,,,,,,,,,,,,,,,,,,,,,,,,,,,,,,,,,,,,,{631}3/5,,,,,,,,,,,,,,,,,,,,,,,,,,,,,,,,,,,,,,,,,,,,,,,,,,,,,,,,,,,,,,,,,,,,,,,,,,,,,,,,,,,,,,,,,,,,,,,,,,,,,,,,,,,,,,,,,,,,,,,,,,,,,,,,,,,,,,,,,,{16}7b-2[4:1]*-4[4:1],,,,,
{16},,,,,,,{615}3/5,,,,,,,,,,,,,,,,,,,,,,,,,,,,,,,,,,,,,,,,,,,,,,,,,,,,,,,,,,,,,,,,,,,,,,,,,,,,,,,,,,,,,,,,,,,,,,,,,,,,,,,,,,,,,,,,,,,,,,,,,,,,,,,,,,,,,,,,,,,,,,,,,,,,,,,,,,,,,,,,,,,,,,,,,,,,,{631}4/6,,,,,,,,,,,,,,,,,,,,,,,,,,,,,,,,,,,,,,,,,,,,,,,,,,,,,,,,,,,,,,,,,,,,,,,,,,,,,,,,,,,,,,,,,,,,,,,,,,,,,,,,,,,,,,,,,,,,,,,,,,,,,,,,,,,,,,,,,,{16}6h[4:1]/8h[4:1],
{16},,,,,4h[4:1]/6h[4:1],,,,,,2^5[4:1]/6^1[4:1],,,,,
{16},,,,,,,1h[4:1]/5h[4:1],,,,,,3h[4:1]/7h[4:1],,,
{16},,,1-4[16:3]/5-8[16:3],,,,,,,,,,,,8,
{16}1,2,3,4,5,6,7,8,1,2,3,4,5,6,7,8,
{8}1b,,6,5/7,,1,2/8,,
{8}4/5,,1/6,,3,2/4,,8,
{8}1/7,,4/5,,3/8,,6,5/7,
{8},1,8/2h[4:1],,3h[4:1],,4h[4:1],,
{4}5p4[2:1],,,8q1[2:1],
{8},,,,6h[4:1],,8,5h[4:1],
{8},1,2/4,,3/8,,3h[4:1],,
{8}1,4h[4:1],,8,5/7,,1/6,,
{8}2/7,,6h[4:1],,8,5h[4:1],,1,
{4}2/4,3/8,2/7,3v1[4:1]/7v5[4:1],
{2},2v4[4:1]/6v8[4:1],
{8},,1b/6b,,3,2/4,,8,
{8}1/7,,4/5,,3/8,,6,5/7,
{8},1,2/8,,4/5,,1/6,,
{8}3,2/4,,8,1/7h[4:1],,6h[4:1],,
{4}5h[4:1],4z8[2:1],,,
{4}5s1[2:1],,,3h[4:1],
{8}1,4h[4:1],,8,5/7,,1/6,,
{8}6h[4:1],,8,5h[4:1],,1,2/4,,
{8}3/8,,2/7,,3h[4:1],,1,4h[4:1],
{8},8,5/7,,1/6,,4qq5[2:1]/8qq1[2:1],,
{4},,,5,
{4}4/6,3/7,{2}2h[16:25]/8h[16:25],{1},
{16},,3/7,4/6,5,,,,1b/7b,,,,2,,8,,
{8}2,1,2h[4:1],,3h[4:1],,4,5,
{8}4,6,4,7,4,8,4,1,
{4}4,2q7[8:3]/3^6[8:3],,,
{4}1^4[8:3]/8q5[8:3],,,6q3[8:3]/7^2[8:3],
{4},,4/5,7/8,
{8}1/2,,3,5,3,4,3h[4:1],,
{4}2h[4:1],1,2/8,3/7,
{8}6/4>8[4:1],,,,,6,5,7,
{8}5,8,,3,4,2,,6,
{8}5,7,5,8,5,1/5,,3/7,
{8},1/8,2b>6[2:1],,1,1,,8,
{4}8,1/7,2/6,3/5h[4:1],
{4}4h[4:1],5h[4:1],4>8[4:1],,
{4}7h[2:1],,6h[4:1],8h[4:1],
{4}5h[4:1],1h[4:1],4qq1[4:3],1,
{8}8,,7,,6,,5b,1,
{8}5,2,5,3,5,1,5,8,
{8}5,7,5,1,5,2,5,3,
{8}5h[4:1],,6h[4:1],,7h[4:1],,4b,8,
{8}4,7,4,6,4,8,4,1,
{8}4,2,4b,,8,5,6,,
{8}1b/8b,,2,4,3h[4:1],,2h[4:1],,
{4}1h[4:1],8h[4:1],7h[4:1],6h[4:1],
{4}5,4/5,1bqq4[4:3]/5b<3[4:3],,
{4},,,4b>6[4:3]/8bpp5[4:3],{1},
{8}3/8,,6,5/7,,3,4/2h[4:1],,
{4}1h[4:1],8h[4:1],7bw3[8:3],,
{4},5bw1[8:3],,,
{8}3h[4:1],,1,4h[4:1],,8,5/7,,
{8}2/4,,6h[4:1],,8,5h[4:1],,1,
{4}2/4,5/7,1/8,3h[4:1],
{8}1,4h[4:1],,8,5/7,,2/4,,
{4}1/8,4/5pp8[2:1],3,2,
{16}1,,,,8,7,6,5,4,3,2,1,8,7,6,5,
{8}1b,,7,8-6[8:1],,8,1,,
{8}1/2,,2,1-3[8:1],,1,8,,
{8}7/8,,7,8-6[8:1],,8,1,,
{4}1/2V48[2:1],5-7[4:1],,,
{8}3h[4:1],,1,4h[4:1],,8,1/5,,
{8}3/7,,6h[4:1],,8,5h[4:1],,1,
{4}4/8,2/6,4/8,4b/5b,
{8}3,4,2,,1b/8b,,7,5,
{4}6,4/5,1b/8b,2/7,
{4}3-8[4:1]/6-1[4:1],,,1/2,
{8}3/4,,5/6,,7b,8,6,1,
{8}5,2,1,2,(240.0)8,3,7,4,
(228.0){16}5h[4:1],,,,(216.0)6h[4:1],,,,(204.0)7h[16:5],,,,(189.0),1pp4[16:23]*qq6[16:23],,,,,,,,,,,{1},,
E

Re:MASTER


名前:
コメント:

タグ:

+ タグ編集
  • タグ:
最終更新:2026年10月03日 23:01