| アーティスト |
御形 アリシアナ(CV:福原 綾香) |
EASY
BASIC
(200.0){1},,,,,,,,,,,
{2}8,8,
{2}7,7,
{2}6,6,
{2}4/5,4/5,
{2}4,4,
{2}3,3,
{2}2,2,
{2}1/8,1/8,
{1}1-5[4:3],,,
{2}8,8,
{2}7,7,
{1}6h[1:1],,
{2}5,5,
{2}4,4,
{1}3h[1:1],,
{2}2,2,
{2}1,1,
{1}8h[1:1],,
{2}7,7,
{2}6,6,
{4}5,4,5,,
{1}4-1[4:3],,
{1}5-8[4:3],,
{1}1-6[4:3],,
{1}8-3[4:3],,
{1}1h[1:1],,
{4}2b,2,2,,
{4}3,3,3,,
{4}4,4,4,,
{4}5,5,4/5,,
{4}6,6,6,,
{4}7,7,7,,
{4}8,8,8,,
{4}1,1,1/8,,
{4}7,7,7,,
{4}6,6,6,,
{4}5,5,5,,
{4}4,4,4/5,,
{4}3,3,3,,
{4}2,2,2,,
{4}1,1,1,,
{4}8,8,1/8,,
{2}1,1,
{4}8,8,8b,,
{1}7-4[4:3],,
{1}2-5[4:3],,
{1}7-3[4:3],,
{1}2-6[4:3],,
{2}7,7,
{2}8,8,
{2}1,1,
{1}2,
{2}3,3,
{2}4,4,
{2}5,5,
{2}6,6,{1},,
{4}8,8,8,,
{4}7,7,7,,
{4}6,6,6,,
{4}5/6,5/6,5/6,,
{4}5,5,5,,
{4}4,4,4,,
{4}3,3,3,,
{4}3/4,3/4,3/4,,
{4}2,2,2,,
{4}3,3,3,,
{4}4,4,4,,
{4}4/5,4/5,4/5,,
{4}6,6,6,,
{4}7,7,7,,
{4}8,8,8,,
{4}1/8,1/8,1/8,,
{2}1,1,
{4}8,8,8b,,
{2}1/8,1/8,
{4}1/8,1/8,1b/8b,
E
ADVANCED
(200.0){1},,,,,,,
{2},4h[4:13],{1},
{1}5h[4:7],,
{4}3,3,3/4,,
{4}2,1/8,1/8,1/8,
{4}6,6,5/6,,
{4}1/8,1/8,1/8,1/8,
{4}3,3,3/4,,
{4}2,2,1/8,1/8,
{4}6,6,5/6,,
{4}1/8,1/8,1/8,1bpp4[4:5]/8bqq5[4:5],{1},,
{4}5,6,7,8b,
{4}1,1,2,,
{4}3,3,4,,
{4}4,5,3/6,,
{4}4,3,2,1b,
{4}8,8,7,,
{4}6,6,5,,
{4}5,4,3/6,,
{4}6,7,8,1b,
{4}2,2,1/2,,
{4}3,3,3/4,,
{4}4,5,3/6,,
{4}3,2,1,8b,
{4}7,7,7/8,,
{4}6,6,5/6,,
{4}4/5,4/5,3/6,,
{4}3h[2:1],4,{2}4q7[1:1],{1},
{4}1h[2:1],8,8,,
{4}8,1,2/7,,
{4}6h[2:1],5,{2}5p2[1:1],{1},
{4}8h[2:1],1,1,,
{2}1h[4:1]/8h[4:1],1b/8b,
{1}4qq1[4:5]/5pp8[4:5],,
{4}7,7,7/8,,
{4}2,2,1/2,,
{4}7,7/8,2,1/2-5[2:1],{1},
{4}6,6,5/6,,
{2}3h[4:1]/4h[4:1],3/4,
{4}6,5/6,3,3/4,
{4}5,4,3b/6b,,
{4}2,2,1/2,,
{4}7,7,7/8,,
{4}2,1/2,7,8/7-4[2:1],{1},
{4}3,3,3/4,,
{4}6,6,5/6,,
{4}3,3/4,6,5-2[2:1]/6-1[2:1],{1},
{4}7,7/8,2,1/2,
{4}8b,1b,8b,,
{2}2h[2:1],1,
{2}3h[2:1],4h[2:1],
{2}5h[2:1],6,
{2}6h[2:1],5h[2:1],
{2}4h[2:1],3,
{2}3h[2:1],4h[2:1],
{2}5h[2:1],6,
{2}7h[2:1],8,
{4}6h[2:1],5,5,,
{4}3h[2:1],4,4,,
{4}7h[2:1],6,6,,
{4}2h[2:1],3,3,,
{4}7h[2:1],8,8,,
{4}2h[2:1],1,1,,
{4}7,7/8,2,1/2,
{4}8,1/8,{2}8b/1b>8[4:7],{1},,
{4}2,2,1/3,,
{4}7,7,6/8,,
{4}2,1/3,7,8/6-3[2:1],{1},
{4}3,3,3/4,,
{2}5h[4:1]/6h[4:1],5/6,
{4}3,3/4,6,5/6,
{4}4/5,4/5,3b/6b,,
{4}7,7,6/8,,
{4}2,2,1/3,,
{4}7,6/8,2,1/3-6[2:1],{1},
{4}6,6,5/6,,
{4}3,3,3/4,,
{4}6,5/6,3,3^8[2:1]/4^7[2:1],{1},
{4}2,1/2,7,7/8,
{4}1b,8b,1b,,
{4}7,7/8,2,1/2,
{4}1b/8b,1b/8b,1b/8b,
E
EXPERT
(200.0){1}6h[1:1],
{1}5h[1:1],
{1}4h[1:1],
{2}3,2/5,
{1}3h[1:1],
{1}4h[1:1],
{1}5h[1:1],
{2}6,7/4>5[2:5],{1},,
{4},,,4/5,
{4}3,3/4,6,5/6,
{4}4/7,1b/2b,1b/2b,1b/2b,
{4}3,2/4,6,5/7,
{8}1b/8b,,2b/7b,2b/7b,,,3b/6b,,
{4}4/7,6,2/5,3,
{4}4/7,6,3/4,1/7,
{4}3/8,2,1/6,7,
{8}1b/8b,,2b/7b,2b/7b,,,3b/6b,,
{8}4/5,,,3/6,,,2/7,,
{1}8/1s5[4:3],
{4},5/4-1[8:1],5,8b,
{8}7h[8:3],,8,8,,1/6,1/6,,
{8}2h[8:3],,1,1,,3/8,3/8,,
{8}7h[8:3],,8,8,,1/6,1/6,,
{4}8h[4:1],1-4[8:1],8,5b,
{8}6h[8:3],,5,5,,4/7,4/7,,
{8}3h[8:3],,4,4,,2/5,2/5,,
{8}6h[8:3],,5,5,,4/7,4/7,,
{4}3/6,4/5-8[8:1],4,1b,
{8}2h[8:3],,8,1,,3/8,3/8,,
{8}7h[8:3],,1,8,,1/6,1/6,,
{8}2h[8:3],,8,1,,3/8,3/8,,
{4}2/7,1/8-5[8:1],1,4b,
{8}5h[8:3],,3,4,,3/6,{4}6/3>6[2:1],{1},
{4}7/8,1/2,2b/7b,,
{1}8h[2:1]/1^4[4:1],
{1}6h[2:1]/5^2[4:1],
{1}1h[2:1]/8^5[4:1],
{4}7,5/6,2,3/4,
{1}4h[2:1]/5^8[4:1],
{1}2h[2:1]/1^6[4:1],
{1}5h[2:1]/4^1[4:1],
{4}3,1/2,6,7/8,
{4}1/8,1/8,2/7,2V41[2:1]/7V58[2:1],
{4},,,2b/7b,
{4}2/7,5/6,1/8,3/4,
{4}2/7,3/4,1/8,5/6,
{8}2/4,,3/5,3/5,,4/6,4/6<4[2:1],,
{4},,,3/6,
{4}2/7,3/4,1/8,5/6,
{4}2/7,5/6,1/8,3/4,
{8}5/7,,4/6,4/6,,3/5,3/5>1[2:1]*p8[2:1],,
{4},,,2/7,
{4}3/6,1/2,4/5,7/8,
{4}3/6,7/8,4/5,1/2,
{8}6/8,,1/7,1/7,,2/8,2/8<1[2:1],,
{4},,,2/7,
{4}3/6,7/8,4/5,1/2,
{8}3,3,2/4,,6,6,5/7,,
{8}4h[4:1]/6h[4:1],,,3h[4:1]/7h[4:1],,,2/8,,
{2}1h[4:1]/8h[4:1],2b/7b,
{8}3h[4:1],,4,,2/5,2/5,,1b/6b,
{8},3b/8b,3b/8b,,2b/7b,,,,
{4}6h[4:7],5,5,5,
{4}4,4,4,4,
{4}3h[4:7],4,4,4,
{4}5,5,5,5,
{4}6h[4:7],5,4,4,
{4}5,5,4,4,
{4}3h[4:7],4,5,5,
{4}4,4,5,5,
{8}6,,5/7,5/7,,4/8,4/8,,
{8}3,,2/4,2/4,,1/5,1/5,,
{8}2,,1/3,1/3,,4/8,4/8,,
{8}7,,6/8,6/8,,1/5,1/5,,
{8}2/7,,3,4,2,5,1,,
{8}2/7,,6,5,7,4,8,,
{2}1h[4:1]/8h[4:1],2h[4:1]/7h[4:1],
{2}3h[4:1]/6h[4:1],4qq1[4:5]/5pp8[4:5],{1},
{2},2b/7b,
{4}1/8,5/7,1/3,2/7,
{4}4/5,1/3,5/7,3/6,
{8}1/8,,2/4,2/4,,5/7,7/5<4[2:1]*q4[2:1],,
{4},,,3/6,
{4}1/8,2/4,6/8,2/7,
{4}4/5,6/8,2/4,3/6,
{8}1/8,,5/7,5/7,,2/4,2/4<8[2:1]*>8[2:1],,
{4},,,2b/7b,
{4}3/4,1/8,5/7,2/4,
{4}5/6,1/8,2/4,5/7,
{8}3/4,,6/8,6/8,,1/3,3/1>8[2:1]*q8[2:1],,
{4},,,3/6,
{4}6/8,2/4,5/7,1/3,
{8}7/8,7,5/7,,1/2,2,2/4,,
{8}5h[4:1]/6h[4:1],,,4h[4:1]/7h[4:1],,,1/2,,
{2}1h[4:1]/8h[4:1],2b/7b,
{8}3h[4:1],,4,,2/5,2/5,,1b/6b,
{8},3b/8b,3b/8b,,2b/7b,,,,
{8}6h[4:1],,5,,4/7,4/7,,3b/8b,
{8},1b/6b,1b/6b,,2b/7b,
E
MASTER
(200.0){1}3^8[2:1],
{1}7^4[2:1],
{1}3pp7[4:5],,
{8}5,,,4,,,4,,
{2}6,3,
{1}4/5,
{2},2pp6[4:11]/6pp2[4:11],{1},,
{4},,,4b/8b,
{8}5,6,7,8h[4:1],,4,3,2,
{4}1-5[8:1],8b-4[8:1],2b-6[8:1],7b,
{8}8,7,6,5h[4:1],,8,1,2,
{8}3b/4b,,7b/2b>6[4:1],2b/7b,,,8b,,
{8}1,2,3,4h[4:1]/5h[4:1],,,1h[4:1]/2h[4:1],,
{8},7h[4:1]/8h[4:1],,,5b-2[8:1]/6b-1[8:1],,5b/6b,,
{8}8,1,7,2h[4:1],,6,3,5,
{8}4b-1[8:1],,8b<3[4:1],8b,,,2b,,
{16}6,,3,4,3,4,3,,6,5,6,5,6,,,,
{8}1h[8:1],3h[8:1],5h[8:1],7h[8:1],8h[8:1],6h[8:1],4h[8:1],2h[8:1],
{4}1,3/6,4-1[8:1]/5-8[8:1],4b/5b,
{8}7h[8:5],,4,4,,2,,8h[8:3],
{8},4,4^7[4:1],,7^2[4:1],,2^5[4:1],,
{4}5qq1[4:3],6,6,7,
{4}8,4/5,1-4[8:1]/8-5[8:1],1b/8b,
{8}2,2,5,5,,7/8,,1h[8:3],
{8},5,5^2[4:1],,2^7[4:1],,7^4[4:1],,
{4}4pp8[4:3],3,3,2,
{4}1,4/5,2v5[8:1]/8v5[8:1],2b/8b,
{8}6h[8:5],,1,1,,3,,5h[8:3],
{8},1,1^6[4:1],,6^3[4:1],,3^8[4:1],,
{4}8pp4[4:3],7,7,6,
{4}5,4/5,2-6[8:1]/7-3[8:1],2b/7b,
{8}7,7,4,4,,1/2,,3h[2:1],
{8},5,6,7,2/7,,1-5[8:1]/8-6[8:1],,
{4}1-3[8:1]/8-4[8:1],1-5[8:1]/8-6[8:1],1/8,2b/7b,
{16}6,5,6,,3,4,3,,5/7,,,,3-8[8:1],4,3,,
{16},,,,6,5,7,,,,1,8,2,,,,
{16}3,4,3,,6,5,6,,2/4,,,,6-1[8:1],5,6,,
{8},2,2,,3/4,4/5,5/6,,
{16}7,8,7,,2,1,2,,6/8,,,,2-5[8:1],1,2,,
{16},,,,7,8,6,,,,4,5,3,,,,
{4}1/8qq5[2:1],2,3,4,
{4}8/1pp4[2:1],7,6,5-2[8:1],
{4}4-7[8:1],6-1[8:1],3-8[8:1],5<4[2:1],
{16},,,,,,,,,,1,8,2b/7b,,,,
{8}2-5[8:1],1,8,7-4[8:1],8,1,2,,
{8}6-1[8:1],5,4,3-8[8:1],4,5,6,,
{8}7-4[8:1],8,1,2-5[8:1],1,8,7pp4[2:1],,
{4}2/7,,,1/6,
{8}1-4[8:1],8,7,6-3[8:1],7,8,1,,
{8}3/7,,2/1<4[4:1],1/2,,,8,,
{8}2/6,,7-4[8:1]/8-3[8:1],7/8,,,2/5,,
{8}1/8,4/6,3/5,2-5[8:1]/7-4[8:1],,2b/7b,,,
{8}7-4[8:1],8,1,2-5[8:1],1,8,7,,
{8}3-8[8:1],4,5,6-1[8:1],5,4,3,,
{8}2-5[8:1],1,8,7-4[8:1],8,1,2qq5[2:1],,
{4}2/7,,,3/8,
{8}8-5[8:1],1,2,3-6[8:1],2,1,8,,
{8}1-5[8:1],8-4[8:1],1,8,,3/6,3/6,,
{8}7/8,,5/6,4/7,,3/4,2/5,,
{16}7h[16:3],,,6h[16:3],,,5,,2h[16:3],,,3h[16:3],,,4,,
{8}5-1[8:1],,3-8[8:1],,7,7,,4/5,
{8},1/8,1q5[8:1]/8p4[8:1],,1b/8b,,,,
{4}5/6h[4:7],5,4,4,
{4}3,3,2,2,
{4}4/3h[4:7],4,5,5,
{4}6,6,7,7,
{4}4/8h[4:7],4,5,5,
{4}6,6,7,7,
{4}5/1h[4:7],5,4,4,
{4}3,3,2,2,
{8}3/4,,2/8,,5,6,1/7,,
{8}5/6,,1/7,,4,3,2/8,,
{8}1,2/8,3/7,,8,1/7,2/6,,
{16}3,4,3,4,1,,,,6,5,6,5,8,,,,
{8}1/6,,3/4,3/4,2/5,2/5,1/6,1/6,
{8}7/8,,5/6,5/6,4/7,4/7,3/8,3/8,
{16}4,5,4,5,3,6,3,6,2,7,2,7,1,,,,
{16}4,8,4,8,3,7,3,7,2,6,2,6,1,5,1,5,
{1}8<1[4:3],
{16},,,,,,1,8,2b/7b,,,,,,,,
{8}7-3[8:1],1,1,2-6[8:1],8,8,7,,
{8}1^4[8:1],7,7,8^5[8:1],2,2,1,,
{8}6^1[8:1],4,4,3^8[8:1],5,5,6qq1[2:1],,
{4}3/6,,,3/8,
{8}8-4[8:1],1,1,2-6[8:1],1,1,8,,
{8}2/6,,7/8>5[4:1],7/8,,,1,,
{8}3/7,,1-6[8:1]/2-5[8:1],1/2,,,4/7,,
{8}1/8,3/5,4/6,2-5[8:1]/7-4[8:1],,2b/7b,,,
{8}2-6[8:1],8,8,7-3[8:1],1,1,2,,
{8}8^5[8:1],2,2,1^4[8:1],7,7,8,,
{8}3^8[8:1],5,5,6^1[8:1],4,4,3pp8[2:1],,
{4}3/6,,,1/6,
{8}1-5[8:1],8,8,7-3[8:1],8,8,1,,
{8}8-4[8:1],1-5[8:1],8,1,,3/6,3/6,,
{8}1/2,,7/8,2/5,,1/2,4/7,,
{16}2h[16:3],,,3h[16:3],,,4,,7h[16:3],,,6h[16:3],,,5,,
{8}4-8[8:1],,4/6-1[8:1],,2/6,2,,7/8,
{8},1/2,1^6[8:1]/2^5[8:1],,1b/2b,,,,
{8}5-1[8:1],,5/3-8[8:1],,3/7,7,,1/2,
{8},7/8,7^4[8:1]/8^3[8:1],,7b/8b,,
E
Re:MASTER
最終更新:2026年10月03日 22:51