EASY
BASIC
(125.0){1},
{2}1,1,
{2}2,2,
{2}3,3,
{1}4-8[4:3],,
{2}7,7,
{2}6,6,
{2}5,5,
{2}4,4/5,
{2}3,3,
{2}2,2,
{2}1,1,
{2}8,1/8,
{1}1-5[4:3],,
{1}8-4[4:3],,
{1}1-6[4:3],,
{1}8-3[4:3],,
{1}1h[1:1]/8h[1:1],,
{4}2,2,2,,
{4}3,3,3,,
{4}4,4,4,,
{4}5,4,5,,
{4}6,6,6,,
{4}7,7,7,,
{4}8,8,8,,
{4}1,8,1,,
{4}7b,7,7,,
{4}6,6,6,,
{4}5,5,5,,
{4}4,5,4/5,,
{4}3,3,3,,
{4}2,2,2,,
{4}1,1,1,,
{4}8,1,1/8,,
{2}2,2,
{2}3,3,
{2}4,4,
{2}5,5,
{1}4h[1:1],,,
{1}7-3[4:3],,
{1}2-6[4:3],,
{1}5-1[4:3],,
{1}4-8[4:3],,
{1}1h[1:1]/8h[1:1],,
{4}8,8,8,,
{4}7,7,7,,
{4}6,6,6,,
{4}4/5,4/5,4/5,,
{4}3,3,3,,
{4}2,2,2,,
{4}1,1,1,,
{4}7/8,7/8,7/8,,
{4}1b,1,1,,
{4}2,2,2,,
{4}3,3,3,,
{4}4/5,4/5,4/5,,
{4}6,6,6,,
{4}7,7,7,,
{4}8,8,8,,
{4}1/2,1/2,1/2,,
{1}1-4[4:3]/8-5[4:3],,
E
ADVANCED
(125.0){4},,,1,
{1}1h[2:1],
{1}8h[2:1],
{1}7h[2:1],
{1}6qq2[8:9],,
{4}3,3,4,,
{4}6,6,5,,
{4}4,4,5,5,
{2}4h[4:1]/5h[4:1],3/6,
{4}6,6,5,,
{4}3,3,4,,
{4}5,5,4,4,
{1}4-1[8:3]/5-8[8:3],
{4}2,2,1/2,,
{4}7,7,7/8,,
{1}6/5^2[8:3],
{1}3/4^7[8:3],
{4}7,7,7/8,,
{4}2,2,1/2,,
{1}4/3-8[8:3],
{1}5/6-1[8:3],
{1}1^4[2:1]/8^5[2:1],
{1}4-1[8:3]/5-8[8:3],
{4}7b,7/8,7/8,,
{4}2,1/2,1/2,,
{4}7,7/8,2,1/2,
{4}3/8,,8,7,
{4}5/6,6,3/4,3,
{4}4/5,5,3,2,
{4}1,1,8,8,
{1}8/7-3[8:3],
{4}2,1/2,1/2,,
{4}7,7/8,7/8,,
{4}2,1/2,7,7/8,
{4}1/6,,1,2,
{4}3/4,3,5/6,6,
{4}4/5,4,6,7,
{4}8,8,1,1,
{1}1/2-6[8:3],
{4}7h[4:1],8,7/8,,
{4}2h[4:1],1,1/2,,
{4}7h[4:1],8,2h[4:1],1,
{4}8h[4:1],1,2/7,,
{4}3,3,5,5,
{4}4,4qq8[8:9],,,{1},
{2}7h[2:1],6h[2:1],
{2}5h[2:1],4,
{2}5h[2:1],4h[2:1],
{2}3h[2:1],2,
{2}2h[2:1],3h[2:1],
{2}4h[2:1],5,
{4}5,5,6,6,
{4}7,7,8,1pp4[1:1]/8qq5[1:1],{1},,
{4}7b/8b,7/8,1/6,,
{4}1/2,1/2,3/8,,
{4}7/8,7/8,1/2,1/2,
{4}3/8,,8,7,
{4}5/6,5/6,3/4,3/4,
{4}4/5,4/5,3,2,
{4}1,1,8,8,
{1}7-4[8:3]/8-3[8:3],
{4}2,1/2,1/2,,
{4}7,7/8,7/8,,
{4}1/2,1/2,7/8,7/8,
{4}1/6,,1,2,
{4}3/4,3/4,5/6,5/6,
{4}4/5,4/5,6,7,
{4}8,8,1,1,
{1}1-6[8:3]/2-5[8:3],
{4}7z3[1:1],{1},,
E
EXPERT
(125.0){4},,,1b-5[2:1],
{4},,,6<3[4:3],{1},
{4},,,3>6[4:3],{1},
{4},,,8b,
{4}4,2,5,7,
{4}1,3,5,4/6,
{4}5,7,4,2,
{4}8,2q7[4:1]/6^3[4:1],,,
{4}5,7,4,2,
{4}8,6,4/5,3h[4:1],
{4}4,6h[4:1],5,1/8,
{4}3/6,4^1[4:1]/5^8[4:1],,,
{4}4/6h[2:1],5,3h[2:1],4,
{4}7h[2:1],6,2h[2:1],3,
{2}8^5[4:1],1^4[4:1],
{4}8,6,1,3,
{4}5/3h[2:1],4,6h[2:1],5,
{4}2h[2:1],3,7h[2:1],6,
{2}1^4[4:1],8^5[4:1],
{8}1b,,,,4h[8:1]/5h[8:1],,4/5<4[1:1],4/5,{1},
{4},5b,6b,7b,
{4}2/8,1/7,3/8,1/6,
{4}2/8,1/7,3/8,1/6,
{4}3h[4:1],4h[4:1],5h[4:1],6q3[4:1],
{8},,,,2/7,,1/8,1/8^5[4:1],
{8},,,3^8[4:1],,,,6^3[4:1],
{4},,1/8,2/7,
{8}6,,4,,2,,1/2,1/2,
{8},7-4[4:1]/8-3[4:1],7/8,,,,2/5,,
{4}1/7,2/8,1/6,3/8,
{4}1/7,2/8,1/6,3/8,
{4}6h[4:1],5h[4:1],4h[4:1],3p6[4:1],
{8},,,,2/7,,1/8,8/1^4[4:1],
{8},,,6^1[4:1],,,,3^6[4:1],
{4},,1/8,2/7,
{8}3,,5,,7,,7/8,7/8,
{8},1-6[4:1]/2-5[4:1],1/2,,,,{4}4/7<8[4:3],{1},
{4}6,5/7,3,2/4,
{4}6h[4:1],8h[4:1],1h[4:1],3,
{4}3h[4:1],1h[4:1],8h[4:1],6,
{8}2/7,,,5/8,,,3/6,,
{8},1/4<3[8:9],,,,,,,{1},
{2}1h[2:1],2h[2:1],
{2}3h[2:1],4h[2:1],
{2}5h[2:1],6h[2:1],
{4}7h[2:1],,8h[4:1],1,
{8}4,,3,,2,,1,1w5[8:3],
{8},,,,,,2/7,2h[8:15]/7h[8:7],{1},
{4}1,3,5,7<8[1:1],{1},
{4},,,8b,
{4}1/7,2/8,1/6,3/8,
{4}1/7,2/8,1/6,3/8,
{4}6h[4:1],8h[4:1],1h[4:1],3p6[4:1],
{8},,,,1/8,,4/5,4/5^8[4:1],
{8},,,2^5[4:1],,,,7^2[4:1],
{4},,1/8,4/5,
{8}6,,4,,2,,1/2,1/2,
{8},7-4[4:1]/8-3[4:1],7/8,,,,2/5,,
{4}2/8,1/7,3/8,1/6,
{4}2/8,1/7,3/8,1/6,
{4}3h[4:1],1h[4:1],8h[4:1],6q3[4:1],
{8},,,,1/8,,4/5,5/4^1[4:1],
{8},,,7^4[4:1],,,,2^7[4:1],
{4},,1/8,4/5,
{8}3,,5,,7,,7/8,7/8,
{8},1-6[4:1]/2-5[4:1],1/2,,,,4/7z3[8:9],,,{1},,
E
MASTER
(125.0){4}1,2,3,2b/7b,
{2}1^4[4:1],7^4[4:1],
{2}2^5[4:1],8^5[4:1],
{8}2p5[4:1],,,,,6,7,8w4[8:7],{1},
{4},,4/5,2b/7b,
{8}3,3,4,4,5^8[4:1],,,,
{4}1^4[4:1],6,5,3/6,
{8}2,2,1,1,8^5[4:1],,,,
{8}4qq1[2:1],,6,7,8,,7,,
{8}6,6,5,5,4^1[4:1],,,,
{4}8^5[4:1],3,4,3/6,
{4}2-6[8:1],8,7-3[8:1],1,
{4}2,3-8[8:1]/4-7[8:1],3/4,1b/6b,
{16}7,,6,,6h[8:1],,5h[8:1],,4^7[8:1],,,3h[16:3],,,,,
{16}2,,3,,3h[8:1],,4h[8:1],,5^2[8:1],,,6h[16:3],,,,,
{8}7h[2:1],6,5,4,2h[2:1],3,4,5,
{4}7^2[4:1],2^5[4:1],5^8[4:1],8b,
{16}4,,3,,3h[8:1],,2h[8:1],,1^4[8:1],,,7,,,6,,
{16}5,,6,,6h[8:1],,7h[8:1],,8^5[8:1],,,2,,,3,,
{4}4h[2:1],3,5h[2:1],6,
{8}3h[4:1],,4h[4:1],,5,5,6<3[4:3]*q3[4:3],6,{1},
{4}4/5,3/6b,2b/7,1/8b,
{8}3/7-4[8:1],2,3/7,,3/7-4[8:1],2,3/7,,
{8}2/7-3[8:1],1,2/7,,2/7-3[8:1],1,2/7,,
{8}1,2,3,4-8[8:1],,4/7<3[4:1],,1/7,
{8},,,2,2,3/5qq1[2:1],4/6,5/7h[2:1],
{8},,,,,6/4pp8[8:5],3/5,4/2h[8:5],
{4},,,4/5,
{8}7-4[8:1],1,2/7,3,2-5[8:1],8,2/7,6,
{8},3/6,1-5[8:1]/8-4[8:1],,1/8,,2b/7b,,
{8}6/2-5[8:1],7,2/6,,6/2-5[8:1],7,2/6,,
{8}7/2-6[8:1],8,2/7,,7/2-6[8:1],8,2/7,,
{8}8,7,6,5-1[8:1],3,5/2>6[4:1],,2/8,
{8},,,7,7,6/4pp8[2:1],3/5,4/2h[2:1],
{8},,,,,3/5qq2[8:5],4/6,5/7h[8:5],
{4},,,4/5,
{8}2-5[8:1],8,2/7,6,7-4[8:1],1,2/7,3,
{8},4/5,2b/7b,,1/8,2/7>6[4:3],3/6,2/7,{1},
{16}7h[2:1],,6,,5,,4,,2h[2:1],,,3,,,,,
{8}6,5-1[8:1],4,3,,4-8[8:1],5,6,
{8},7-4[8:1],3,2-5[8:1],,6,7,,
{8}4h[4:1]/5h[4:1],,,3h[4:1]/6h[4:1],,,2h[4:1]/7h[4:1],,
{8},1pp4[8:9]/8qq5[8:9],,,,,,,{1},
{4}6,6,5,5,
{4}4,4,3,3,
{8}3h[4:1],,4h[4:1],,5h[4:1],,6,6h[4:1],
{8},5,5h[4:1],,4,,3/6,,
{8}6,,5,,4,,3,3h[2:1],
{8},5,6,7,,,1/8,2h[8:5]/7h[8:5],
{8},,,,,,,1/8,
{4}1/8,2/7,4/5,3/6^1[4:1],
{4}1^4[4:1],4^7[4:1],7^2[4:1],2^5[4:1],
{4}5^8[4:1],8,3,2b/7b,
{8}3/4-7[8:1],2,3/4,,3/4-7[8:1],2,3/4,,
{8}3/4-8[8:1],2,3/4,,3/4-8[8:1],2,3/4,,
{8}4/7,,3/6,3/6^3[4:1],,6/3^8[4:1],,8^5[4:1],
{8},,,2,2/4,3/5qq8[2:1],4/6,5/7h[2:1],
{8},,,,,6/4pp1[8:5],3/5,4/2h[8:5],
{4},,,5/6,
{8}2^5[8:1],1,8,7,6^1[8:1],4,3,2,
{8},1/2,1-6[8:1]/2-5[8:1],,1/2,,4b/7b,,
{8}6/5-2[8:1],7,5/6,,6/5-2[8:1],7,5/6,,
{8}6/5-1[8:1],7,5/6,,6/5-1[8:1],7,5/6,,
{8}7h[8:1],6h[8:1],5h[8:1],4h[8:1],3h[8:1],2^7[4:1],,7<3[4:1],
{8},,,7,5/7,6/4pp1[2:1],3/5,4/2h[2:1],
{8},,,,,3/5pp2[8:5],4/6,5/7h[8:5],
{4},,,3/4,
{8}7^4[8:1],8,1,2,3^8[8:1],5,6,7,
{8},7/8,7-4[8:1]/8-3[8:1],,7/8,,2b/5b,,
{16}4/3h[16:15],,,,,,,5,,,6,,,7,,7z3[16:11],,,,,,,,,,,,,,,,
E
Re:MASTER
最終更新:2026年10月03日 22:52