アットウィキロゴ

HECATONCHEIR

アーティスト Yuta Imai

BPM BASIC ADVANCED EXPERT MASTER Re:MASTER
155 5 8 12+ 14 -

EXPERT MASTER Re:MASTER
譜面制作者 Jack 隅田川星人 -

BASIC


ADVANCED


EXPERT


MASTER

(155){4}
4b/5bs1[16:5]*z1[16:5],,,37,
4x/6x,B3/B7/E3/E8,{8}E6,E5,E4,{24}E7,B7,B8,
{8}E1,E4,E3,E2,Ch[4:1],,,,
2x/4x,,B2/B5/E2/E5,,B7/E7,B2/E3,{16}B6,B3,B5,B4,
C,,,E2,{8}B2,B7/E8,Ch[4:1],,,,
5x/7x,57,B3/B7/E3/E8,,E6,E5,E4,{24}E7,B7,B8,
{8}E1,E4,E3,E2,Ch[4:1],,,,
2xh[4:1]/4xh[4:1],,,5xh[4:1]/7xh[4:1],,,{4}1x/8x,
3bp2[8:3]/6bq7[8:3],,,18,

2-5[8:1]/6-1[8:1],2b/6b,{8}E4,E5,E6,{24}E3,B2,B1,
{8}E1,6x,7xp6[16:5],8,Cf,,,,
3-8[8:1]/7-4[8:1],,3b/7b,,B2/E3,B7/E7,{16}B3,B6,B4,B5,
C,,,1x,{8}1x>6[4:1],8,Cf,,,,
2-5[8:1]/6-1[8:1],1x/5x,2b/6b,,E4,E5,E6,{24}E3,B2,B1,
{8}E1,6x,7xp5[16:5],8,Cf,,,,
1b/8b,,56,4b/7b,,34,{4}2b/5b,
1bq3[16:5]/8bp6[16:5],,,4-1[8:1]/5,

8b,{16}46,,7,,46,,3,,6,5,,5,
7,,,,34,,2,,3,4,,4,2,,15,,
2b/6b,,,,56,,7,,56,,4,,6-1[8:1],5,,5,
{8}6b-2[8:1],4,6bV84[4:1],4,6b,3,1b,,
3b/6b,,47,6,25,3,{16}6,5,,3,
4,,35,,6,,57,,4,6,4,6,4,6,4,6,
3,5,3,5,2,6,1,7,2,8,4,6,1,7,3,5,
{4}1bpp5[8:3]*qq5[8:3],,,3b/7b,

46,{16}6,6,5,5,7h[16:3],,,8h[16:3],,,1^6[8:1],,
,,4,,3,3,4,4,2h[16:3],,,1h[16:3],{8},8^3[8:1],
,6,7,7,5,5,4,4,
2,2,1pp4[8:3],1,8b,,6,6,
3b/7b,,{16}3,3,1,1,2h[16:3],,,3h[16:3],,,4-1[8:1],,
,,7,,6,6,8,8,7h[16:3],,,6h[16:3],,,5-8[8:1],,
5x,,2,,3,3,1,1,2h[16:3],,,3h[16:3],,,4,,
45,,36,,27,,{24}8b,7,6,45,3,2,{8}6,6^1[8:1],5,
{1}4bV62[4:5]*s8[4:5],,

{8}2b/4b,{4}3h[8:1]/5h[8:1],3h[8:1]/4h[8:1],4h[8:1]/6h[8:1],5h[8:1]/6h[8:1],
3h[8:1]/5h[8:1],{8}24,3,4,5,6,
5b/7b,{4}4h[8:1]/6h[8:1],5h[8:1]/6h[8:1],3h[8:1]/5h[8:1],3h[8:1]/4h[8:1],
4h[8:1]/6h[8:1],{16}57,,6,,45,,3,4,3,,
2b/4b,,{4}3h[8:1]/5h[8:1],3h[8:1]/E4,4h[8:1]/6h[8:1],6h[8:1]/E6,
3h[8:1]/5h[8:1],{8}2/E4,3x,4x,5,6,
5b/7b,4h[8:1]/6h[8:1],,6h[8:1]/E5,,3h[8:1]/5h[8:1],,3/E5,
2xh[8:1]/6xh[8:1],,3h[8:1]/7h[8:1],,4x/6x,46,37,26,

1-3[8:1]/5-7[8:1],,1b/5b,,5/7h[16:3],{16},8x,,,2h[16:3]/4,,
,1x,{8},57,6,24,3,45,6,
3-1[8:1]/7-5[8:1],,3b/7b,,2h[16:3],{16},4,3,,7h[16:3],,
,5,6,,2h[16:3],,4,4,{8}2,35,6,7,
4-2[8:1]/8-6[8:1],15,4b/8b,,{16}2,4,,6,5,,7,8,
,2,1,,3,4,3,4,{8}2,18,7,56,
4xh[4:1]/7xh[4:1],,,2xh[4:1]/5xh[4:1],{4},1x/8x,
2bq3[8:3]/7bp6[8:3],,,4-1[8:7]/5,
5,5,5,Ch[8:7],
{8}1,1,1,1,1,1,1,18,
{16}1,8,3,6,2,7,4,5,1,8,1,8,{32}2,3,4,5,6,7,8,1,
{4}2bq4[16:5]/6bp4[16:5],,,1b-5[8:1]/8b,

{8}1/6-8[8:1],7,1-3[8:1]/6,2,1/7-5[8:1],5-8[8:1],2-4[8:1]/7,3,
2-8[8:1],7-3[8:1],2-6[8:1],7,2,7,{16}7-4[8:1],8,,8,
{8}7b-1[8:1],,3-5[8:1]/7,4,3/8-6[8:1],7,2-6[8:1]/8,1-5[8:1],
2^5[8:1],1,2,{16}7,7,7,,2,,{24}1-5[8:1]/8-4[8:1],27,36,{8}45,
1b/8b-6[8:1],,3-1[8:1]/8,2,3/7-5[8:1],6,2-6[8:1]/7,1,
2/7-3[8:1],8-4[8:1],7V58[4:1],8,7,2,{16}2-6[8:1],1,,1,
{8}2b-4[8:1],,2/8-6[8:1],1-5[8:1],8-4[8:1],1-3[8:1],8,1,
8x,1x/8x,{24}1-5[8:1]/8-4[8:1],27,36,45,,,{4}1b/8b,B3/B6/Cf/E3/E7,

1b>6[8:3]/8b,,B3/B4,8pp7[8:3],
5,,{24}2h[4:1],,,8,7,6,{8}5-8[8:1],2,
3bV14[4:1]/5b,,3/7-5[8:1],8-4[8:1],7-3[8:1],8-2[8:1],7^4[8:1],8,
7b,,24,1,57,6,{16}4-2[8:1],5,3,,
4b/7b-5[8:1],,8,,1-3[8:1]/7,,8,,1/6-8[8:1],,5,,6-4[8:1],,1,1,
6b^1[8:1],,2,,26,,3,,3,4,,7,8-4[8:1],,1-5[8:1]/7,,
8b-6[8:1],,1-3[16:1],,8,,1,,7,2,5,4,8z4[16:5],1,6,3,
{4}8b,,3x/5x,2x-5[8:1]/6x-1[8:1],

2b/6b,4xh[64:79]/8b,,{48}B3,E4,,,,,{8},
(160),,{48}B6,E6,,,,,{8},,,3x-8[8:1]/7x-4[8:1],,
(165)3b/7b,,1b/5xh[136:135],,,,{48}B6,E6,,,,,{8},
(170),,4>5[8:3],,B4/B5/Cf,,,,
(175)3b/8b,7,6,25,3,4,57,6,
(180)1b/5b,2,3,47,6,5,24,24,
{16}1b,5,1,5,1,5,1,5,1,5,1,5,{32}2,3,4,5,6,7,8,1,
{4}2bpp1[16:5]/6bpp5[16:5],,,3b/7b,

{16}1x/5x,,1h[4:1],,5,6,7,8,2x,,2h[4:1],,6,7,8,1,
3x,,3h[4:1],,7,8,1,2,4xq5[4:1],,4,,C,,,,
8x,,8h[4:1],,4,3,2,1,7x,,7h[4:1],,3,2,1,8,
6x,,6h[4:1],,2,1,8,7,5xp4[4:1],,5,,C,,,,
1x,,1h[4:1],,5,6,7,8,2x,,2h[4:1],,6,7,8,1,
3x,,3h[4:1],,7,8,1,2,4x,,4,,35,,26,,
1,8,1,8,2b/7b,,3,4,2b/5x,,6,5,4x/7b,,1pp4[8:3]/8qq5[8:3],27,
{4}3x/6x,,,1b/8b-4[8:1],

{8}2/8-6[8:1],2,3/8-4[8:1],3,2/8-6[8:1],2,1/8-4[8:1],1,
2/8-6[8:1],2,3/8-2[8:1],3,4/8-4[8:1],4-6[8:1],8,1,
,2,1-5[8:1]/6,6,1-3[8:1]/7,7,1-5[8:1]/6,6-8[8:1],
1x,6x,4x,8x,{16}5,7,5,7,{8}4b/8b-4[8:1],,
2/8-6[8:1],2,3/8-4[8:1],3,2/8-6[8:1],2,1/8-4[8:1],{16}1x,2x,
{8}3x/8-6[8:1],3x,2/8-4[8:1],2,3-1[8:1]/8-6[8:1],3,3b/8b,,
1x-5[8:1],8-4[8:1],1-3[8:1],8-6[8:1],1-5[8:1],8,1,7,
{32}7,,8,,7,,8,,7b,6,5,4,,,,,1h[32:3]/2b,3,4,5,,,,,78,6,5,4,3,2,1,8,
{1}3bpp8[8:13]/7bqq2[8:13],,,E

Re:MASTER


  • MASTER譜面のSLIDEの速度の修正、EXノーツの修正を行いました。 -- けもがみ (2026-05-15 07:05:21)
名前:
コメント:

タグ:

+ タグ編集
  • タグ:
最終更新:2026年05月15日 07:05