BASIC
ADVANCED
EXPERT
MASTER
(128)
{8}45,45,{16}3,4,,6,{2}5-8[8:1],{8}6,6,{16}6,5,,5,{4}7h[4:1],6,
{8}45,45,{16}3,4,,4,{4}2h[4:1],3,{16}45,,6,5,6,,3,4,3,,6,5,6,4,7,
Ch[16:5],,,,,{4}8x,2/5-8[8:1],{32}5x/B4,E5,,,,,,,{8}35,6,
{32}7/B4,E5,,,{8}6,35,6,{32}7/B4,E5,,,{8}6,35,6,{32}7/B4,E5,,,
{8}6,35,6,{32}7/B4,E5,,,{8}6,{4}2hx[4:2]/6hx[4:2],,{48},37,48,15,,,,,,,,,
{4}2-6[16:1]/5^2[4:1],{32}2b<6[16:5]/5,Cf,,,,,,,{4},4V28[8:1],
{4}7-3[16:1]/4^7[4:1],{32}7b>3[16:5]/4,Cf,,,,,,,{4},5-1[8:1],
{4}2-6[16:1]/5^2[4:1],{32}2b<6[16:5]/5,Cf,,,,,,,{4},4V28[8:1],
{4}7-3[16:1]/4^7[4:1],{32}7b>3[16:5]/4,Cf,,,,,,,{4},4-1[8:1]*-7[8:1],4,
{16}2hx[8:1]/6x,,4,3,7h[8:1],,5,6,2V46[8:1],,4,1,{4}6x,
{16}7h[8:1]/4,,5,6,2h[8:1],,4,3,7V53[8:1],,5,8,{4}3x,
{16}2h[8:1]/6,,4,3,7h[8:1],,5,6,{8}1-5[8:1],8-4[8:1],1,8,
{32}E1,E2,E3,E4,E5,E6,E7,E8,E1,E2,E3,E4,E5,E6,E7,E8,1x,2x,3,4,5,6,7,8,
{2}1s5[32:5]*z5[32:5]/5,
{8}37,{24}1,,6,4,,7,5,,6,4-1[8:1],,7,1b,,6,{8}4,,
42,{24}4,,3,5,,2,4,,3,5-8[8:1],,2,4,,3,{8}5b,,
57,{24}4,,7,5,,8,6,,7,5-1[8:1],,8,6,,7,{8}5,,
24,{24}5,,2,4,,1,8,,{8}8^3[8:1]*^5[8:1],26,8b,,
{24},5,,,46,,7,5,,8,1,,6,5^2[8:1],,1,2b,,6,{8}5,,
35,{24}5,,2,4,,1,8,,3,4^7[8:1],,8,7,,3,{8}4b,,
46,{24}4,,7,5,,8,1,,6,5p5[4:1]*q5[4:1],,1,2,,6,{8},,,
{24}46,,3,5,,4,6,,2,8-3[8:1],,1,7,,,
{16}2/8b,,5,5h[8:1],,6,3,7,1s5[16:3],8,3,3,{8}1^6[8:1],,
{16}1b,,4,4h[8:1],,3,6,2,8z4[16:3],1,6,6,{8}8^3[8:1],,
{16}8b,,5,5h[8:1],,6,3,7,1s5[16:3],8,3,3,{8}1,,
{32}1,8,7,6,5,4,3,2,1z5[4:1]/5s1[4:1],8,7,6,5,4,3,2,{2},Cf/8b,,
{8}36,36,{24}4,,3,5,,6,3-1[8:1],,2,6,,7,{4}3-5[8:1]/8-4[8:1],3b/8b,
{8}2-4[8:1],1,2-8[8:1]/7-5[8:1],8,7/2-6[8:1],,
2/7-3[8:1],8,7/2-5[8:1],1,2/7-4[8:1],8,2-6[8:1]/7-1[8:1],1,2b/7b,,
{24}47,,3,5,,6,5,,4,5,,B6,E6,,B3,E4,,
7,5,,E7,B6,,3,5,,B4,E5,,7,5,,E7,B6,,3,5-1[8:1],,B4,E5,,7,5b,,,,,,
25,,6,4,,3,4,,5,4,,B3,E4,,B6,E6,,
2,4,,E3,B3,,7,5,,5,4,,4,2,,2,8,,8,6<5[8:5],,6,5,,,{1}Cf,
{16}46,,4/6h[16:9],,,5,,,4,,,4h[16:3],,,,,53,,5/3h[16:9],,,4,,,5,,,5h[16:3],,,,,
46,,4/6h[16:9],,,5,,,4,,,3,,,42,,{4}4/2h[4:1],{32}B5,E5,,,{8}3,46,3,
{32}B5/2,E5,,,{8}3,46,3,{32}B5/2,E5,,,{8}3,46,3,
{32}B5/2,E5,,,{8}3,46,3,{32}B5/2,E5,,,{8}3,46,3,
{32}B5/2>8[4:2],E5,,,{8}1,{4}8,,,45,
5h[8:1]/6h[8:1],6h[8:1]/7h[8:1],7h[8:1]/8-4[8:1],2b/8b,
4h[8:1]/3h[8:1],3h[8:1]/2h[8:1],2h[8:1]/1-5[8:1],7b/1b,
{24}6,,6,5,,5,8,,8,1,,1,4,,4,3,,3,
8-4[16:13],7,6,2,3,4,{4}8b,,,Chf[4:1],{48}5,6,7,8,1p7[3:1],,,,,,,,
{4},,C,1,2,{8}3/4w8[16:1],17,{32}4b,Cf,,,,,,,
{8}2x-5[8:1]/6x,35,12,{24}6,,7,8,,4,3,,8,1-3[12:1],,7,5-7[12:1],,8,
{8}1-5[8:1],5,1,{24}6,,7,8,,4,2,,6,8,,8,,,
{48}1b-5[24:1]/7b-3[24:1],26,3s7[6:1]/5z1[6:1],4,,,,,,,,,,,
{2},{8}1b-5[8:1]/2b,4x/6x,1/7v4[8:1],6,78,
{24}3,,2,1,,5,6,,1,8-6[12:1],,2,4-2[12:1],,1,{8}8b-4[8:1],4,8,
{24}3,,2,1,,5,7,,3,1s5[16:3],,5,6,,2,{8}1,,
4x/6x,{24}7,,7,5,,5,4,,4,2,,2,8,,8,
{8}3bV51[4:1]/7b,5,8-6[8:1],6,8-4[8:1],3-1[8:1],8,3,
6-4[8:1],4-8[8:1],1-3[8:1],3,1-5[8:1],6-8[12:1],1,6,
1-5[12:1]/2,7/8-4[12:1],1,8,{24}3,,2-6[12:1],8-4[12:1],,1,7,,2,8,,,
Cf,,,1,5,2,4,,,8,4,7,5,,,36,,4-8[12:1]/5-1[12:1],6,7,81,2,3,4b/5b,{1}Cf,,,,E
Re:MASTER
- 追加しました。修正等ありましたらよろしくお願いします。 -- けもがみ (2022-06-06 20:04:52)
- MASTER譜面のノーツの配置ミス、SLIDEの速度の修正を行いました。 -- けもがみ (2026-04-16 20:06:14)
最終更新:2026年04月16日 20:06