EASY
BASIC
(181.0){1},
{1}4h[1:1],,
{1}5h[1:1],,
{2}4,4,
{2}4,4,
{2}5,5,
{2}5,5b,
{4}4,4,4,,
{4}4,4,4,,
{4}3,3,3,,
{4}3,3,3,,
{4}2,2,2,,
{4}2,2,2,,
{4}1,1,1,,
{1}1b/8b,
{2}8,8,
{2}8,8,
{2}7,7,
{1}7/8,
{2}6,6,
{2}6,6,
{2}5,5,
{1}4/5,
{4}4,4,4,,
{4}4,4,4,,
{4}3,3,3,,
{4}3,3,3/4,,
{4}2,2,2,,
{4}2,2,2,,
{4}1,1,1,,
{4}1,1,1/8,,
{1}1h[1:1],,
{1}8h[1:1],,
{1}1-4[4:3],,
{1}8-5[4:3],,
{1}2-6[4:3],,
{4}8,8,1,1,
{1}2b/7b,
{4}1,1,1,,
{4}2,2,2,,
{4}3,3,3,,
{1}3h[2:1]/4h[2:1],
{4}5,5,5,,
{4}6,6,6,,
{4}7,7,7,,
{1}1h[2:1]/8h[2:1],
{4}8,8,8,,
{4}7,7,7,,
{4}6,6,6,,
{1}5h[2:1]/6h[2:1],
{4}4,4,4,,
{4}3,3,3,,
{4}2,2,2,,
{1}1h[2:1]/8h[2:1],
{1}1-4[4:3]/8-5[4:3],,,,
{1}1-5[4:3],,
{1}8-4[4:3],,
{1}1h[8:7]/8h[8:7],,
{1}1,
{1}1,
{2}2,2,
{1}2,
{1}3,
{1}3,
{2}4,4,
{1}4b/5b,
{4}5,5,5,,
{4}6,6,6,,
{4}7,7,7,,
{1}1h[2:1]/8h[2:1],
{4}1,1,1,,
{4}2,2,2,,
{4}3,3,3,,
{1}4h[2:1]/5h[2:1],
{1}4-1[4:3]/5-8[4:3],,,,
{1}8h[1:1],,
{1}1h[1:1],,
{4}8,8,8,,
{4}7,7,7,,
{4}6,6,6,,
{4}5,5,4/5,,
{4}4,4,4,,
{4}3,3,3,,
{4}2,2,2,,
{4}1,1,1/8,,
{1}7h[2:1],
{1}7-3[4:3],,
E
ADVANCED
(181.0){1},,,,,
{1}5pp8[4:5],,
{1}1pp4[4:5],,
{4}6,5,5/6,,
{4}3,4,3/4,,
{4}3,4,5,6,
{4}4/5,4/5,3/6,,
{4}3,4,3/4,,
{4}6,5,5/6,,
{4}6,5,4,3,
{4}4/5,4/5,3/6,,
{2}6h[2:1],5,
{2}6,5/6,
{2}5h[2:1],4,
{4}5,5,4/5,,
{2}3h[2:1],4,
{2}3,3/4,
{2}4h[2:1],5,
{4}4,4,4/5,,
{4}6,5,5/6,,
{4}5,4,4/5,,
{4}4,3,3/4,,
{4}5,4,3/6,,
{4}3,4,3/4,,
{4}4,5,4/5,,
{4}5,6,5/6,,
{4}4,5,3/6,,
{1}4qq1[4:5]/5pp8[4:5],,
{1}1-4[2:1]/8-5[2:1],
{1}4/5,
{1}3h[1:1],
{1}4h[1:1],
{1}5h[1:1],
{2}6h[2:1],5,
{4}6,6,5,5,
{4}3,3,4,4,
{4}4/5,4/5,3/6,3/6,
{1}2h[2:1]/7h[2:1],
{4}1,2,1/2,1/2,
{4}8,7,7/8,7/8,
{4}1,2,1/2,1/2,
{4}3,4,4/5,,
{4}5,6,5/6,5/6,
{4}4,3,3/4,3/4,
{4}6,5/6,3,3/4,
{2}3b/6b,1/8,
{4}1/2,1/2,3/8,,
{4}7/8,7/8,1/6,,
{4}1/2,1/2,7/8,7/8,
{4}1/8,1/8,2/7,,
{1}8-5[2:1],
{1}4-1[2:1],
{1}1-4[2:1]/8-5[2:1],
{1}3h[8:5]/6h[8:5],
{1}3b>6[8:11],,
{1}6<3[8:11],,
{1}4qq1[4:5],,
{1}8qq5[4:5],,
{8}4h[8:5]/5h[8:5],,,,,,,4/5,{1},
{1}3h[1:1],
{1}4h[1:1],
{1}5h[1:1],
{2}6h[2:1],5,
{4}6h[2:1],5,5,,
{4}3h[2:1],4,4,,
{4}4/5,4/5,3/6,3/6,
{1}2h[2:1]/7h[2:1],
{4}8,7,1/6,7/8,
{4}1,2,3/8,1/2,
{4}7/8,7/8,1/2,1/2,
{4}1/8,1/8,2/7,,
{1}1-4[2:1],
{1}5-8[2:1],
{1}1-4[2:1]/8-5[2:1],
{1}3h[8:5]/6h[8:5],
{1}6b<3[8:11],,
{1}3>6[8:11],,
{2}6h[2:3],5,
{2}5,5,
{2}3h[2:3],4,
{2}4,4,
{4}2,1,1/2,,
{4}7,8,7/8,,
{4}7,8,1,2,
{4}1/8,1/8,2/7,,
{4}3,4,3/4,,
{4}6,5,5/6,,
{4}6,5,4,3,
{4}3/4,4/5,5/6,4h[8:15]/5h[8:15],{1},
{8},,,,,,,3b/6b,
E
EXPERT
(181.0){1},
{4}6h[1:1],,5,4,
{4}3h[1:1],,4,5,
{4}6h[1:1],,5,4,
{4}3h[1:1],,4,5,
{4}6,6,6,4/6,
{4}3,3,3,3/5,
{4}6,6,6,4/6,
{8}3,3,6,6,4,4,4/5,,
{4}6h[4:1],5,7-4[4:1],,
{4}3h[4:1],4,2-5[4:1],,
{4}6h[4:1],5,7-4[4:1],,
{4}3h[4:1],4,2-5[4:1],,
{4}7h[4:1],3,6^3[4:1],,
{4}2h[4:1],6,3^6[4:1],,
{4}7h[4:1],3,6^3[4:1],,
{1}1b,
{4}4/3h[4:15],4,5,5,
{4}4,5,4,5,
{4}4,4,6,6,
{4}5,7,6,5,
{4}5/6h[4:11],5,4,4,
{4}5,4,5,4,
{4}5,5,3,3,
{4}2-5[4:1]/7-4[4:1],,,2/7,
{4}5/6h[4:1],4,4/3h[4:1],5,
{4}5/6h[4:1],4,1,3,
{4}4/3h[4:1],5,5/6h[4:1],4,
{4}4/3h[4:1],5,8,6,
{4}5/6h[4:1],4,4/3h[4:1],5,
{4}5/6h[4:1],4,8,2,
{4}4/3h[4:1],5,5/6h[4:1],4,
{4}4/3h[4:1],5,1,7>6[1:1],{1},
{8},,,,,4/5,4/5,,
{4}6,1,4,6,
{4}2,8,5,3/6,
{8}5/4h[4:7],,5,,5,5,5,,
{4}8,7,6,5,
{8}4/5h[4:7],,4,,4,4,4,,
{4}2,4,1,3,
{8}5,5,4,4,6,6,4,4,
{8}5,5,3,3,6,6,2,2,
{8}7,7,3,3,8,8,1,1,
{4}2b/7b,,,1-3[8:1]/8-4[8:1],
{8},,2/6,2/6,,,1-5[8:1]/8-6[8:1],,
{8},,3/7,3/7,,1,1,,
{4}7/8,5/6,3/4,1/2,
{4}3/4,5/6,4/7,1-5[8:1]/8-6[8:1],
{8},,3/7,3/7,,,1-3[8:1]/8-4[8:1],,
{8},,2/6,2/6,,,8,,
{8}8h[8:3],,,1>8[8:5],,,,,
{4},,1/8,1-3[8:1]/8-4[8:1],
{8},,2/6,2/6,,,1-5[8:1]/8-6[8:1],,
{8},,3/7,3/7,,1,1,,
{4}2/4,3/5,4/6,5/7,
{4}1/8,7h[4:1],5h[4:1],4h[4:1],
{8}2,,6,5/6,,3,3/4,,
{8}6,5/7,,3,2/4,,4/5,,
{1}6<3[2:1],
{8},2/7,,3/6,,4h[4:1]/5h[4:1],,,
{1}3h[8:15]/7h[8:15],,
{8},,,,,,,4/6,
{8},4/6,4/6,,3h[4:1]/5h[4:1],,,,
{8}4/6,4/6,,3/5,3/5,,5/6,5/6,
{8},3/4,3/4,,5,5,4/5,,
{8}5/7,5/7,,2/4,2/4,,1,1h[8:3],
{8},8,8,,6,5,4,3,
{8},3/5,3/5,,4/6,4/6,,2/7,
{4},,,1^4[4:3],{1},
{4},,,8^5[4:3],{1},
{8}4,4,5,5,4,4,3/6,,
{8}3/4,3/4,,2h[8:3]/5h[8:3],,,,,
{8}5/6,5/6,,4/7,,,3,,
{8}1h[8:3],,,8<1[8:5],,,,,
{4},,,1-5[8:1]/6-8[8:1],
{8},,3/7,3/7,,,3-1[8:1]/8-4[8:1],,
{8},,2/6,2/6,,8,8,,
{4}5/7,4/6,3/5,2/4,
{4}1/8,2h[4:1],4h[4:1],5h[4:1],
{8}7,,3,3/4,,6,5/6,,
{8}3,2/4,,6,5/7,,4/5,,
{1}3>6[2:1],
{8},5/7,,2/4,,1h[4:1]/8h[4:1],,,
{1}2h[4:7]/6h[2:15],,
{2},4,
{2},4,
{4}5,5,4,4,
{4}5,5,3,3,
{4}4,4,5,4,
{4}3,2,1-5[8:1],,
{4}6h[4:1],5,1/7-4[4:1],,
{4}3h[4:1],4,8/2-5[4:1],,
{4}6h[4:1],5,1/7-4[4:1],,
{4}3h[4:1],4,8/2-5[4:1],,
{4}7h[4:1],4,1/6^3[4:1],,
{4}2h[4:1],5,8/3^6[4:1],,
{4}7h[4:1],4,1/6,3/7,
{8}8,8,2,2,6,6,4,4h[4:5],{1},
{8},5,6,4,3,2-6[8:1],,,,
E
MASTER
(181.0){1},
{2}1^3[4:1],8q4[4:1],
{2}1p5[4:1],8^6[4:1],
{2}1p5[4:1],8q4[4:1],
{8}1>7[8:5],,,,8,8h[8:3],,,
{4}1^4[4:1],4,8^5[4:1],5,
{4}1^4[4:1],4,8^5[4:1],5,
{4}1^4[8:1],8^5[8:1],1^4[8:1],8^5[8:1],
{8}1^4[8:1],1,8^5[8:1],8,1,1,1/8,,
{8}5/6,5/6,,6q3[4:1]/7-4[4:1],,,,,
{8}1/2,1/2h[4:1],,4h[4:1],,3,3/4,,
{8}7/8,7/8,,2/3,,5/6,,4/8,
{8}3/7,2^4[8:1]/6^8[8:1],,,,1/5,4/8,,
{8}3/4,3/4,,2-5[4:1]/3p6[4:1],,,,,
{8}7/8,8/7h[4:1],,5h[4:1],,6,5/6,,
{8}1/2,1/2,,6/7,,3/4,,2/7,
{8}4/5,4/5,,3,4,5,6,,
{8}4/5,,3/5,,2/5,5/2-4[8:1],,5-1[8:1],
{8},2-4[8:1],,5-1[8:1],,2h[8:3],,,
{8}3,,3/4,,2/3,2/3,,2/1^6[4:1],
{8},6^3[4:1],,3^8[4:1],,,,,
{8}4/5,,4/6,,4/7,4/7-5[8:1],,4-8[8:1],
{8},7-5[8:1],,4-8[8:1],,7h[8:3],,,
{8}6,,2/3,,4/5,4/5,,1/7-3[8:1],
{16},,2-6[8:1],,,,8h[8:3],,,,,,1,8,1,8,
{8}1w5[8:1],,,,3/7,3/7,,5-8[8:1],
{8},4-1[8:1],,6<3[4:1],,1,,,
{8}4-1[8:1]/5-8[8:1],,,,2/7,2/7,,4v5[8:1],
{8},7^2[8:1],,3,,4/5,4/5,,
{8}2-5[8:1]/6-1[8:1],,,,3/7,3/7-4[8:1],,3-8[8:1],
{8},7-4[8:1],,3-8[8:1],,7,,,
{8}2-7[8:1]/6-3[8:1],,,,1/8,8/1-5[8:1],,5w1[8:1],
{8},,,7/3>5[4:1],,,,,
{1}4b-1[2:3]*^6[2:3],,
{4}8V63[4:1],3>7[4:1],7V14[4:1],4<8[4:1],
{8}8-3[4:1],,3s7[4:1],,,8b,,,
{8}3,4,3,4,5,4,5,4,
{8}5,6,5,6,5,4,4,4,
{8}6,5,6,5,4,5,4,5,
{8}3,4,2,6,5,7,1/8,,
{8}3h[2:1],4,4,4,6h[2:1],5,5,5,
{8}2h[2:1],4,4,4,7h[2:1],5,5,5,
{8}1h[4:1],4,8h[4:1],5,2h[4:1],4,7h[4:1],5,
{16}1b,,2/8,,3,7,4,6,3,5,2,6,8b,,,,
{8}1^4[8:1],8,7,6,5^8[8:1],4,3,2,
{8}1^4[8:1],8,7,6,5^8[8:1],4,3,2,
{4}1-4[8:1],1/8-5[8:1],8/7<1[4:1],1/7,
{8}5,4,3,2,1,8,7,6,
{8}5^8[8:1],4,3,2,1^4[8:1],8,7,6,
{8}5^8[8:1],4,3,2,1^4[8:1],8,7,6,
{8}5^8[8:1],4,3,2,1^4[8:1],8,7,6,
{16}4/5,,3,4,2,,6,5,7,,3,4,2,,6,5,
{8}7-4[8:1],,8,1,2-5[8:1],6,6,,
{8}6-1[8:1],,5,4,3-8[8:1],7,7,,
{4}7^2[4:1],2^5[4:1],5^8[4:1],8-4[8:1],
{4},1^4[8:1]/5^8[8:1],1/5,3/7,
{8}1b/6,6,6,1b/6,6,6,1b/6,6,
{8}6,1b/6,6,6,6/1b-5[8:1],,,,
{8}3/8b,3,3,3/8b,3,3,3/8b,8-5[8:1],
{8},8b/1-4[8:1],,1b/2>8[4:1],,2b/8b,,,
{1}1bw5[2:3],
{8},,,,,,,4/6,
{8},4/6,4/6,,,,,3/5,
{8},3/5,4,5,6,5/7,,,
{8}2/4,2/4,,5/7,5/7,,2/4,2/4,
{8},5/7,5/7,,3/6,3/6,3/6,,
{8}2/4,2/4,,5/7,5/7,,2/4,2/4,
{8},5/7,6,5,4,3,2/7,2/7,
{8},6/8,6/8,,1/3,1/3^6[8:9],,8,{1},,,,
{16}6,,,,6,,,,6,,5,5,6,,,,
{8}2/4,3^6[4:1],,,,,2/4,,
{8}5/7,6^3[4:1],,,,,5/7,,
{16}2,4,2,4,3,5,3,5,4,6,4,6,5,7,5,7,
{16}6,,5,,4,,3,,2,,1b,1b,8b,,,,
{16}1/2,,3/8,,4,4,5,,7/8,,1/6,,5,5,4,,
{16}1/2,,3/8,,4,4,5,,7/8,,1/6,,5,5,4,,
{8}2-6[8:1],2,1-5[8:1],1,8-4[8:1],8,7-3[8:1],7,
{16}6-2[8:1],,6,,5,,5,,4,5,4,5,2b/7b,,,,
{16}4/5,,3,4,2,,4/5,,6,5,7,,4/5,,3,4,
{16}2,,4/5,,6,5,7,,4/5,,2,,4/5,,7,,
{16}1/8,,2,1,2,,1/8,,7,8,7,,1/8,,1^6[8:1]/8^3[8:1],,
{8},1b-5[8:1]/8b-4[8:1],,1b^4[8:1]/8b^5[8:1],,1b/8b,,,
{1}1bpp4[2:3]/8bqq5[2:3],,
{2}8qq8[2:1],1pp1[2:1],
{8}8<2[8:5],,,,1,1h[8:3],,,
{4}8qq8[4:1],4,1pp1[4:1],5,
{4}8qq8[4:1],3,1pp1[4:1],6,
{4}8p4[8:1],1q5[8:1],8p3[8:1],1q6[8:1],
{8}8^5[8:1],8,1^4[8:1],1,8,8,1/8,,
{8}3/4,3/4,,2^5[4:1]/3p6[4:1],,,,,
{8}1/2,3/8h[4:1],,5h[4:1],,6,4/7,,
{8}1/2,1/2-5[8:1],,1-6[8:1],,2,,1/5,
{8}2/6,3^1[8:1]/7^5[8:1],,,,4/8,1/5,,
{8}5/6,5/6,,6q3[4:1]/7^4[4:1],,,,,
{8}7/8,6/1h[4:1],,4h[4:1],,3,2/5,,
{8}7/8,8/7-4[8:1],,8-3[8:1],,7,,2/7,
{8}4/5,4/5,,6,5,4,3,2/7,{1},
{8},1/8,4/5,,7/8,3/4,1/2,5/6,
E
Re:MASTER
最終更新:2026年10月03日 22:54