EASY
BASIC
(210.0){1},,,,,
{2}1,1,
{1}1,
{2}8,8,
{2}8,8,{1},
{2}1,1,
{1}1,
{2}2,2,
{1}2,
{2}3,3,
{1}3,
{2}4,4,
{1}4/5,
{2}5,5,
{1}5,
{2}6,6,
{1}6,
{2}7,7,
{1}7,
{2}8,8,
{1}1/8,
{2}7,7,
{1}7/8,
{2}6,6,
{1}5/6,
{2}3,3,
{1}3/4,
{1}1h[1:1]/2h[1:1],,
{2}2,2,
{1}1/2,
{2}3,3,
{1}3/4,
{2}6,6,
{1}5/6,
{1}7h[1:1]/8h[1:1],,
{2}8,8,
{2}7,7,
{2}6,6,
{1}5/6,
{2}4,4,
{2}3,3,
{2}2,2,
{1}1/2,
{2}1,1,
{2}2,2,
{2}3,3,
{1}3/4,
{2}5,5,
{2}6,6,
{2}7,7,
{1}7/8,
{1}8-5[4:3],,
{1}1h[1:1],,
{1}1-4[4:3],,
{1}8h[1:1],,
{1}7-4[4:3],,
{1}2h[1:1],,
{1}2-5[4:3],,
{1}7h[1:1],,
{4}8,8,8,,
{4}1,1,1,,
{4}8,8,8,,
{4}7,7,7,,
{4}6,6,6,,
{4}5,5,5,,
{4}4,4,4,,
{4}3,3,3,,
{4}2,2,2,,
{1}1b,
{4}8,8,8,,
{4}1,1,1,,
{4}2,2,2,,
{4}3,3,3,,
{4}4,4,4,,
{4}5,5,5,,
{4}6,6,6,,
{4}7,7,7,,
{4}8,8,8,8,
{4}7,7,7,,
{4}6,6,6,6,
{4}5,5,5,,
{4}4,4,4,4,
{4}3,3,3,,
{4}2,2,2,2,
{1}1b,
{4}8,8,8,8,
{4}1,1,1,,
{4}2,2,2,2,
{4}3,3,3,,
{4}4,4,4,4,
{4}5,5,5,,
{2}5/6,5/6,
{2}7/8,7/8,
{1}4-1[4:3]/5-8[4:3],,,,
{2}8,8,
{2}8,8,
{2}7,7,
{1}7/8,
{4}1,1,1,,
{4}2,2,2,,
{4}3,3,3,,
{4}4,4,4,,
{4}5,5,5,,
{4}6,6,6,,
{4}7,7,7,,
{4}8,8,1,1,
E
ADVANCED
(210.0){1},,,,,
{2}4/5,4/5,
{2}3/6,3/6,
{4}2,2,1,1,
{4}8,8,7,7,{1},
{2}6h[2:1],5,
{4}4,3,2,,
{2}3h[2:1],4,
{4}5,6,7,,
{2}6h[2:1],5,
{4}4,3,2/5,,
{2}3h[2:1],4,
{4}5,6,4/7,,
{2}8h[2:1],1,
{4}2,1,8,7,
{2}1h[2:1],8,
{4}7,8,1,2,
{2}3h[2:1],4h[2:1],
{4}3,3,4,5,
{2}6h[2:1],5h[2:1],
{4}6,6,5,4,
{2}3h[2:1],4h[2:1],
{4}2,2,1/2,,
{2}6h[2:1],5h[2:1],
{4}7,7,7/8,,
{4}2,2,3,3,
{4}4,4,3/5,,
{2}6h[2:1],4h[2:1],
{2}5h[2:1],4,
{4}6,6,7,7,
{4}8,8,1/2,,
{1}3^8[2:1],
{1}7^4[2:1],
{4}3,3,2,2,
{4}1,1,7/8,,
{1}6^1[2:1],
{1}2^5[2:1],
{2}6h[2:1],5h[2:1],
{4}7,7,6/8,,
{2}3h[2:1],4h[2:1],
{4}2,2,1/3,,
{4}7,7,6,6,
{4}5,5,4/6,,
{2}3h[2:1],5h[2:1],
{2}4h[2:1],5,
{4}3,3,2,2,
{4}1,1,7/8,,
{1}6^1[2:1],
{1}2^5[2:1],
{4}6,6,7,7,
{4}8,8,1/2,,
{1}3^8[2:1],
{1}7^4[2:1],
{2}3h[2:1],4,
{2}4h[2:1],5,
{2}5h[2:1],6,
{4}7/8,,4/5,4/5,
{1}6-4[8:3],
{1}2-4[8:3],
{1}8-4[2:1],
{4}2,3,4,5,
{2}6h[2:1],5,
{2}5h[2:1],4,
{2}4h[2:1],3,
{4}1/2,,4/5,4/5,
{1}3-5[8:3],
{1}7-5[8:3],
{1}1-5[2:1],
{4}7,6,5,4,
{4}3b,2b,1b/8b,,
{4}6b,7b,1b/8b,,
{4}2,2,3,3,
{4}4,4,3/5,,
{4}6,6,5,5,
{4}4,4,3h[4:1]/5h[4:1],,
{4}2,2,1,1,
{4}8,8,7,7,
{2}6h[2:1],4h[2:1],
{2}5h[2:1],2,
{4}7,7,6,6,
{4}5,5,4/6,,
{4}3,3,4,4,
{4}5,5,4h[4:1]/6h[4:1],,
{4}7,7,8,8,
{4}1,1,2,2,
{2}3h[2:1],5h[2:1],
{2}4h[2:1],7,
{4}2,2,1,1,
{4}8,8,1/7,,
{4}7,7,8,8,
{4}1,1,2h[4:1]/8h[4:1],,
{4}3,3,4,4,
{4}5,5,6,6,
{2}7h[2:1],1h[2:1],
{2}8h[2:1],1,
{4}7,7,8,8,
{4}1,1,2/8,,
{4}2,2,1,1,
{4}8,8,1h[4:1]/7h[4:1],,
{1}8h[2:3],
{2},1b,
{2}3h[2:1],8h[2:1],
{2}1h[2:1],6h[2:1],
{1}7bpp2[8:11],,
{4}1,1,2,2,
{4}3,3,4h[4:1]/5h[4:1],,
{4}6,6,7,7,
{4}8,8,1/8,,
{2}2-4[4:1],8-6[4:1],
{1}1-5[8:3],
{4}8,8,7,7,
{4}6,6,4h[4:1]/5h[4:1],,
{4}3,3,2,2,
{4}1,1,1/8,,
{2}7-5[4:1],1-3[4:1],
{1}8-4[8:3],
{2}2h[2:1],8h[2:1],
{4}1h[2:1],,8,2/7,
E
EXPERT
(210.0){1},
{4}1,1,2,2,
{4}3,3,4h[4:1],,
{4}8,8,7,7,
{4}6,6,5h[4:1],,
{2}3/6,3/6,
{2}3/6,3/6,
{4}2/7,2/7,2/7,2/7,
{8}1,8,1,8,2,7,2,7,{1},
{4}2h[4:1],4,7h[4:1],5,
{8}1h[4:1],,3,,1,8,1,,
{4}7h[4:1],5,2h[4:1],4,
{8}8h[4:1],,6,,8,1,8,,
{4}3,3/4,6,5/6,
{4}2,2/3,7,6/7,
{4}1,2,3,4,
{4}5/6,7/8,1/2,3/4,
{4}7h[4:1],5,2h[4:1],4,
{8}8h[4:1],,6,,8,1,8,,
{4}1,7,2,8,
{4}5/6,3/4,1/2,7/8,
{4}6,5/6,3,3/4,
{4}7,6/7,2,2/3,
{8}6,5,6,5,7,5,7,,
{1}2qq6[2:1],
{4}2,1,2,4/5,
{4}7,8,7,4/5,
{4}2,1,8,7,
{1}6<3[8:3],
{4}3,2/4,6,5/7,
{4}2,1/3,7,6/8,
{4}7,8,1,2,
{1}3>6[2:1],
{4}1,8,1,5/6,
{4}8,1,8,3/4,
{4}5,6,7,8,
{1}1<4[2:1],
{4}7,6/8,2,1/3,
{4}6,5/7,3,2/4,
{4}3,2,1,8,
{1}7s3[2:1],
{4}4/6,5,4/6,7,
{4}3/5,4,3/5,2,
{4}8,1,2,3,
{1}4pp8[2:1],
{4}1/7,8,1/7,6,
{4}2/8,1,2/8,3,
{4}5,4,3,2,
{1}1q4[2:1],
{4}3/5,4,3/5,2,
{4}4/6,5,4/6,7,
{4}1,8,7,6,
{1}5qq1[2:1],
{4}2/8,1,2/8,3,
{4}1/7,8,1/7,6,
{4}4,3,2,1-5[2:1]/8-4[2:1],{1},
{1}1>5[2:1]/8qq6[2:1],
{8}7h[8:3],,,8h[8:3],,,1,1pp6[8:5],{1},
{8},,,,2,1,8,7,
{4}3,4/5,6,4/5,
{4}2,4/5,7,4/5,
{2}1-5[8:1],7-3[8:1],
{1}1>8[2:1],
{1}1pp3[8:3]/8<4[8:3],
{8}2h[8:3],,,1h[8:3],,,8,8qq3[8:5],{1},
{8}1/8,,,,2,7,1,8,
{1}3v1[4:3]/7v5[4:3],
{8},,,,1/8,,,2v4[4:3]/6v8[4:3],{1},
{8},,,,4/5,3/6,,,
{8}5/6,,3/4,,1b/8b,,,6/7,
{4},2/3,1b/8b,2b/7b,
{8}4/5,,1/8,,3,4,3,,
{4}6h[4:1],5h[4:1],4h[4:1],3h[4:1],
{4}2,1/8,6/7,4-8[4:1]/5-1[4:1],
{6},,,4/5,4/5,4/5,
{4}6h[4:1],7h[4:1],8h[4:1],1,
{4}3h[4:1],2h[4:1],1h[4:1],8,
{2}7-3[4:1],1-5[4:1],
{2}6-2[4:1],8b,
{4}5h[4:1],6h[4:1],7h[4:1],8,
{4}1/2,3/4,5/6,7/8,
{4}6h[4:1],7h[4:1],8h[4:1],1,
{12}3/4,,,5/6,,,1/8,,1/8,,1/8,,
{4}2,8,6,4,
{4}1,3,5,7,
{1}2qq4[2:1],
{1}6qq8[2:1],
{8}4/5,,1/8,,6,5,6,,
{4}3h[4:1],4h[4:1],5h[4:1],6h[4:1],
{4}7,1/8,2/3,4-8[4:1]/5-1[4:1],
{6},,,4/5,4/5,4/5,
{4}3h[4:1],2h[4:1],1h[4:1],8,
{4}6h[4:1],7h[4:1],8h[4:1],1,
{2}2-6[4:1],8-4[4:1],
{2}3-7[4:1],1b,
{4}4h[4:1],3h[4:1],2h[4:1],1,
{4}7/8,5/6,3/4,1/2,
{4}3h[4:1],2h[4:1],1h[4:1],8,
{12}5/6,,,3/4,,,1/8,,1/8,,1/8,,
{1}5w1[4:5],
{8},,,,,,,1h[8:13]/6h[8:3],
{2},3h[4:1],
{2}8h[4:1],4,
{4}3b/6b,4,3/6,5,
{4}2/7,4,2/7,5,
{4}1/8,3,1/8,6,
{12}1/8,,,2/7,,,3b/6b,,3b/6b,,3b/6b,,
{8}2,2,1,1,2,1,2,,
{8}7,7,8,8,7,8,7,,
{2}1q5[8:1],8p4[8:1],
{2}2^5[8:1],6^1[8:1],
{4}2h[4:3],1,3,1,
{4}7h[4:3],8,6,8,
{4}4h[4:5],2,1,8,
{12}7,,,6,,,2b/7b,,2b/7b,,2b/7b,,
{8}1,1,8,8,2,7,2,,
{8}5,5,4,4,6,3,6,,
{8}1-5[8:1],,,7-3[8:1],,,2-6[8:1],,
{8},8,,,2,1,8,7b,
E
MASTER
(210.0){1},
{8}4,5,4,5,3,6,4,5,
{8}2,7,4,5,1,8,2/7,,
{8}8,1,8,1,7,2,8,1,
{8}6,3,8,1,5,4,3/6,,
{2}1-5[8:1],8-4[8:1],
{2}2-6[8:1],7-3[8:1],
{4}2-5[8:1],2,7-4[8:1],7,
{8}1,8,2,7,{983}1,,,,,,,,,,,,,,,,,,,,,,,,,,,,,,,,,,,,,,,,,{625}2,,,,,,,,,,,,,,,,,,,,,,,,,,{983}3,,,,,,,,,,,,,,,,,,,,,,,,,,,,,,,,,,,,,,,,,4,,,,,,,,,,,,,,,,,,,,,,,,,,,,,,,,,,,,,,,,,{625}5,,,,,,,,,,,,,,,,,,,,,,,,,,{983}6,,,,,,,,,,,,,,,,,,,,,,,,,,,,,,,,,,,,,,,,,7,,,,,,,,,,,,,,,,,,,,,,,,,,,,,,,,,,,,,,,,,{625}8,,,,,,,,,,,,,,,,,,,,,,,,,,{983}1,,,,,,,,,,,,,,,,,,,,,,,,,,,,,,,,,,,,,,,,,2,,,,,,,,,,,,,,,,,,,,,,,,,,,,,,,,,,,,,,,,,{625}3,,,,,,,,,,,,,,,,,,,,,,,,,,{983}4w8[9995:5414],,,,,,,,,,,,,,,,,,,,,,,,,,,,,,,,,,,,,,,,,{1},
{8}2h[4:1],,4,4h[4:1],,6,4h[8:1],2h[4:1],
{8},8,7,6,5,4,3,,
{16}2,,4,,2,,5,,2,,6,,2,3,4,,
{8},7,7h[4:1],,2h[4:1],,4,,
{8}2,,2,3,,3,4,,
{8}4,5,,5,6,5,4,,
{16}7,,5,,7,,4,,7,,3,,7,6,5,,
{16},,2,,2h[4:1],,,,7,,7,6,5,,3,,
{8}7h[4:1],,5,5h[4:1],,3,5h[8:1],7h[4:1],
{8},1,2,3,4,5,6,,
{8}2/7,,2,3,,3,4,,
{8}4,5,,5,6,5,4,,
{8}1,7,1,3,1,6,1,4,
{8}1,5,1,5,1,3,5,,
{8}8,2,8,6,8,3,8,5,
{8}8,4,8,4,8,6,4,,
{4}2-5[4:1],5-8[4:1],8-3[4:1],3^6[4:1],
{4}6^1[4:1],1V35[8:3],5,,
{4}7-4[4:1],4-1[4:1],1-6[4:1],6^3[4:1],
{4}3^8[4:1],8V64[8:3],4,,
{4},4/5h[2:1],6,4h[2:1],
{4}3,5h[2:1],7,4h[4:1],
{8}2h[8:3],,,1h[8:3],,,7,7h[8:5],
{2},1-5[8:1],
{4}7^4[4:1],4^1[4:1],1^6[4:1],6-3[4:1],
{4}3V17[4:1],7V53[4:1],,,
{4}2^5[4:1],5^8[4:1],8^3[4:1],3-6[4:1],
{4}6V82[4:1],2V46[4:1],,,
{4},5/4h[2:1],3,5h[2:1],
{4}6,4h[2:1],2,5h[4:1],
{8}7h[8:3],,,8h[8:3],,,2,2h[8:5],
{2},8-4[8:1],
{4}2-6[8:1],2,4-8[8:1],4,
{4}2^5[8:1],2<6[4:1],2,,
{4}7-3[8:1],7,5-1[8:1],5,
{4}7^4[8:1],7>3[4:1],7,,
{4},5/4h[4:1],3h[4:1],2h[4:1],
{4}1h[4:1],8h[4:1],7h[4:1],6h[4:1],
{8}5h[8:3],,,4h[8:3],,,3,3h[8:5],
{2},2-6[8:1],
{4},1-5[8:1]/8-6[8:1],1/8,1-3[8:1]/8-4[8:1],
{4}1/8,1-4[8:1]/8-5[8:1],1^6[8:1]/8^3[8:1],1/8,
{4},1-6[8:1]/8-6[8:1],1/8,1-3[8:1]/8-3[8:1],
{4}1/8,1-5[8:1]/8-4[8:1],1<5[8:1]/8>4[8:1],1/8,
{4},4/5h[4:1],6h[4:1],7h[4:1],
{4}8h[4:1],1h[4:1],2h[4:1],3h[4:1],
{8}4h[8:3],,,5h[8:3],,,6,6h[8:5],
{2},7b,
{1}1V35[2:1]/5V71[2:1],
{8}4/8,,,3/7,,,2/6,1h[8:13]/5h[8:9],{1},
{8},,,,7b,5b,3b,1b,
{8}7,8,7,1/6,,3/8,,2,
{8}1,,2/5,,3,4,3,4/7,
{8},4/5,,2/3,,6/7,,1>8[2:1]/8<1[2:1],{1},
{1}4V28[2:1]/8V64[2:1],
{8}1/5,,,2/6,,,3/7,4h[8:9]/8h[8:13],{1},
{8},,,,2b,4b,6b,8b,
{1}2/1w5[4:3],
{8},,,,4/5,,,7/8w4[4:3],{1},,
{641}8b,,,,,,,,,,,,,,,,,,,,{639}1b,,,,,,,,,,,,,,,,,,,,{16}2b,,,{641}1b,,,,,,,,,,,,,,,,,,,,{639}2b,,,,,,,,,,,,,,,,,,,,{16}3b,,,{641}2b,,,,,,,,,,,,,,,,,,,,{639}3b,,,,,,,,,,,,,,,,,,,,{16}4b,,,,,,,
{641}1b,,,,,,,,,,,,,,,,,,,,{639}8b,,,,,,,,,,,,,,,,,,,,{16}7b,,,{641}8b,,,,,,,,,,,,,,,,,,,,{639}7b,,,,,,,,,,,,,,,,,,,,{16}6b,,,{641}7b,,,,,,,,,,,,,,,,,,,,{639}6b,,,,,,,,,,,,,,,,,,,,{16}5b,,,,,,,
{8}2,1,2,1,2^5[8:1],,2,7^4[8:1],
{8},7,2,,2-5[8:1],,2,1-6[8:1],
{8},1,2,,4,5,3,6,
{24}2,,,7,,,1/8,,,,,,2/4,,,,5/7,,,,3/6,,,,
{8}7,8,7,8,7-2[8:1],,7,3-6[8:1],
{8},3,8-5[8:1],,8,,1,7,
{4}1b-4[8:1],1-6[8:1],1b-5[8:1],1-7[8:1],
{4}1b-3[8:1],1-5[4:1],1b,,
{8}7,8,7,8,7^4[8:1],,7,2^5[8:1],
{8},2,7,,7-4[8:1],,7,8-3[8:1],
{8},8,7,,5,4,6,3,
{24}7,,,2,,,1/8,,,,,,5/7,,,,2/4,,,,3/6,,,,
{8}2,1,2,1,2-7[8:1],,2,6-3[8:1],
{8},6,1-4[8:1],,1,,8,2,
{4}8b-5[8:1],8-3[8:1],8b-4[8:1],8-2[8:1],
{4}8b-6[8:1],8-4[4:1],8b,,
{8}6,5,6,5,6^1[8:1],,6,5^2[8:1],
{8},5,8,,8-4[8:1],,8,6-2[8:1],
{8},6,4,,4-8[8:1],,4,2^5[8:1],
{24},,,2,,,8,,,,,,1/2,,,,7/8,,,,1/8,,,,
{8}2,1,2,1,3-6[8:1],,3,2-7[8:1],
{8},2,4-1[8:1],,4,,7,8,
{4}7b-3[8:1],7/1-5[8:1],1b/8b-4[16:1],8/2-6[8:1],
{4}2b/7b-3[8:1],7/5-1[8:1],5b,,
{8}3,4,3,4,3^8[8:1],,3,4^7[8:1],
{8},4,1,,1-5[8:1],,1,3-7[8:1],
{8},3,5,,5-1[8:1],,5,7^4[8:1],
{24},,,7,,,1,,,,,,7/8,,,,1/2,,,,1/8,,,,
{8}7,8,7,8,6-3[8:1],,6,7-2[8:1],
{8},7,5-8[8:1],,5,,2,1,
{4}2b-6[8:1],2/8-4[8:1],8b/1b-5[16:1],1/7-3[8:1],
{4}7b/2b-6[8:1],2/4-8[8:1],4b/3b-6[8:1],3/7-2[8:1],
{1}7b/1bw5[4:3],
{6},,,4/5,1/3,6/8,
{2}1V35[2:1],5V71[2:1],
{6}1b,,,1/8,5/7,2/4,
{8}1,8,2,7,3,6,4,5,
{8},5,4,6,3,7,,4b/1b-4[8:1],
{8},1/5,,6b/1b-6[8:1],,1/7,,5b/8b-5[8:1],
{8},4/8,,3b/8b-3[8:1],,2/8,,,
{4}5/6h[4:3],4,3,2,
{8}1/5,,4/8,,2/6,,3/7,3/7,
{8},2,1,3,7,8,6,4h[4:1],
{24},,,5,,,4,,,5,,,2/3,,,,6/7,,,,1/8,,,,
{8}2,2,8,4,7,7,1,5,
{8}2,3,4,7,6,5,1,8,
{8}2^5[8:1],,,7^4[8:1],,,1s5[4:1],,
{8},7,,,1/8,1-6[8:1]/8-3[8:1],1/8,1/8,,
E
Re:MASTER
最終更新:2026年10月03日 23:03