EASY
BASIC
(190.0){1},
{1}5,
{1}5,
{1}6,
{1}6,
{1}7,
{1}7,
{1}8h[1:1],,
{2}1,1,
{1}1,
{2}2,2,
{1}2,
{2}3,3,
{1}3,
{2}4,4,
{1}4/5,
{2}5,5,
{1}5,
{2}6,6,
{1}6,
{2}7,7,
{1}7,
{2}8,8,
{1}1/8,
{2}8,8,
{2}7,7,
{2}6,6,
{1}4/5,
{2}4,4,
{2}3,3,
{2}2,2,
{1}1b/8b,
{4}1,1,1,,
{4}1,1,1,,
{4}2,2,2,,
{4}2,2,2,,
{4}3,3,3,,
{4}3,3,3,,
{4}4,4,4,,
{1}4/5,
{4}5,5,5,,
{4}5,5,5,,
{4}6,6,6,,
{4}6,6,6,,
{4}7,7,7,,
{4}7,7,7,,
{4}8,8,8,,
{1}1/8,
{2}8,8,
{2}7,7,
{2}6,6,
{2}5,5,
{2}4,4,
{2}3,3,
{2}2,2,
{2}1,1,
{2}8,8-5[4:3],{1},
{2},1,
{2}1,1-4[4:3],{1},
{2},7,
{2}7,7-4[4:3],{1},
{2},2,
{2}2,2-5[4:3],{1},
{2},8,
{4}1/8,,1,1,
{4}1,,2,2,
{2}2,3/4,
{2}3/4,4h[2:1]/5h[2:1],
{4},,5,5,
{4}5,,6,6,
{2}6,7/8,
{2}7/8,1h[2:1]/8h[2:1],
{4},,8,8,
{4}8,,7,7,
{2}7,5/6,
{2}5/6,4h[2:1]/5h[2:1],
{4},,4,4,
{4}4,,3,3,
{2}3,1/2,
{2}1/2,1/8,
{4}1b/8b,,1,1,
{4}2,2,3,3,
{2}4,4/5,
{2}4/5,3/6,
{4}3/6,,5,5,
{4}6,6,7,7,
{2}8,1/8,
{2}1/8,2/7,
{4}2/7,,8,8,
{4}7,7,6,6,
{2}5,4/5,
{2}4/5,3/6,
{4}3/6,,4,4,
{4}3,3,2,2,
{2}1,1/8,
{2}1/8,2/7,
{2}2/7,1-4[4:3],{1},
{2},8-5[4:3],{1},
{2},1,
{2}1,2,
{2}2,3,
{2}3,{1}4-8[4:3],,
E
ADVANCED
(190.0){1},
{4}3,3,2,2,
{4}1,1,1/8,,
{4}6,6,7,7,
{4}8,8,1/8,,
{4}2,2,3,3,
{4}4,4,4/5,,
{4}7,7,6,6,
{4}5,5,4/5,,
{4}3,3,3/4,,
{4}6,6,5/6,,
{4}4,4,4/5,,
{4}4/5,3/6,2/7,,
{4}7,7,7/8,,
{4}2,2,1/2,,
{4}8,8,1/8,,
{2}1h[4:1]/8h[4:1],2/7,
{4}2h[2:1],1,1,,
{4}7h[2:1],8,8,,
{4}1h[2:1],8,8,,
{4}1/8,2/7,3/6,,
{4}6h[2:1],5,5,,
{4}3h[2:1],4,4,,
{4}5h[2:1],4,4,,
{4}3,3/4,6,5/6,
{1}6-1[8:3],
{1}5-2[8:3],
{1}5q4[8:7]/6<3[8:7],
{2},2/5,
{1}3-8[8:3],
{1}4-7[8:3],
{1}3-8[8:3]/4-7[8:3],
{2}1/8,2/7,
{4}6b,5,3/4,,
{4}2,3,4,4/5<2[16:11],{1},
{2}3h[4:1]/4h[4:1],2/5,
{4}3,4,5/6,,
{4}7,6,5,5/4>7[16:11],{1},
{4}5/6,5/6,4/7,,
{4}7b,8,1/2,,
{4}3,2,1,1/8<3[16:11],{1},
{2}1h[4:1]/2h[4:1],3/8,
{4}2,1,7/8,,
{4}6,7,8,8/1>6[16:11],{1},
{4}1/8,2/7,3/6,,
{4}6,6,7,7,
{4}8,8,1/8,,
{4}3,3,2,2,
{4}1,1,1/8,,
{4}7,7,6,6,
{4}5,5,4/5,,
{4}2,2,3,3,
{4}4,4,4/5,,
{1}6^1[4:3],
{2},2^5[4:3],{1},
{1}5^2[4:3],
{2},1^6[4:3],{1},
{4}6h[2:1],5,5,,
{4}4/5,,3h[2:1],4,
{2}4,2/3,
{4}2h[2:1],1,1,,
{4}1/8,,7h[2:1],8,
{2}8,6/7,
{4}4/5,,3b,4,
{4}5/6,,7,6,
{4}5,5/4>7[16:11],,,
{2},5h[4:1]/6h[4:1],
{4}4/7,,6,5,
{4}3/4,,2,3,
{4}4,4/5<2[16:11],,,
{4},,3/4,3/4,
{4}2/5,,2b,1,
{4}7/8,,6,7,
{4}8,8/1>6[16:11],,,
{2},7h[4:1]/8h[4:1],
{4}1/6,,7,8,
{4}1/2,,3,2,
{4}1,1/8<3[16:11],,,
{2},1/8,
{4}2/7,,3b,4,
{4}5/6,,6,5,
{4}4,4/3>6[16:11],,,
{2},4h[4:1]/5h[4:1],
{4}3/6,,6,5,
{4}3/4,,3,4,
{4}5,5/6<3[16:11],,,
{4},,4/5,4/5,
{4}3/6,,7b,8,
{4}1/2,,2,1,
{4}8,8/7<2[16:11],,,
{2},1h[4:1]/8h[4:1],
{4}2/7,,2,1,
{4}7/8,,7,8,
{4}1,1/2>7[16:11],,,
{4},,1/8,2/7,
{4}3/6,,4,4,
{4}3,3,2,1/2,
{4}7/8,,5,5,
{4}6,6,7,7/8,
{4}1/2,,8,8,
{4}7,7,6,5/6,
{4}3/4,,1,1,
{4}2,2,3,3/4,
{8}5/6,,4/5,4/5,
E
EXPERT
(190.0){4},,,4/5,
{4}7h[4:1],8,3/4,2/5,
{4}2h[4:1],1,5/6,4/7,
{4}7h[4:1],8,3/4,2/5,
{4}2h[4:1],1,7/8,1/6,
{4}1h[4:1],2,5/6,4/7,
{4}8h[4:1],7,3/4,2/5,
{4}1h[4:1],2,5/6,4/7,
{4}8h[4:1],7,4/5,3/6,
{2}8h[2:1],6h[2:1],
{4}4,3,2,1,
{4}6h[4:3],5,5,4,
{4}3h[4:3],4,4,5,
{2}1h[2:1],3h[2:1],
{4}5,6,7,8,
{4}3h[4:3],4,4,5,
{4}6h[4:3],5,5,4,
{2}4h[2:1],2h[2:1],
{4}8,7,6,5,
{4}2h[4:3],1,1,8,
{4}7h[4:3],8,8,1,
{2}5h[2:1],7h[2:1],
{4}1,2,3,4,
{4}7h[4:3],8,8,1-5[4:1],
{4},,4/5,2/7,
{4}5/6h[2:1],7,5,4/8,
{4}4/3h[2:1],2,4,1/5,
{4}5/6h[2:1],7,5,8/4-1[4:1],
{4},,4/5,3/6,
{4}1/2h[2:1],3,1,3/8,
{4}8/7h[2:1],6,8,1/6,
{1}4h[1:1]/5h[1:1],
{4},,1/8,5/4>5[2:1],
{4},,,6,
{4}5/7,3,2/4,8^3[4:1]*^5[4:1],
{4},,3/4,2/5,
{4}5/6,4/7,1/8,4/5<4[2:1],
{4},,,3h[4:1],
{4}1h[4:1],8h[4:1],6,4^1[4:1]/5^8[4:1],
{4},,5/6,3/7,
{4}3/4,2/6,1/8,5/4>5[2:1],
{4},,,8/1-6[8:1],
{4},1/8-3[8:1],,1^4[4:1]/8^5[4:1],
{4},,1/2,3/8,
{4}7/8,1/6,1/8,4/5<4[2:1],
{4},,,4/5,
{4}1/2,3/4,5/6,7<2[2:1]/8p1[2:1],
{4},,,1/8,
{4}4-1[4:1]/5-8[4:1],,,2b/7b,
{8}6h[4:1],,5,,2,2,1,,
{4}3h[4:1],4,7/8,1/5,
{8}3h[4:1],,4,,7,7,8,,
{4}6h[4:1],5,1/2,4/8,
{8}3h[4:1],,4,,7,7,8,,
{4}6h[4:1],5,1/2,4/8,
{8}6h[4:1],,5,,2,2,1,,
{4}3h[4:1],4,1/8,2/7,
{4}4,5,6h[4:3],5,
{4}4,3h[4:3],4,5,
{4}6h[4:3],5,4,3,
{4}5,4,3h[4:3],4,
{4}5,6h[4:3],5,4,
{4}3h[4:3],4,5,6,
{2}8/7-5[8:1],1/2-4[8:1],
{2}8/7-5[8:1],1/2-5[8:1],
{2}8/7-4[8:1],1/2-5[8:1],
{2}7/8-4[8:1],2/1-5[8:1],
{2}7/8-4[8:1],2/1-5[8:1],
{4}1/8,4/5h[1:1],6,6,
{4}6,6<5[2:1],,,
{4},2/8,7-4[4:1],,
{4}3-8[4:1],,6h[4:3],5,
{4}8,3,2/5,5/6,
{4}4/7,4/3>4[2:1],,,
{4},1/7,2-5[4:1],,
{4}6-1[4:1],,3h[4:3],4,
{4}1,6,4/7,3/4,
{4}2/5,1/2>1[2:1],,,
{4},3/5,6-1[4:1],,
{4}2-5[4:1],,7h[4:3],8,
{4}5,2,1/6,1/2,
{4}3/8,8/7<8[2:1],,,
{4},1-4[4:1],,5-8[4:1],
{4},1w5[2:1],,,
{4},5b-2[4:1]/6b-1[4:1],,,
{4}4h[4:1],3>4[2:1],,,
{4},2,1/3,7,
{4}6/8,3^8[4:1]/4^7[4:1],,,
{4}1/2,4/7,3/4,1/6,
{4}5h[4:1],6<5[2:1],,,
{4},6h[4:1],8h[4:1],1h[4:1],
{4}3,5^2[4:1]/6^1[4:1],,,
{4}7/8,2/5,5/6,3/8,
{4}4h[4:1],3>4[2:1],,,
{4},2,1/4,7,
{4}5/8,3^8[4:1]/4^7[4:1],,,
{4}5/6,2/8,1/2,4/7,
{4}4/5,3V15[2:1]/6V84[2:1],,,
{4},7-2[4:1],,3-6[4:1],
{4},8w4[2:1],,,
{4},1/6,3-8[4:1]/4-7[4:1],,
{4},1b/6b,3/5h[2:1],4,
{4}2h[2:1],3,6h[2:1],5,
{4}1h[2:1],2,7h[2:1],6,
{4}2h[2:1],1,8h[4:1],7-3[4:1],
{4},,1,2/4,
{4}8,5/7,4,1/3,
{4}5,6/8,3,1/4,
{8}6,,5/8,,2/7,,4/5,4/5,
{8},1/8,2/7,3b/6b,
E
MASTER
(190.0){16},,,,,,,,,,,,4,5,4,5,
{8}4,3,2,1-5[8:1],,1,7,6,
{8}5,6,7,8-4[8:1],,8,2,3,
{8}4,3,2,1-5[8:1],,1,7,6,
{8}5,6,7,8-4[8:1],,8,1,2,
{8}4^7[8:1],3,2,1-5[8:1],,1,7,6,
{8}5^2[8:1],6,7,8-4[8:1],,8,2,3,
{8}4^7[8:1],3,2,1-5[8:1],,1,7,6,
{8}5^2[8:1],6,7,8-4[8:1],,8,1,2,
{2}7h[4:1]/1-5[8:1],3h[4:1]/5-1[8:1],
{4}7/1^4[4:1],4^7[4:1],7^2[4:1],2>8[2:1],
{8},,,,,,7,4,
{8}5,2-5[8:1],,2-6[8:1],,2,,1,
{2}2h[4:1]/8-4[8:1],6h[4:1]/4-8[8:1],
{4}1/7^4[4:1],4^1[4:1],1^6[4:1],6>7[2:1],
{8},,,,,,2,5,
{8}4,7-4[8:1],,7-3[8:1],,7,,1,
{2}8h[4:1]/2-6[8:1],4h[4:1]/6-2[8:1],
{4}1/3^6[4:1],6^1[4:1],1^4[4:1],4<3[2:1],
{8},,,,,,7,5,
{8}4,2-5[8:1],,2-6[8:1],,2,,8,
{2}1h[4:1]/7-3[8:1],5h[4:1]/3-7[8:1],
{4}8/6^3[4:1],3^8[4:1],8^5[4:1],5>6[2:1],
{16},,,,,,,,,,,,,,3,2,
{8}1,7-4[8:1],,7/8,,3/6,3/6,,
{2}4-1[8:1]*-7[8:1],5-2[8:1]*-8[8:1],
{2}3-6[8:1]*-8[8:1],6-1[8:1]*-3[8:1],
{2}4-1[8:1]*-7[8:1],5-2[8:1]*-8[8:1],
{2}4w8[8:1],5w1[8:1],
{2}3w7[8:1],6w2[8:1],
{2}4w8[8:1],5w1[8:1],
{4}1pp4[8:3]/8qq5[8:3],,,2/6,
{4}3h[4:1]/7h[4:1],,4^2[8:1]/5p1[8:1],4q5[8:5]/5<4[8:5],
{8}4b/5b,,,,,,8,1,
{8}2-6[8:1],2,8-3[8:1],8,5-1[8:1],5,7<8[2:1],,
{4}3h[2:1],,,4/5,
{2}2-5[8:1]/6-1[8:1],4^1[8:1]/8^5[8:1],
{4}5<2[8:3]/8q2[8:3],,,4/7,
{8}3-7[8:1],3,1-5[8:1],1,4-7[8:1],4,1<5[4:1],,
{4}5>7[8:3],,,1/8,
{4}2h[4:1]/7h[4:1],,4q8[8:1]/5^7[8:1],4>5[8:5]/5p4[8:5],
{4}4/5,,,1/2,
{8}7-3[8:1],7,1-6[8:1],1,4-8[8:1],4,2>1[2:1],,
{4}6h[2:1],,,4/5,
{2}3-8[8:1]/7-4[8:1],1^4[8:1]/5^8[8:1],
{4}1p7[8:3]/4>7[8:3],,,2/5,
{8}6-2[8:1],6,8-4[8:1],8,5-2[8:1],5,8>4[4:1],,
{8}4<2[8:3],,,,,,8,1,
{8}2/7,,3/4,1,,5/6,8,,
{8}1,2,3,4-8[8:1],,4,6,7,
{8}8,7,6,5-1[8:1],,5,3,2,
{8}1,2,3,4-8[8:1],,4,6,7,
{8}8,7,6,5-1[8:1],,5,4,3,
{8}1^6[8:1],2,3,4-8[8:1],,4,6,7,
{8}8^3[8:1],7,6,5-1[8:1],,5,3,2,
{8}1^6[8:1],2,3,4-8[8:1],,4,6,7,
{8}8^3[8:1],7,6,5-1[8:1],,5,4,3,
{8}1h[4:1]/2h[4:11],,,3h[4:1],,,5h[4:1],,
{8},7h[4:1],,,1h[4:1],,,3h[4:1],
{8},,5h[4:1],,,7,7,,
{8}7h[4:11]/8h[4:1],,,6h[4:1],,,4h[4:1],,
{8},2h[4:1],,,8h[4:1],,,6h[4:1],
{8},,4h[4:1],,,2,2,,
{8}2h[4:1]/3h[4:1],,,4h[4:1]/5h[4:1],,,6h[4:1]/7h[4:1],,
{8},4h[4:1]/5h[4:1],,,2h[4:1]/3h[4:1],,,4h[4:1]/5h[4:1],
{8},,6/7,8,1,2,3/4,,
{8}6h[4:1]/7h[4:1],,,4h[4:1]/5h[4:1],,,2h[4:1]/3h[4:1],,
{8},4h[4:1]/5h[4:1],,,6h[4:1]/7h[4:1],,,4h[4:1]/5h[4:1],
{8},,2/3,1,8,7,5/6,,
{4}4^2[8:1]/5p1[8:1],4q5[8:5]/5<4[8:5],4b/5b,,
{8},,7/8,1,2-6[8:1],2,8-3[8:1],8,
{8}5-1[8:1],5,7<8[2:1],,3h[2:1],,,,
{4},4/5,2-5[8:1]/6-1[8:1],2/6,
{4}4^1[8:1]/8^5[8:1],4/8,5<3[8:3]/8q3[8:3],,
{8},,4/6,,3-7[8:1],3,1-5[8:1],1,
{8}4-8[8:1],4,2<6[4:1],,6>7[8:3],,,,
{4},1/8,2/7,3/6,
{4}4q8[8:1]/5^7[8:1],4>5[8:5]/5p4[8:5],4/5,,
{8},,1/2,8,7-3[8:1],7,1-6[8:1],1,
{8}4-8[8:1],4,2>1[2:1],,6h[2:1],,,,
{4},4/5,3-8[8:1]/7-4[8:1],3/7,
{4}1^4[8:1]/5^8[8:1],1/5,1p6[8:3]/4>6[8:3],,
{8},,3/5,,6-2[8:1],6,8-4[8:1],8,
{8}5-1[8:1],5,7>3[4:1],,3<2[8:3],,,,
{4},4bv1[8:1]*v7[8:1],,,
{16}1,2,3,4,5,6,7,8,1b-4[8:1],,,,5-8[8:1],,,,
{4}2-7[8:1],6-3[8:1],4-1[8:1],8-5[8:1],
{4}3-6[8:1],7-2[8:1],4<3[8:3]*p5[8:3],,
{4},6,6q3[8:1]/7^2[8:1],,
{2}4q1[8:1]/5p8[8:1],2h[2:1]/7h[2:1],
{4},8q4[4:1],4q2[4:1],2q6[4:1],
{4}6q4[4:1],4q8[4:1],8,,
{4},2/4,3/6,5/7,
{16}8,7,6,5,4,3,2,1,8-5[8:1],,,,4-1[8:1],,,,
{4}7-2[8:1],3-6[8:1],5-8[8:1],1-4[8:1],
{4}6-3[8:1],2-7[8:1],5q4[8:3]*>6[8:3],,
{4},3,2^7[8:1]/3p6[8:1],,
{2}4q1[8:1]/5p8[8:1],2h[2:1]/7h[2:1],
{4},1p5[4:1],5p7[4:1],7p3[4:1],
{4}3p5[4:1],5p1[4:1],1,,
{8},,1,8,2/7,,5/6,4/8,
{8},3/4,1/5,,4/5,3,4/5,6,
{8}4/5,3,4/5,6,3/4,2,5/6,7,
{8}3/4,2,5/6,7,3/4,1,5/6,8,
{8}3/4,1,5/6,8,3/4,1/8,5/6,1/8,
{16}3h[4:1]/4h[4:1],,,,,,,,1b,8,1,8,1,,2/7,,
{8}4/5,3/6,2/7,1-3[8:1]/8-6[8:1],,1-5[8:1]/8-4[8:1],,1^4[8:1]/8^5[8:1],
{8},1/8,,,4^7[8:1],3,2,1-5[8:1],
{8},1,7,6,5^2[8:1],6,7,8-4[8:1],
{8},8b,1b,2b,
E
Re:MASTER
最終更新:2026年10月03日 23:04