アットウィキロゴ

We Gonna Journey

アーティスト Queen P.A.L.

BPM EASY BASIC ADVANCED EXPERT MASTER Re:MASTER
160 3 7 9+ 12+ 13+ -

EXPERT MASTER Re:MASTER
譜面制作者 Jack 小鳥遊さん -

EASY


BASIC

(160.0){1},
{1}1h[2:1],
{1}8h[2:1],
{1}7h[2:1],
{1}6h[2:1],
{2}5,5,
{2}4,4,
{2}3,3,
{1}1h[2:1]/2h[2:1],
{4}1,1,1,,
{4}2,2,2,,
{4}3,3,3,,
{4}4,5,4,,
{4}5,5,5,,
{4}6,6,6,,
{4}7,7,7,,
{4}8,1,8,,
{4}8b,8,1/8,,
{4}7,7,7/8,,
{4}6,6,5/6,,
{2}4h[2:1],5,
{4}5,5,4/5,,
{4}4,4,4/5,,
{4}3,3,3/4,,
{4}2,2,1/2,,
{4}1/8,1/8,1b/8b,,
{4}2,2,1/2,,
{4}3,3,3/4,,
{2}5h[2:1],4,
{4}4,4,4/5,,
{4}5,5,4/5,,
{4}6,6,5/6,,
{1}7h[2:1]/8h[2:1],
{4}8,8,7,7,
{4}6,6,5,5,
{1}3h[2:1]/4h[2:1],
{4}5,5,4/6,,
{4}4,4,3,3,
{4}2,2,1,1,
{1}7h[2:1]/8h[2:1],
{4}1/8,1/8,2b/7b,,
{1}1-5[4:3],,
{1}8-4[4:3],,
{1}3-8[4:3],,
{1}6-1[4:3],,
{1}1h[4:3]/8h[4:3],
{2},2h[4:3]/7h[4:3],{1},
{1}3h[4:3]/6h[4:3],
{2},4h[4:3]/5h[4:3],{1},
{4}3,3,2,2,
{4}1,1,7/8,7/8,
{4}7,7,6,6,
{4}5,5,4,4,
{4}3,3,2,2,
{4}1,1h[2:1],,8,
{4},2,2,3,
{4}3,4/5,4/5,5,
{4}5,6,6,7,
{4}7,8,8,1,
{4}1,2,2,3,
{4}3,4,5,6,
{4}7,1h[4:3]/8h[4:3],,,
{4},8,8,7/8,
{4}7/8,6,6,5/6,
{4}5/6,4h[2:1],,5,
{4},4/5,4/5,3/6,
{4},4,4,3/4,
{4}3/4,2,2,1/2,
{4}1/2,8h[2:1],,1,
{4},1/8,1/8,2/7,
{4},1,2,3/4,
{4}3/4,5,6,7/8,
{4}7/8,1h[2:1],,8,
{4},1,8,2/7,
{4},8,7,5/6,
{4}5/6,4,3,1/2,
{4}1/2,8-4[4:3],,,{1},
{4},4/5,4/5,3/6,
{4}3/6,2/7,,{1}1-4[4:3]/8-5[4:3],,
E

ADVANCED

(160.0){1},
{1}3h[1:1],
{1}4h[1:1],
{1}5h[1:1],
{4}6h[4:3],,,5,
{4},3/4,,5/6,
{4},3/4,,5/6,
{4}4,3/4,5,5/6,
{4}4h[2:1]/5h[2:1],,,4/5,
{1}4bqq1[4:5]/5bpp8[4:5],,
{4}2,1/2,7,7/8,
{4}1,2,3,4,
{4}6h[4:1],5,3h[4:1],4,
{1}6-1[8:3],
{4}2h[4:1],1,7h[4:1],8z4[4:3],{1},
{4}4b/5b,3/6,7,7/8,
{4}6,5/6,5,4,
{4}3,3/4,2,1/2,
{4}3,3/4,4/5,,
{4}6,5/6,7,7/8,
{4}6,5/6,5,4,
{4}3,3/4,2,1/2,
{1}3V57[2:1],
{4}1/8,2b/7b,3,3/4,
{4}2,1/2,1,8,
{4}7,7/8,6,5/6,
{4}7,7/8,1/6,,
{4}2,1/2,3,3/4,
{4}2,1/2,1,8,
{4}7h[4:1],8h[4:1],1h[4:1],2,
{4}3/8,,1/8,2b/7b,
{8}1,,1/2,,3,3,4,,
{8}5,,5/6,,7,7,8,,
{4}1/8,7,1/8,2,
{4}1/8,5/7,2/4,1/8,
{8}8,,7/8,,6,6,5,,
{8}4,,3/4,,2,2,1,,
{4}1/8,2,1/8,7,
{1}1^4[16:7]/8^5[16:7],
{1}6h[1:1],
{1}5h[1:1],
{1}4h[1:1],
{4}3h[4:3],,,4,
{4},5/6,,3/4,
{4},5/6,,3/4,
{4},5/7,,2/4,
{4}1h[2:1]/8h[2:1],,,1/8,
{4}7/8,7/8,7/8,1/6,
{4},,1/2,1/2,
{4}1/2,3/8,4,5,
{4}5/6,5/6,5/6,4/7,
{4},,3/4,3/4,
{4}3/4,2/5,,,
{4}3,4,5,6,
{4}5/6,,6,5,
{4}4,3,3/4,,
{4}3h[4:1],4h[4:1],5h[4:1],6,
{4}5/7,,6h[4:1],5h[4:1],
{4}4h[4:1],3,3/4,2/5,
{4},3h[4:1]/4h[4:1],,4,
{4}5,5h[4:1]/6h[4:1],,7/8,
{4}6,5,4,3,
{4}2,8/1V35[2:1],,,
{4},4/5V71[2:1],,,
{4},3,2,1,
{1}8V64[16:11]*V24[16:11],
{8},,8,,7/8,,6,6,
{8}5,,4,,3/4,,2,2,
{4}1,1/8,2,1/8,
{4}7,1/8,2/4,5/7,
{8}1/8,,1,,1/2,,3,3,
{8}4,,5,,5/6,,7,7,
{4}8,1/8,7,1/8,
{4}2,1^4[16:7]/8^5[16:7],,,
{8},,1,,2/8,,3,3,
{8}3/4,,5,,4/6,,7,7,
{4}7/8,1/8,7,1/8,
{4}2,1/8,4/7,2/5,
{8}1/8,,8,,1/7,,6,6,
{8}5/6,,4,,3/5,,2,2,
{4}1/2,1/8,2/4,1/8,
{4}5/7,1^4[2:1]/8^5[2:1],,,
{4},5/7,1/8,2/4,
{4}4/5,2b/7b,,8b/1bq6[2:3],,,{1},,
E

EXPERT

(160.0){1},
{1}3bpp6[4:5]/7bpp2[4:5],,
{1}4v6[2:1]/7V13[2:1],
{1}2V86[2:1]/5v3[2:1],
{4}8h[4:11],1-5[8:1],,5-2[8:1],
{4},2-7[8:1],,7-4[8:1],
{4},4-1[8:1],,1,
{16}4h[8:1]/5h[8:1],,,4/5,,,1/8,,,2/7,,,3/6,,5,,
{16}4h[16:3],,,3h[16:3],,,2h[4:1],,,,1,,1/2,,,,
{16}5h[16:3],,,6h[16:3],,,7h[4:1],,,,8,,7/8,,,,
{16}4h[16:3],,,3h[16:3],,,2h[4:1],,,,1,,1/2,,,,
{4}8^5[8:1],1^4[8:1],8-4[8:1],1,
{16}3h[16:3],,,4h[16:3],,,5,,7h[16:3],,,6h[16:3],,,5,,
{16}1h[16:3],,,2h[16:3],,,3,,4/5,,,,2/7,,,,
{4}3>6[8:3],,,1/8,
{16}3b,4,,6b,5,,2b,4,,7b,5,,1/8,,1/8,,
{8}2b-5[8:1]/7b-4[8:1],,,,3,3,2/4,,
{8}6,5,4/7,,1,8,7,2/6,
{8}3,3,3/4,,6,6,5/7,,
{8}3,4,2/5,,8,1,2,3/7,
{8}6,6,5/6,,3,3,2/4,,
{8}6,5,4/7,,1,8,7,2/6,
{8}3,3,3/4,,6,6,5/7,,
{16}3h[16:3],,,1h[16:3],,,8h[16:3],,,6h[16:3],,,5,,4,,
{8}3b-8[8:1]/6b-1[8:1],,,,7,7,6/8,,
{8}2,1,3/8,,5,4,3,2/6,
{8}7,7,7/8,,2,2,1/3,,
{8}7,8,1/6,,4,5,6,3/7,
{8}2,2,1/2,,7,7,6/8,,
{8}2,1,3/8,,5,4,3,2/6,
{8}7,7,7/8,,2,2,1-6[8:1]/3-8[8:1],,
{2},5w1[8:1],
{8}7b,7^4[8:1],8,1,,3,4,3,
{8}2,2^5[8:1],1,8,,6,5,6,
{16}7/8,,,4/6,,,1/2,,1/2,,,3/5,,,7/8,,
{4}8/7-5[8:1],1-3[8:1],8-4[8:1],1,
{8}2b,2^5[8:1],1,8,,6,5,6,
{8}7,7^4[8:1],8,1,,3,4,3,
{16}1/2,,,3/5,,,7/8,,7/8,,,4/6,,,1/2,,
{2}1-6[8:1]/2-5[8:1],3b/8b,
{1}7h[1:1],
{1}5h[1:1],
{1}4h[1:1],
{1}2h[1:1],
{4}7h[4:11],8,,6,
{4},5,,4,
{4},3,,2,
{16}1/8,,,2/4,,,5/7,,,1/8,,,2,7,2,7,
{4}2h[8:1],1h[8:1]/3h[8:1],4h[8:1]/8h[8:1],5/7,
{4},,7h[8:1],6h[8:1]/8h[8:1],
{4}1h[8:1]/5h[8:1],4/2-6[8:1],7-3[8:1],,
{4}2h[8:1]/4h[8:1],4h[8:1]/6h[8:1],2h[8:1]/4h[8:1],4/8,
{4},,5h[8:1]/7h[8:1],2h[8:1]/5h[8:1],
{4}5-1[8:1]/8-4[8:1],,,2/7,
{8}3,4,5/6h[4:1],,8,,6,5,
{16}4/3h[4:1],,,,1,,,,8h[16:3],,,1,8,,,,
{8}2,2,4,4,5,5,7,7,
{16}1h[16:3],,,8,1h[16:3],,,7,1h[16:3],,,6,1h[16:3],,,7,
{16}1h[16:3],,,8,1,,,,7,,7,,5,,5,,
{8}4,4,2b-4[8:1],,8b-6[8:1],,1b-5[8:1],,
{8}8b,,7b,8,1/6,,3/5,,
{8}2,1,3/8,,4/6,,7,8,
{16}1,,2,,3,,4,,6,5,6,,3,4,3,,
{16}6,5,6,,3b,,4,,2/5,,2/5,,1/6,,1/6,,
{8}7b/8b,,6b,5,4/7,4/7,3/8,3/8,
{16}1b/2b,,,,4b/5b,,3,4,3,,6,5,6,,2,4,
{16}3,,7,5,6<3[4:1],,,,,,,,4w8[8:1],,,,
{8},,2b/6b,2^5[8:1],1,8,,6,
{8}5,6,3/7,7^4[8:1],8,1,,3,
{16}4,,3,,1/2,,,3/5,,,7,8,7,,,4/6,
{16},,2,1,2-4[8:1],,,,8-6[8:1],,,,1-5[8:1],,,,
{8}8,,3b/7b,7^4[8:1],8,1,,3,
{8}4,3,2/6,2^5[8:1],1,8,,6,
{16}5,,6,,7/8,,,4/6,,,1/2,,1/2,,,3/5,
{8},7/8,7-4[8:1]/8-3[8:1],,,,1b/6b,,
{8},,3b/7b,3^8[8:1],4,5,,7,
{8}8,7,2b/6b,6^1[8:1],5,4,,2,
{16}1,,2,,3b/4b,,,2/8,,,6,5,6b,,,1/7,
{16},,3,4,3b-1[8:1],,,,5b-7[8:1],,,,4b-8[8:1],,,,
{8}7b,,1b/6b,6^1[8:1],5,4b,,2,
{8}1,2,3b/8b,3^8[8:1],4,5b,,7,
{16}8,,7,,5b/6b,,,1/7,,,3/4,,3b/4b,,,2/8,
{8},5/6,5bq1[8:1]/6b^8[8:1],,,,3b^1[8:1]/4bp8[8:1],,
{16},,,,7b,8,7b,8,7b,,2b,1,2b,1,2b,,
{16}8b,1b,8b,1b,8b,,,,,,,,{1}4b-1[4:7]*^6[4:7],,,
E

MASTER

(160.0){1},
{1}7h[1:1]/1-5[2:1],
{4}5-2[2:1],,,8h[1:1],
{1}7^4[2:1],
{4}2h[4:1]/4h[4:1],,3/7,1/5,
{4}5/6h[4:11],4,,3,
{4},2,,1,
{4},8,,7,
{16}1/3b,,,2b/6,,,4/8b,,,1/5b,,,3/6,,4/5,,
{16}1/8h[16:3],,,6,8,,5,,4/8,,1,,3,4,2,,
{16}8/1h[16:3],,,3,1,,4,,1/5,,8,,6,5,7,,
{16}1/8h[16:3],,,6,8,,5,,4/8,,1,,3,4,2,,
{16}8/1h[16:3],,,3,1,,4,,7,8,6,,3/7,,,,
{16}1/3h[16:3],,,5h[16:3],,,7,,8h[8:1],,7h[8:1],,6h[8:1],,5h[8:1],,
{16}1h[16:3],,,3h[16:3],,,5,,1-6[8:1]/7-4[8:1],,,,1/7,,,,
{16}2/4h[4:1],,,,3,4,3,,7/5h[4:1],,,,6,5,6,,
{16}2,1/2,,7,7/8,,3,2/4,,6,5/7,,1,8,2,7,
{8}1-5[8:1]/8-4[8:1],,1b/8b,,3/4,3/4,1/6,,
{16}6,5,6,,3,4,3,,5/6,,5/6,,3/8,,,,
{16}3-1[8:1],4,3,4,3,,8,,6-8[8:1],5,6,5,6,,1,,
{16}3-1[8:1],4,3,4,3,,8,,2/6,,2/6,,3/7,,3/7,,
{16}4b^1[8:1]/8b^5[8:1],,,,4/8,,,,2,6,2,,4/8,,,,
{16}7,4,6,3,5,2,6,3,7,4,8,,2/5,,1h[8:1],,
{16}4,3,4,3,8h[8:1],,5,6,5,6,1,,2/7,,4/5,,
{16}6,5/6,,3,3/4,,7,5/7,,2,2/4,,8,1,8,1,
{16}2b-5[8:1]/7b-4[8:1],,,,2b/7b,,,,2,4,2,4,3,,7,5,
{16}7,5,6,,5/1s5[8:3],,7,7,,,4,,6,,8,,
{16}2,4,2,4,3,,7,5,7,5,6,,1/8,,2,4,
{16}2,4,3,,4/8z4[8:3],,2,2,,,5,,3,,1,,
{16}1b-5[8:1]/6b-8[8:1],,,,1b/6b,,,,2,4,2,4,3,,7,5,
{16}7,5,6,,5/1s5[8:3],,7,7,,,4,,6,,8,,
{16}7,3,7,3,6,2,6,2,5,1,5,1,{641}5,,,,,,,,,,,,,,,,,,,,{639}6,,,,,,,,,,,,,,,,,,,,7,,,,,,,,,,,,,,,,,,,,{641}8,,,,,,,,,,,,,,,,,,,,1,,,,,,,,,,,,,,,,,,,,{639}2,,,,,,,,,,,,,,,,,,,,3,,,,,,,,,,,,,,,,,,,,{641}4,,,,,,,,,,,,,,,,,,,,
{4}5/1-5[4:1],,1bw5[8:1],1b,
{16}3/7,,2,1,2,,4/5,,3-1[8:1]/8-4[8:1],,2/7,,3/8,,,,
{16}2/6,,7,8,7,,4/5,,6/1-5[8:1],,2,,1/8-4[8:1],,7,,
{16}8/3-1[8:1],,,1-5[8:1],,,5,,6-8[8:1],,,8-4[8:1],,,4,,
{4}1-5[8:1],1^4[8:1]*^6[8:1],1w5[8:1],1,
{16}3/7,,6,5,6,,1/8,,4-8[8:1]/7-5[8:1],,3/6,,4/7,,,,
{16}2/6,,3,4,3,,2/5,,1/8-4[8:1],,7,,8/1-5[8:1],,2,,
{16}1/6-8[8:1],,,8-4[8:1],,,4,,3-1[8:1],,,1-5[8:1],,,5,,
{4}8pp4[4:1]*qq4[4:1],,,2b/6b,
{1}3-8[2:1]/7-4[4:3],
{4}8^3[2:1],7h[4:3],,,
{1}6^3[2:1],
{4}1h[4:1]/3h[4:1],,2/6,4/8,
{4}4/3h[4:11],5,,6,
{4},7,,8,
{4},1,,2,
{16}6b/8,,,3/7b,,,1b/5,,,4b/8,,,1/5,2/6,3/7,4/8,
{4}1p5[8:1]/5p1[8:1],1^4[8:1]/5^8[8:1],1V74[16:3]/5V38[16:3],,
{4},,4p8[8:1]/8p4[8:1],4^7[8:1]/8^3[8:1],
{4}4-8[8:1]/8-4[8:1],,1b,1b,
{4}4^7[8:1]/5^2[8:1],4-8[8:1]/5-1[8:1],4qq1[8:3]/5pp8[8:3],,
{4},,1q5[8:1]/8p4[8:1],1^6[8:1]/8^3[8:1],
{16}1s5[8:1]/8z4[8:1],,,,,,,,,,,,1/8,2,3,4,
{16}5/6,,,7,7/8,,,,1/8,7,6,5,8,1,2,3,
{16}4/5,,,,4,3,2,1,7/8,,,6,5/6,,,,
{16}4,5,4,5,2,1,2,1,4,5,4,5,8,7,8,7,
{16}2h[4:1],,,3,3h[4:1],,,4,4h[4:1],,,5,5h[4:1],,,6,
{16}6h[4:1],,,7,7h[16:3],,,8,7,1,7,2,7,3,7,4,
{16}7,5,7,6,8bw4[8:1],,,,8b,,,,1bw5[8:1],,,,
{16}1b,,,,4/5,6,7,8,1/2,,,,2,3,4,5,
{16}7,6,5,4,1h[4:1],,,,8,7,6,5,3/4,,7,8,
{16}7,1,7,2,7,3,7,4,7,5,7,6,7,2,8,1,
{16}7,2,8,,3b/8b,,2,1,2,8,2,7,2,6,2,5,
{16}2,4,2,,1b/6b,,7,8,7,1,7,2,7,3,7,4,
{16}7,5,7,,1b/8b,,2,4,3,,7,5,6,,4,5,
{16}3,6,2,7,{12}1/8,{995}2/7,,,,,,,,,,,,,,,,,,,,,,,,,,,,,,,,,,,,,,,,,,,,,,,,,,,,,,,,,,,,,,,,,,,,,,,,,,,,,,,,,,,{12}3/6,4/5,{995}3/6,,,,,,,,,,,,,,,,,,,,,,,,,,,,,,,,,,,,,,,,,,,,,,,,,,,,,,,,,,,,,,,,,,,,,,,,,,,,,,,,,,,{12}2/7,1-5[8:1]/8-4[8:1],,,
{16}1b/8b,,,,2/6,,7,8,7,,3/5,,4/6-1[8:1],,8/2-5[8:1],,
{16}4/6,,2,,7,,2,1,2,,4/5,,1/8-4[8:1],,6,,
{16}8/1-5[8:1],,3,,1/6V48[4:1],,,4,,,8,,3V51[4:1],,,5,
{8},1,8-5[8:1]*^5[8:1],,8-3[8:1]*^3[8:1],,8w4[8:1],,
{16}8,,,,2/6,,3,4,3,,1/8,,5/3-8[8:1],,1/7-4[8:1],,
{16}3/5,,7,,3,,6,5,6,,4/7,,8/1-5[8:1],,3,,
{16}1/8-4[8:1],,6,,8/3V15[4:1],,,1,,,5,,6V84[4:1],,,8,
{8},4,1pp5[4:1]*qq5[4:1],,,,,,
{16}3b/7b,,,,4/8,,2,4,3,4,2,,5/3-8[8:1],,8/7-4[8:1],,
{16}3/6,,7,,1,,7,5,6,5,7,,8/2-6[8:1],,1,,
{16}2/8-4[8:1],,1,,8/3V51[16:3],,,1-5[8:1],,,7,,6V48[16:3],,,8-4[8:1],
{8},2,1-4[8:1]*^4[8:1],,1-6[8:1]*^6[8:1],,1w5[8:1],,
{16}1,,,,1/5,,7,5,6,5,7,,4/6-1[8:1],,1/2-5[8:1],,
{16}3/6,,2,,8,,2,4,3,4,2,,1/7-3[8:1],,8,,
{16}7/1-5[8:1],,8,,1/6b^1[8:1],,,4,6,,2,,3b^8[8:1],,,5,
{16}3,,7,,6,5,6,5,4,5,4,5,4,3,4,3,
{16}2b/7b,,,,7,8,7,8,1b/6b,,2,1,2,1,3b/8b,,
{16}4/5,3/6,2/7,1/8,2b-7[8:1]/7b-2[8:1],,,,,,,,{2}3h[2:3]/8h[2:3],{1},,
E

Re:MASTER


名前:
コメント:

タグ:

+ タグ編集
  • タグ:
最終更新:2026年10月03日 23:05