| アーティスト |
じーざすP feat.kradness |
BASIC
(188.0){1},,,,
{1}1,
{1}1,
{1}8,
{1}8,
{2}1,1,
{1}1,
{1}8h[1:1],,
{2}1,1,
{1}1,
{2}2,2,
{1}2,
{2}3,3,
{1}3,
{1}4h[1:1],,
{1}4x/5x,
{2}5,5,
{2}4,4,
{1}5h[1:1],,
{2}6,6,
{2}7,7,
{1}8h[1:1],,
{2}1,1,
{2}2,2,
{1}3h[1:1],,
{2}4,4,
{2}5,5,
{1}4h[1:1],,
{1}B3,
{1}B2,
{1}B1,
{1}B8,
{1}B7,
{1}B6,
{1}Chf[1:1],,
{2}8,8,
{4}8,8,8,,
{2}7,7,
{1}7/8,
{2}6,6,
{2}5,5,
{2}4,4,
{2}4/5,4b/5b,
{2}4,4,
{4}4,4,4,,
{2}3,3,
{1}3/4,
{1}2-6[4:3],,
{1}1h[1:1]/8h[1:1],,
{4}1,1,1,,
{1}8-4[4:3],,
{1}1-5[4:3],,
{1}7-4[4:3],,
{1}2-5[4:3],,
{1}6h[1:1],,
{1}5h[1:1],,
{1}4h[1:1],,
{1}3h[1:1],,
{1}B2,
{1}B3,
{1}B4,
{1}B5,
{1}B6,
{1}B7,
{1}B1/B8,
{1}B2/B7,
{1}Chf[4:3],,
{1}1h[4:3]/8h[4:3],,
{2}8,8,
{2}1,1,
{2}1/8,1/8,
{4}8,1,8b,,
{4}1,1,1,,
{4}2,2,2,,
{4}3,3,3,,
{2}4/5,4/5,
{1}6h[2:1],
{4}6,6,6,,
{1}7h[2:1],
{4}7,7,7x/8x,,
{4}8,8,8,,
{4}7,7,7,,
{4}6,6,6,,
{4}4/5,4/5,3/6,,
{1}2-6[4:3],,
{4}8,8,8,,
{4}1,1,1,,
{4}1/8,1/8,1/8,,
{1}1-4[4:3]/8-5[4:3],
{8},,,,,,,{1}3hx[1:1]/6hx[1:1],,
E
ADVANCED
(188.0){1}3x^6[4:3],,
{1}7x<2[1:1],,
{4}3,3,3,,
{4}5,5,5,,
{4}4,4,4,,
{4}6,6,5/6,,
{4}6,6,6,,
{4}4,4,4,,
{4}5,5,4/5,,
{2}3h[4:1]/4h[4:1],3/4,
{4}2,2,2,,
{4}8,8,8,,
{4}1,1,1,,
{4}7,7,7/8,,
{4}6,6,5,5,
{2}6,5/6,
{4}3,3,4,4,
{2}4/5,3x/6x,
{1}4h[2:1]/5h[2:1],
{2}3h[2:1],4,
{2}6h[2:1],5,
{2}3h[2:1],4,
{1}4h[2:1]/5h[2:1],
{2}7h[2:1],5,
{2}2h[2:1],4,
{2}5h[2:1],4h[2:1],
{4}5,4,5,,
{2}7h[2:1],8,
{2}2h[2:1],1,
{2}7h[2:1],8,
{4}1,1,1/8,,
{2}2h[2:1],4,
{4}5,5,5,,
{1}3h[2:1]/6h[2:1],
{4}4/5,4/5,3x/6x,,
{1}Ch[1:1],,
{1}Ch[1:1],,
{4}E3,B3,B4,,
{4}E7,B6,B5,,
{2}E3/B3,B6/E7,
{1}Ch[2:1],
{4}1b,1,2,3,
{4}4,3,2/5,,
{4}8,8,7,6,
{4}5,6,4/7,,
{4}3,3,2/4,,
{4}6,6,5/7,,
{4}3,3/4,6,5/6,
{8}4x/5x,,4x/5x,,3b/6b,,,4hx[8:3]/5hx[8:3],
{4},,6,7,
{4}8,7,7/8,,
{4}5,5,4,3,
{4}2,1/2,3/8,,
{1}5h[2:1]/7h[2:1],
{1}2h[2:1]/4h[2:1],
{4}1,2,3,4x/5x,
{4}5,6,7,8,
{4}1,1/8,2b/7b,,
{4}3,3,4,4,
{2}3,2/5,
{4}6,6,5,5,
{2}6,4/7,
{4}2,2,1,1,
{2}2,3/8,
{4}7,7,8,8,
{2}1/8,2x/7x,
{1}3-8[4:3],
{4},,7,7-4[4:3],{1},
{4},,3,3^8[4:3],{1},
{4},,7,7^4[4:3],{1},
{1}C1f,
{2}2hx[2:1],3h[2:1],
{2}4h[2:1],5,
{2}7h[2:1],6h[2:1],
{2}5h[2:1],4,
{2}3h[2:1],2h[2:1],
{2}1h[2:1],8,
{1}2h[2:1]/7h[2:1],
{1}3h[2:1]/6h[2:1],
{1}B2/B7/Ch[1:1],,
{1}B3/B6/Ch[1:1],,
{4}E3,B2,B1,,
{4}E7,B7,B8,,
{2}B3/E3,B6/E7,
{1}Ch[2:1],
{4}1x,1,2,3,
{4}3/4,3/4,2/5,,
{4}8,8,7,6,
{4}5/6,5/6,4/7,,
{4}4,3,2/5,,
{4}5,6,4/7,,
{4}2,1/2,7,7/8,
{8}1/8,,1x/8x,,2b/7b,,,1hx[8:3]/8hx[8:3],
{4},,2,3,
{4}3/4,2/5,1/6,,
{4}1,1,8,7,
{4}5/6,4/7,3x/8x,,
{1}2h[2:1]/4h[2:1],
{1}5h[2:1]/7h[2:1],
{4}4,3,1/2,1x/2x,
{4}8,7,6,5,
{4}4/5,3/6,2b/7b,,
{1}1>8[4:5],
{8},,,,,,,{1}Chf[1:1],,
E
EXPERT
(188.0){8}8x/7hx[8:3],,,5hx[8:3],,,{4}4x>5[4:3],{1},
{8}1x/2hx[8:3],,,4hx[8:3],,,{4}5x<4[4:3],{1},
{8}8x,8x,,2,,1/2,,7,
{8},7/8,,2,,1/2,,3/8,
{8},4/5,,7,,7/8,,2,
{8},1/2,,3-8[8:1]/4-7[8:1],,,,,
{8}1x,1x,,7,,7/8,,2,
{8},1/2,,7,,7/8,,1/6,
{8},4/5,,2,,1/2,,7,
{8},7/8,,5-2[8:1]/6-1[8:1],,,,,
{8}8x,8x,,1/7,,2/8,,1/7,
{8},2/8,,1/7,,2/8,,1/6,
{8},4/5,,7/8,,1/2,,7/8,
{8},1/2,,3-1[8:1]/8-4[8:1],,,,,
{8}1x,1x,,2/8,,1/7,,2/8,
{8},1/7,,2/8,,1/7,,3/8,
{8},4/5,,1/2,,7/8,,1/2,
{8},7/8,,1/6,,5/4q5[8:7],,,{1},
{8}4/5,,3/6,3/6,,,4/5,,
{4}3h[4:1],2h[4:1],1h[4:1],8h[4:1],
{4}7h[4:1],6h[4:1],5-1[8:1],,
{4}8-4[8:1],,3,3/4,
{4}2/5,2-5[8:1]/5-8[8:1],,,
{4}4/7,4-1[8:1]/7-4[8:1],,,
{4}2/5h[4:3],6x,6x,6x<3[2:1],
{4},,,C1f/B2/B3/B6/B7,
{4},1,8,2/7,
{4}3,2/4,6,5/7,
{4}2/4,2-4[8:1]/4-8[8:1],,,
{4}5/7,2/4,5-1[8:1]/7-5[8:1],,
{4},2/8,3,2/4,
{4}6,5/7,8,1/8,
{8}1h[4:1],,8,,3/6,,2/7,2b/7b,
{4},B3/E4,B7/E8,C1,
{8}5hx[8:3],,,6hx[8:3],,,{4}7xpp4[4:3],{1},
{8}2hx[8:3],,,4hx[8:3],,,6x<3[2:1],,
{4},,5x,1x/8x,
{4}3h[4:1],4,6h[4:1],5,
{4}2h[4:1],3,7h[4:1],6,
{8}1hx[4:1]/8hx[4:1],,,2hx[4:1]/7hx[4:1],,,3hx[4:1]/6hx[4:1],,
{8},4hx[4:1]/5hx[4:1],,,E1/C1f/E5,,,,
{4}2x-4[8:1],8x-6[8:1],1x-5[8:1],,
{8}3/7,,1/2,1/2,,7-4[8:1]/8-3[8:1],,,
{4},2-4[8:1],5,2-5[8:1],
{4}6,2-6[8:1],7,1b/8b,
{8}2,2,4,,7,7,5,,
{8}4,4,5,,2b/7b,,4/5,,
{8}2,2,1,,7,7,8,,
{2}2V48[8:3]/7V51[8:3],C1f,
{4}7/2h[4:1],4h[4:1],5h[4:1],7h[4:1],
{8}8,,1/2,1-6[8:1]/2-5[8:1],,,,,
{8}7,7,8,,2,2,1,,
{2}8^3[8:1]*^5[8:1],8v3[8:1]*v5[8:1],
{8},,4hx[4:1]/6hx[4:1],,,2hx[4:1]/5hx[4:1],,,
{8}3hx[4:1]/7hx[4:1],,,1hx[4:1]/5hx[4:1],,,1x/5x,,
{4}2x/6x,3x/7x,4x^1[8:1]/8x^5[8:1],,
{4},1/5h[4:5],2,3,
{4}4,4-1[8:1],,,
{8}1x,1x,,2/8,,1/7,,2/8,
{8},1/7,,2/8,,1/7,,3/8,
{8},4/5,,1/2,,7/8,,1/2,
{8},7/8,,1-5[8:1]/6-8[8:1],,,,,
{8}8x,8x,,1/7,,2/8,,1/7,
{8},2/8,,1/7,,2/8,,1/6,
{8},4/5,,7/8,,1/2,,7/8,
{8},1/2,,3/8,,4/5,,,
{8}3h[8:3],,,4h[8:3],,,5h[8:3],,
{8},6h[8:3],,,5-3[8:1],,,,
{8}6h[8:3],,,5h[8:3],,,4h[8:3],,
{8},3h[8:3],,,4-6[8:1],,,,
{8}2h[8:3],,,4h[8:3],,,5h[8:3],,
{8},7h[8:3],,,5-1[8:1],,,,
{8}8h[8:3],,,1h[8:3],,,8,,
{6}2x,3x,4x,5x,6x,7x,
{4}1b/8b,,3/5,4/6,
{4}5h[1:1],3,4h[2:1],,
{4},4/5,6,5,
{4}4,3-5[8:1],7-1[8:1],,
{8}2,2,,1/3,1/3,,6/8,6/8,
{8},4/5,4/5p4[2:1],,,,,,
{8}2h[8:3],,,7h[8:3],,,2,2b/7b,
{4},6,5,4,
{8}3hx[8:3],,,4hx[8:3],,,{4}5x<4[4:3],{1},
{8}6hx[8:3],,,5hx[8:3],,,4xp5[2:1],,
{4},,1,1b/8b,
{8}3,3,4,,6,6,5,,
{8}2,2,4,,7,7,5,,
{8}4hx[4:1],,,3hx[4:1]/5hx[4:1],,,2hx[4:1]/6hx[4:1],,
{8},1hx[4:1]/7hx[4:1],,,C1f/B4/B8,,,,
{4}7x-5[8:1],1x-3[8:1],8x-4[8:1],,
{8}2/6,,7/8,7/8,,1-6[8:1]/2-5[8:1],,,
{8},,4/7,,3,3,1,,
{8}6,6,8,,4/5,,1b/8b,,
{4}7-5[8:1],4,7-4[8:1],3,
{4}7-3[8:1],2,1b/8b,4/5,
{8}7,7,8,,2,2,1,,
{2}2V48[8:3]/7V51[8:3],C1f,
{4}2/7h[4:1],5h[4:1],4h[4:1],2h[4:1],
{8}1,,7/8,7-4[8:1]/8-3[8:1],,,,,
{8}2,2,1,,7,7,8,,
{2}1^4[8:1]*^6[8:1],1v4[8:1]*v6[8:1],
{8},,3hx[4:1]/5hx[4:1],,,4hx[4:1]/7hx[4:1],,,
{8}2hx[4:1]/6hx[4:1],,,4hx[4:1]/8hx[4:1],,,4x/8x,,
{4}3x/7x,2x/6x,1x^4[8:1]/5x^8[8:1],,
{4},8/4h[4:3],7,6,
{4}5,4-1[8:1]/5-8[8:1],,,
{8}2b/7b,,3/4,3/4,,5/6,5/6,,
{8}2/4,2/4,,5/7,5/7,,1/8,1/8,
{8},2,3,4,5,6,7,1b/8b,
E
MASTER
(188.0){8}1hx[4:1]/6hx[4:7],,,2h[4:1],,,{4}3>7[4:3],{1},
{8}2h[4:1]/5h[8:11],,,3h[4:1],,,4z8[8:3],,
{16},,,,,,,,,,6,5,6,,,,
{8}3x/6x,3/6,,2/1-5[8:1],,4,,7/8-4[8:1],
{8},5,,2/1-5[8:1],,4,3,2,
{8}1/5,1/5,,7/8-4[8:1],,5,,2/1-5[8:1],
{8},4,,7/8-4[8:1],,5,6,7,
{8}4/8,4/8,,2/1-5[8:1],,4,,7/8-4[8:1],
{8},5,,2/1-5[8:1],,4,3,2,
{8}1/5,1/5,,4/7^4[8:1],,1^4[8:1],,1x/8x,
{8},4/5,3x/6x,,4,5,6,7,
{8}4x/8x,4/8,,2/1^6[8:1],,4,,7/8^3[8:1],
{8},5,,2/1^6[8:1],,4,3,2,
{8}1x/5x,1/5,,7/8^3[8:1],,5,,2/1^6[8:1],
{8},4,,7/8^3[8:1],,5,6,7,
{8}4x/8x,4/8,,2/1^6[8:1],,4,,7/8^3[8:1],
{8},5,,2/1^6[8:1],,4,3,2,
{8}1x/5x,1/5,,7/8^3[8:1],,5,,2x/8x,
{8},1/7,1/7,,4/5,,3/6,6/3h[8:7],
{8},C1,,,,,,,
{8}6h[8:3],,4,4-2[8:1],,5,5,,
{8}3h[8:3],,5,5-7[8:1],,4,4,,
{8}1,1,1/4,,8,8,5/8,,
{4}1,7/1>5[4:1],8,8,
{8}6h[4:1],,4,5,3h[4:1],,5,4,
{8}7h[4:1],,4,5,2h[4:1],,5,4,
{8}8^5[8:1],,8^3[8:1],,8,,5,5h[8:5],
{8},3,3,3,3-6[8:1],,3x/6x,,
{8}7p3[8:1],7,1,,2q6[8:1],2,8,,
{8}7^4[8:1],7,1,,2^5[8:1],2,8,,
{8}7,7,7-2[8:1]/8-5[8:1],,,,3/4,,
{8}2,2,1-4[8:1]/2-7[8:1],,,,5/6,,
{8}7V53[4:1],7,1,,2V46[4:1],2,8,,
{8}7V51[4:1],7,1,,2V48[4:1],2,8,,
{8}7-3[8:1],,1-5[8:1],,8,,4/5,2/7,
{4},5/6,3/4,1/8,
{983}1x/6hx[4:1],,,,,,,,,,,,,,,,,,,,,,,,,,,,,,,,,,,,,,,,,{625}2x,,,,,,,,,,,,,,,,,,,,,,,,,,{983}3x,,,,,,,,,,,,,,,,,,,,,,,,,,,,,,,,,,,,,,,,,{4}4x,{983}1x/5hx[4:1],,,,,,,,,,,,,,,,,,,,,,,,,,,,,,,,,,,,,,,,,{625}2x,,,,,,,,,,,,,,,,,,,,,,,,,,{983}3x,,,,,,,,,,,,,,,,,,,,,,,,,,,,,,,,,,,,,,,,,{4}4xw8[8:1],{597}4x,,,,,,,,,,,,,,,,,,,,,,,,,,,,{645}C1f,,,,,,,,,,,,,,,,,,,,,,,,,,,,,,,,,,,,,,,,,,,,,,,,,,,,,,,,,,,,,,,,,,,,,,,,,,,,,,,,,,,,,,,,,,,,,,,,,,,,,,,,,,,,,,,,,,,,,,,,,,,,,,,,,,,
{8},,,,1/8,2/7h[8:9],,,
{8}B6/E7/B7,,,B2/B3/E3,,,E1/B1/B8,,
{8},4,5,,3/6,,2/7,,
{8}7,6,2,3,6,5,3,4/5,
{8},4/7,,2V41[16:3]/6V85[16:3],,,,,
{8}1,4,2,5,3,6,4,7,
{8}5/8,5z1[4:1]/8s4[4:1],,,,,,,
{8}2b^5[8:1],2,1-6[8:1],1,2^5[8:1],2,1,1,
{8}4v5[8:1]/8v1[8:1],,,,,3/6,,1x/7x,
{8},3h[4:1],4,6h[4:1],5,3h[4:1],4,6h[4:1],
{8}5,3h[4:1],4,6,8-5[8:1]*>5[8:1],,,,
{8}7,6,2,3,6,5,3,4,
{8}5,5,4z8[4:1]/6s2[4:1],,,,,1x/6x,
{8},7,8,1,2,3,4,5,
{641}4x/6,,,,,,,,,,,,,,,,,,,,{639}3x,,,,,,,,,,,,,,,,,,,,2x,,,,,,,,,,,,,,,,,,,,{641}1x,,,,,,,,,,,,,,,,,,,,8x,,,,,,,,,,,,,,,,,,,,{639}7x,,,,,,,,,,,,,,,,,,,,6x,,,,,,,,,,,,,,,,,,,,{641}5x,,,,,,,,,,,,,,,,,,,,{4}4xw8[8:1],{597}4b,,,,,,,,,,,,,,,,,,,,,,,,,,,,{637}C1f,,,,,,,,,,,,,,,,,,,,,,,,,,,,,,,,,,,,,,,,,,,,,,,,,,,,,,,,,,,,,,,,,,,,,,,,,,,,,,,,,,,,,,,,,,,,,,,,,,,,,,,,,,,,,,,,,,,,,,,,,,,,,,,,,,,,,,,,,,,,,,,,,,,,,,,,,,,,,,,,,,,,,,,,,,,,,,,,,,,,,,,,,,,,,,,,,,,,,,,,,,,,,,,,,{8}1x/5x,
{8},7,6-1[8:1],5,4,3,2^5[8:1],1,
{8}8,7,6,4-1[8:1]/5-8[8:1],,,,2/6h[4:1],
{8},4h[8:1],8h[8:1],3h[8:1],7h[8:1],2h[8:1],6h[8:1],1h[8:1],
{8}5,5,4/5<4[4:1],,,,{641}E1,,,,,,,,,,,,,,,,,,,,{639}C1,,,,,,,,,,,,,,,,,,,,B5,,,,,,,,,,,,,,,,,,,,{621}B4,,,,,,,,,,,,,,,,,,,,,,,,,,,,,,,,,,,,,,,,,,,,,,,,,,,,,,,,,,,,,,,,,,,,,,,,,,,,,,,,,,,,,,,,,,,,,,,,,
{4}6h[8:23],{641}E7,,,,,,,,,,,,,,,,,,,,{639}C1,,,,,,,,,,,,,,,,,,,,{16}B2/E3/B3,,,,,{641}E1,,,,,,,,,,,,,,,,,,,,{639}C1,,,,,,,,,,,,,,,,,,,,{16}B4/E5/B5,,,,,
{641}E7,,,,,,,,,,,,,,,,,,,,{639}C1,,,,,,,,,,,,,,,,,,,,{16}B2/E3/B3,,,,,{641}E1,,,,,,,,,,,,,,,,,,,,{639}C1,,,,,,,,,,,,,,,,,,,,{16}B4/B5/E5,,,,,{641}E7,,,,,,,,,,,,,,,,,,,,{639}C1,,,,,,,,,,,,,,,,,,,,{16}B2/B3/E3,,,
{641}E1,,,,,,,,,,,,,,,,,,,,{639}C1,,,,,,,,,,,,,,,,,,,,{16}B4/E5/B5,,,{641}E7,,,,,,,,,,,,,,,,,,,,{639}C1,,,,,,,,,,,,,,,,,,,,{16}B2/E3/B3,,,{641}E1,,,,,,,,,,,,,,,,,,,,{639}C1,,,,,,,,,,,,,,,,,,,,{16}B4/E5/B5,,,{641}E7,,,,,,,,,,,,,,,,,,,,{639}C1,,,,,,,,,,,,,,,,,,,,{16}B2/E3/B3,,,
{8},6,5/6,6,3/6,6,4/6,6,
{8}2/6,6,3/6,6,4/5,{641}E5,,,,,,,,,,,,,,,,,,,,{639}B4/B5,,,,,,,,,,,,,,,,,,,,C1,,,,,,,,,,,,,,,,,,,,{633}E1,,,,,,,,,,,,,,,,,,,,,,,,,,,,,,,,,,,,,,,,,,,,,,,,,,,,,,,,,,,,,,,,,,,,,,,,,,,,,,,,,,,,,,,,,,,,,,,,,,,,,,,,,,,,,,,,,,,,,,,,,,,,,,,,,,,,,,,,,,,,,,,,,,,,,,,,,,,,,,,,,,,,,,,,,,,,,,,,,,
{8}2x/7x,3/6,,2/1^6[8:1],,4,,7/8^3[8:1],
{8},5,,2/1-5[8:1],,4,3,2,
{8}1/5,1/5,,7/8^3[8:1],,5,,2/1^6[8:1],
{8},4,,7/8-4[8:1],,5,6,7,
{8}4/8,4/8,,2/1^6[8:1],,4,,7/8^3[8:1],
{8},5,,2/1-5[8:1],,4,3,2,
{8}1/5,1/5,,4/7^4[8:1],,1-5[8:1],,1x/8x,
{16},,3/6,,3/6,,5,4,5,,2/7,,,,,,
{8}3/5h[4:1],,3,7h[4:1],3,,3/6h[4:1],,
{8}3,8,3/8,8,3/8-4[8:1],,3,,
{8}3/7h[4:1],,3,5h[4:1],3,,3/6h[4:1],,
{8}3,8,3/8,8,3/8-5[8:1],,3,,
{8}6/4h[4:1],,6,2h[4:1],6,,6/3h[4:1],,
{8}6,1,1/6,1,6/1-5[8:1],,6,,
{8}6/2h[4:1],,6,4h[4:1],6,,3/6,,
{6}1b/5b,3/7,3/7,4b/8b,2/6,2/6,
{8}1b/5h[4:1],1,2,3,5/4h[2:1],,2,,
{8}5,5,4,4,3h[8:3]/6h[8:3],,,,
{8}5^7[8:1],4,3,,6^8[8:1],5,4,,
{8}1,2,3,4,5h[4:1],,B1/B2/E2,,
{8}5/6,7/4h[8:3],,3,3,,2/6,2/6,
{16}1/5,,1/5,,4/8,,4/8,,1x,2x,3x,4x,5x,6x,7x,8x,
{8}1b,,5/6,4b/7b,,4/5,4/5,2b/7b,
{4},3/4,5/6,1/8,
{983}8x/3hx[4:1],,,,,,,,,,,,,,,,,,,,,,,,,,,,,,,,,,,,,,,,,{625}7x,,,,,,,,,,,,,,,,,,,,,,,,,,{983}6x,,,,,,,,,,,,,,,,,,,,,,,,,,,,,,,,,,,,,,,,,{4}5x,{983}8x/4hx[4:1],,,,,,,,,,,,,,,,,,,,,,,,,,,,,,,,,,,,,,,,,{625}7x,,,,,,,,,,,,,,,,,,,,,,,,,,{983}6x,,,,,,,,,,,,,,,,,,,,,,,,,,,,,,,,,,,,,,,,,{4}5xw1[8:1],{597}5x,,,,,,,,,,,,,,,,,,,,,,,,,,,,{645}C1f,,,,,,,,,,,,,,,,,,,,,,,,,,,,,,,,,,,,,,,,,,,,,,,,,,,,,,,,,,,,,,,,,,,,,,,,,,,,,,,,,,,,,,,,,,,,,,,,,,,,,,,,,,,,,,,,,,,,,,,,,,,,,,,,,,,
{8},,,,1/8,1/8,1/8,,
{8}C1,,,B1/E1/B4/E5/B5/B8,,,B2/B3/E3/B6/E7/B7,,
{8},5,4,,3/6,,2/7,,
{8}5/7,6,2/4,3,4/5,,2/4,4/2-7[8:1],
{8},5,,4/2-7[8:1],,5,5,,
{8}1-3[8:1],8-4[8:1],1x,8x,1-5[8:1],8-6[8:1],1x,8x,
{8}1x,1,1w5[8:1],,,,,,
{8}7b^4[8:1],7,8-3[8:1],8,6^3[8:1],6,8,8,
{8}1/5h[8:3],,2,2,,4/6,4/6,8/3h[4:1],
{8},6h[4:1],2,3h[4:1],7,6h[4:1],4,3h[4:1],
{8}5,6h[4:1],2,3,5-8[8:1]*>8[8:1],,,,
{8}7-5[8:1],7,1-3[8:1],1,8-4[8:1],8,1,1,
{8}5x^3[8:1]*^7[8:1],,5xs1[4:1],,,,,3x/8x,
{8},2,1,8,7,6,5,4,
{641}3x/5x,,,,,,,,,,,,,,,,,,,,{639}6x,,,,,,,,,,,,,,,,,,,,7x,,,,,,,,,,,,,,,,,,,,{641}8x,,,,,,,,,,,,,,,,,,,,1x,,,,,,,,,,,,,,,,,,,,{639}2x,,,,,,,,,,,,,,,,,,,,3x,,,,,,,,,,,,,,,,,,,,{641}4x,,,,,,,,,,,,,,,,,,,,{4}5xw1[8:1],{597}5b,,,,,,,,,,,,,,,,,,,,,,,,,,,,{637}C1f,,,,,,,,,,,,,,,,,,,,,,,,,,,,,,,,,,,,,,,,,,,,,,,,,,,,,,,,,,,,,,,,,,,,,,,,,,,,,,,,,,,,,,,,,,,,,,,,,,,,,,,,,,,,,,,,,,,,,,,,,,,,,,,,,,,,,,,,,,,,,,,,,,,,,,,,,,,,,,,,,,,,,,,,,,,,,,,,,,,,,,,,,,,,,,,,,,,,,,,,,,,,,,,,,{8}4x/8x,
{8},2,3-8[8:1],4,5,6,7^4[8:1],8,
{8}1,2,3,4-1[8:1]/5-8[8:1],,,,2/6h[4:1],
{8},4h[4:1],8,6h[4:1],1,4h[4:1],8,6,
{8}3,5,4/5<4[4:1],,,,{641}E1,,,,,,,,,,,,,,,,,,,,{639}C1,,,,,,,,,,,,,,,,,,,,B5,,,,,,,,,,,,,,,,,,,,{621}B4,,,,,,,,,,,,,,,,,,,,,,,,,,,,,,,,,,,,,,,,,,,,,,,,,,,,,,,,,,,,,,,,,,,,,,,,,,,,,,,,,,,,,,,,,,,,,,,,,
{4}6h[8:23],{641}E7,,,,,,,,,,,,,,,,,,,,{639}C1,,,,,,,,,,,,,,,,,,,,{16}B2/E3/B3,,,,,{641}E1,,,,,,,,,,,,,,,,,,,,{639}C1,,,,,,,,,,,,,,,,,,,,{16}B4/E5/B5,,,,,
{641}E7,,,,,,,,,,,,,,,,,,,,{639}C1,,,,,,,,,,,,,,,,,,,,{16}B2/E3/B3,,,,,{641}E1,,,,,,,,,,,,,,,,,,,,{639}C1,,,,,,,,,,,,,,,,,,,,{16}B4/B5/E5,,,,,{641}E7,,,,,,,,,,,,,,,,,,,,{639}C1,,,,,,,,,,,,,,,,,,,,{16}B2/B3/E3,,,
{641}E1,,,,,,,,,,,,,,,,,,,,{639}C1,,,,,,,,,,,,,,,,,,,,{16}B4/E5/B5,,,{641}E7,,,,,,,,,,,,,,,,,,,,{639}C1,,,,,,,,,,,,,,,,,,,,{16}B2/B3/E3,,,{641}E1,,,,,,,,,,,,,,,,,,,,{639}C1,,,,,,,,,,,,,,,,,,,,{16}B4/B5/E5,,,{641}E7,,,,,,,,,,,,,,,,,,,,{639}C1,,,,,,,,,,,,,,,,,,,,{16}B2/E3/B3,,,
{8},1,2,3,4/6,5,4/6,5,
{8}4/6,5,4v5[8:1]/6v5[8:1],5-1[8:1],,,,,
{16}1x/8x,,7,5,7,,4x/5x,,2,4,2,,1x/8x,,7,5,
{16}7,,4x/5x,,2,4,2,,8x,,8x,,8x,,4b/6b,,
{8},1/7,2/7,3/7,4/6,3/5,4/7,1b/5b,
E
Re:MASTER
最終更新:2026年03月29日 09:14