アットウィキロゴ

popcorn

アーティスト happy machine

BPM BASIC ADVANCED EXPERT MASTER Re:MASTER
130 3 7 9 13 -

EXPERT MASTER Re:MASTER
譜面制作者 はっぴー Techno Kitchen -

BASIC

(150.0){1},,
{1}1,
{1}1,
{1}2,
{1}2,
{1}3,
{1}3,
{1}4,
{1}4,
{1}5,
{1}5,
{1}6,
{1}6,
{1}7,
{1}7,
{1}8,
{1}8,
{1}1h[1:1],,
(131.0){1}1x/8x,
(130.0){1}1h[8:5]/8h[8:5],
{1}1b/8b,
{4}8,8,8,,
{4}7,7,7,,
{4}6,6,6,,
{4}5,5,5,,
{4}4,4,4,,
{4}3,3,3,,
{4}2,2,2,,
{1}1x/8x,
{1}8h[2:1],
{1}7h[2:1],
{1}6h[2:1],
{4}5,5,4/5,,
{1}4-1[4:3],,
{1}5-8[4:3],,
{2}1,1,
{2}2,2,
{2}3,3,
{1}4x/5x,
{1}B5,
{1}E5/B6,
{1}B4,
{1}B3/E5,
{1}B4/B5,
{1}B3/B6,
{1}Chf[16:15],,
{4}1,1,1,,
{4}2,2,1/2,,
{4}3,3,3,,
{4}4,5,4,,
{4}5,5,5,,
{4}6,6,5/6,,
{4}7,7,7,,
{4}8,1,8b,,
{1}8-4[4:3],,
{1}1-5[4:3],,
{1}7-3[4:3],,
{1}2-6[4:3],,
{1}7h[16:15]/8h[16:15],,
{1}1h[16:15]/2h[16:15],,
{4}8,8,7,7,
{4}6,6,5/7,,
{4}4,4,5,5,
{4}4h[2:1]/5h[2:1],,,3b/6b,
E

ADVANCED

(150.0){1}Ch[1:1],,
{2}B3,B4,
{1}B5,
{2}B6,B5,
{1}B4,
{2}E4,B2/E3,
{2}E6,B7/E7,
{2}E5,C1,
{2}E1,B2/B7,
{4}6h[2:1],5,5,,
{4}3h[2:1],4,4,,
{4}6h[2:1],5,4,,
{4}3h[2:1],4,5,,
{2}6h[2:1],5h[2:1],
{2}4,3,
{2}2h[2:1],3h[2:1],
{2}4,5,
{2}5h[4:1]/6h[4:1],3h[4:1]/4h[4:1],
{2}4/5,Chf[2:1],
(131.0){1},
(130.0){8}8x,8x,8hx[16:3],,,1x/7x,,,
{1}C1f,
{4}3,3,4,4,
{4}5,5,6,6,
{4}7,7,8,8,
{4}1/8,1/8,2x/7x,,
{4}3,3,3/4,,
{4}6,6,5/6,,
{4}7,7,8,8,
{2}1/8,2x/7x,
{4}7,7,7/8,,
{4}2,2,1/2,,
{4}3,3,4,4,
{2}4h[4:1]/5h[4:1],3x/6x,
{2}B4,B2/B3,
{2}B5,B6/B7,
{2}E5,E4/E6,
{2}C1,B2/B7,
{4}E3,B3,B4,,
{4}E7,B6,B5,,
{2}B3/B4,B5/B6,
{1}Ch[2:1],
{1}1xp6[4:3],
{4},,7,7,
{1}8q3[4:3],
{2},2x/4x,
{1}5p2[4:3],
{4},,1,1,
{1}2V41[4:3]/7V58[4:3],
{4},,2x/7x,2b/7b,
{8}3,3,4,,6,6,5,,
{4}4/7,8,1,1/8,
{8}2,2,1,,7,7,8,,
{4}1/8,2/7,3/6,4/5,
{8}3,3,4,,6,6,5,,
{4}4/7,4/7,3/6,2/5,
{1}Chf[16:15],
{4},,1x/8x,1x/8x,
{2}2h[2:1],3h[2:1],
{2}4,4/5,
{2}7h[2:1],6h[2:1],
{2}5,4/7,
{2}3h[4:1]/4h[4:1],3/4,
{2}5h[4:1]/6h[4:1],5/6,
{2}7h[2:1],8h[2:1],
{2}1h[2:1],2,
{1}8xqq3[4:3],
{4},,2,2,
{1}1pp6[4:3],
{2},5x/7x,
{8}3,3,2/4,,6,6,5/7,,
{4}1/8,2/7,3/6,4x/5x,
{2}2h[4:1]/4h[4:1],5h[4:1]/7h[4:1],
{4}Chf[4:3],,,,
E

EXPERT

(150.0){4},E5,E4/E6,E3/E7,
{2}C1,1x/8x,
{4}7,5/6,4,3,
{4}2h[4:1]/4h[4:1],,1/5,1/5,
{4}2,3/4,5,6,
{2}5h[4:1]/7h[4:1],4/8,
{4}4/6,3,2/4,2,
{4}3/5,6,5/7,7,
{2}8^5[4:1],1^4[4:1],
{4}8,8,3/7,,
{4}2,3/4,5,6,
{4}5h[4:1]/7h[4:1],,4/8,4/8,
{4}7,5/6,4,3,
{2}2h[4:1]/4h[4:1],1/5,
{4}3/5,6,5/7,7,
{4}4/6,3,2/4,2,
{2}1^4[4:1],8^5[4:1],
{4}1,1,2/6,,
{4}3/7,4,2/6,5,
{2}E1,E5,
(131.0){1}C1f/B2/B3/B6/B7,
(130.0){16}1x/8x,,1x/8x,,1x/8x,,,2x/7x,,,3hx[4:1]/6hx[4:1],,,,,,
{1}1b,
{4}B5/B7,B2/B4,B8/E8,B1/E2,
{4}B4/B6,B3/B5,B7/E7,B2/E3,
{4}B6/B8,B1/B3,B5/E6,B4/E4,
{4}E1,C1,E5,,
{8}6,6,5,4h[4:1]/7h[4:1],,,4/7,,
{8}3,3,4,2h[4:1]/5h[4:1],,,2/5,,
{8}6,6,5,4h[4:1]/7h[4:1],,,4/7,,
{4}1h[8:5]/6h[8:5],,,1/6,
{8}3,3,4,2/5,,6,5/7,,
{8}6,6,5,4/7,,3,2/4,,
{8}3,3,4,2/5,,6,5/7,,
{8}6,6,5,4/7,,8b,8b,,
{8}5/7,4,3,3h[4:1],,4,3,,
{8}2/4,5,6,6h[4:1],,5,6,,
{4}3h[4:1],1h[4:1],8h[4:1],6h[4:1],
{8}5,5>1[8:3],,,,,,,
{8}2/4,5,6,6h[4:1],,5,6,,
{8}5/7,4,3,3h[4:1],,4,3,,
{4}6h[4:1],8h[4:1],1h[4:1],3h[4:1],
{1}4<8[8:3],
{16}2/8,,,,1h[8:1]/7h[8:1],,,1/7,,,,,5-2[8:1]/6-1[8:1],,,,
{16},,,,,,,,3,4,,2x/5x,,2x/5x,,,
{16}1/7,,,,2h[8:1]/8h[8:1],,,2/8,,,,,3-8[8:1]/4-7[8:1],,,,
{16},,,,,,,,6,5,,4x/7x,,4x/7x,,,
{16}2/8,,,,1h[8:1]/7h[8:1],,,1/7,,,,,5-2[8:1]/6-1[8:1],,,,
{16},,,,,,,,3,4,,2x/5x,,2x/5x,,,
{16}1/7,,,,2h[8:1]/8h[8:1],,,2/8,,,,,3-8[8:1]/4-7[8:1],,,,
{4},1x,1/8,3b/6b,
{8}2/8,7,5/6,4,3/8,7,5-2[8:1]/6-1[8:1],,
{16},,,,,,,,3,4,,2x/5x,,2x/5x,,,
{8}1/7,2,3/4,5,1/6,2,3-8[8:1]/4-7[8:1],,
{16},,,,,,,,6,5,,4x/7x,,4x/7x,,,
{8}2/8,7,5/6,4,3/8,7,5-2[8:1]/6-1[8:1],,
{16},,,,,,,,3,4,,2x/5x,,2x/5x,,,
{16}1/7,,,,2h[8:1]/6h[8:1],,,2/6,,,,,1x/8x,,,1x/8x,
{4},4x/5x,1/8,2b/7b,
{8}6,6,5,7h[4:1],,1,1,,
{8}3,3,4,2h[4:1],,8,8,1,
{4}1,2/3,4/5,6/7,
{2}8/1^4[4:1],8^5[4:1],
{8}3,3,4,2h[4:1],,8,8,,
{8}6,6,5,7h[4:1],,1,1,8,
{1}8<3[2:1],
{1}Chf[2:1],
{16}1/8,,,,1/8,,,2/7,,,,,5/6,,,4/7-3[4:1],
{16},,,,,,,,1,1,,2/6,,,,,
{16}1/8,,,,1/8,,,2/7,,,,,3/4,,,5/2-6[4:1],
{16},,,,,,,,8,8,,3/7,,,,,
{16}1/8,,2,,3/4,,5,,1/6,,2,,3x/5x,,,6x/2hx[16:5],
{16},,5,,5,,,,7,8,,1x/6x,,1x/6x,,,
{4}3b/4b,5b/6b,7b/8b,1b/2b,
{16}3,4,,2x/5x,,3x/6x,,4x/7x,,,,,C1f/B2/B6,
E

MASTER

(150.0){12},,,3,{995}4,,,,,,,,,,,,,,,,,,,,,,,,,,,,,,,,,,,,,,,,,,,,,,,,,,,,,,,,,,,,,,,,,,,,,,,,,,,,,,,,,,,{12}3,6,{995}5,,,,,,,,,,,,,,,,,,,,,,,,,,,,,,,,,,,,,,,,,,,,,,,,,,,,,,,,,,,,,,,,,,,,,,,,,,,,,,,,,,,{12}6,2,{995}4,,,,,,,,,,,,,,,,,,,,,,,,,,,,,,,,,,,,,,,,,,,,,,,,,,,,,,,,,,,,,,,,,,,,,,,,,,,,,,,,,,,{12}3,
{2}Ch[2:1],1,
{4}2h[2:1],C1,7h[2:1],C1,
{4}2^5[4:1],C1,7^4[4:1],C1,
{4}2h[2:1],B2,7h[2:1],B7,
{4}2^5[4:1],B2,7^4[4:1],B7,
{4}2,{12}3,{995}4,,,,,,,,,,,,,,,,,,,,,,,,,,,,,,,,,,,,,,,,,,,,,,,,,,,,,,,,,,,,,,,,,,,,,,,,,,,,,,,,,,,{12}3,4,,,3/4,,,
{12}4/7,,,6,{995}5,,,,,,,,,,,,,,,,,,,,,,,,,,,,,,,,,,,,,,,,,,,,,,,,,,,,,,,,,,,,,,,,,,,,,,,,,,,,,,,,,,,{12}6,5,,,5/6,,2,
{12}1,,,C1/E2/E6,,7,8,,,C1/E4/E8,,2,
{12}1,,,C1/E2/E6,,7,8,,2,1,,6,
{4}5h[4:1],B5,8/7h[2:1],B7,
{12}8-4[8:1],,8,7,,,7-5[8:1],,7,8,,3,
{4}4h[4:1],B4,1/2h[2:1],B2,
{12}1-5[8:1],,1,2,,,2-4[8:1],,2,1,,,
{12}5/6,,,7,{995}8,,,,,,,,,,,,,,,,,,,,,,,,,,,,,,,,,,,,,,,,,,,,,,,,,,,,,,,,,,,,,,,,,,,,,,,,,,,,,,,,,,,{12}7,8^3[8:1],,,7,,,
{12}5/6,,,6,{995}5,,,,,,,,,,,,,,,,,,,,,,,,,,,,,,,,,,,,,,,,,,,,,,,,,,,,,,,,,,,,,,,,,,,,,,,,,,,,,,,,,,,{12}6,5^2[8:1],,,6,,,
{12}7/8,,,6,{995}5,,,,,,,,,,,,,,,,,,,,,,,,,,,,,,,,,,,,,,,,,,,,,,,,,,,,,,,,,,,,,,,,,,,,,,,,,,,,,,,,,,,{12}6,5,,5,4,,4,
{2}3^8[4:1],6^1[4:1],
{12}5,,,3,{995}4,,,,,,,,,,,,,,,,,,,,,,,,,,,,,,,,,,,,,,,,,,,,,,,,,,,,,,,,,,,,,,,,,,,,,,,,,,,,,,,,,,,{12}3,4,,4,5,,5,
{2}6h[2:1],Chf[2:1],
(131.0){4}8b,,,4/5,
(130.0){16}2/6,,2/6,,3,4,,5w1[6247:911],,,,,,,,,
{4}2b/7b,,,4x/5x,
{8}7h[4:1],5,5h[4:1],3,3h[4:1],1,1h[4:1],8,
{8}8h[4:1],2,2h[4:1],4,4h[4:1],6,6h[4:1],8,
{8}8h[4:1],7,6h[4:1],5,4h[4:1],3,2h[4:1],8,
{8}1h[4:1],2,3h[4:1],4,5,6,4/5,,
{8}6/8,6/8>6[8:3],7,6,,,,,
{8}1/3,3/1<3[8:3],2,3,,,,,
{8}1/7,7/1>7[8:3],8,7,,,,,
{8}B3/B7/Ch[8:3],,,,,,{12}3,{983}4,,,,,,,,,,,,,,,,,,,,,,,,,,,,,,,,,,,,,,,,,{8}3,
{8}3x/5x,3/5<3[8:3],C1/B2/B6,1h[8:3],,,,,
{8}4/6,6/4>6[8:3],C1/B3/B7,8h[8:3],,,,,
{8}1/3,3/1<2[8:3],C1/E4/E8,3h[8:3],,,,,
{8}6/8,6/8>7[8:3],C1/E2/E6,6h[8:3],,,,,
{8}2h[4:1],B2,4h[8:1],B4,2/5,{24}3,,4,,,{983}4,,,,,,,,,,,,,,,,,,,,,,,,,,,,,,,,,,,,,,,,,{8}3,
{8}7h[4:1],B7,5h[8:1],B5,4/7,{24}6,,5,,,{983}5,,,,,,,,,,,,,,,,,,,,,,,,,,,,,,,,,,,,,,,,,{8}6,
{8}2h[4:1],B2,6h[4:1],B6,1h[4:1],B1,5h[4:1],B5,
{8}8,1/8,2/7,{641}3,,,,,,,,,,,,,,,,,,,,{639}4,,,,,,,,,,,,,,,,,,,,5,,,,,,,,,,,,,,,,,,,,{621}6,,,,,,,,,,,,,,,,,,,,,,,,,,,,,,,,,,,,,,,,,,,,,,,,,,,,,,,,,,,,,,,,,,,,,,,,,,,,,,,,,,,,,,,,,,,,,,,,,{16}8x,,,8x,,,
{16}1h[4:1],,B1,,4h[8:1],,B4,,2/5,,{24}3,,4,,,{983}4,,,,,,,,,,,,,,,,,,,,,,,,,,,,,,,,,,,,,,,,,{8}3,
{8}8h[4:1],B8,5h[8:1],B5,4/7,{24}6,,5,,,{983}5,,,,,,,,,,,,,,,,,,,,,,,,,,,,,,,,,,,,,,,,,{8}6,
{8}2/4,3,5/7,6,1/4,3,5/8,{641}6,,,,,,,,,,,,,,,,,,,,{639}5,,,,,,,,,,,,,,,,,,,,4,,,,,,,,,,,,,,,,,,,,{641}3,,,,,,,,,,,,,,,,,,,,
{16},,1,,1/2,,7/8,,6,5,,3,4,,2/5,,
{16}3x/4x,,,,6/4>8[8:1],,,7x,,,,,6/4>5[4:1],,,7hx[16:5],
{16},,,,,,,,3,4,,7/8,,1/6,,,
{16}5x/6x,,,,3/5<1[8:1],,,2x,,,,,3/5<4[4:1],,,2hx[16:5],
{16},,,,,,,,6,5,,1/2,,3/8,,,
{16}3x/4hx[4:1],,,,1^6[8:1],,,3x,,,,,4/2<3[4:1],,,6hx[16:5],
{16},,,,,,,,3,4,,7/8,,1/6,,,
{16}6x/5hx[4:1],,,,8^3[8:1],,,6x,,,,,5/7^4[8:1],,,3hx[16:3],
{4},8b/1b^4[8:1],1b/8b^5[8:1],1b/8b,
{16}2x/1x-6[8:1],,8,,1/2,,4,,1/2-5[8:1],,3,,2/1<4[4:1],,,3hx[16:5],
{16},,,,,,,,{12}2/5,{983}3,,,,,,,,,,,,,,,,,,,,,,,,,,,,,,,,,,,,,,,,,{12}4,{983}6,,,,,,,,,,,,,,,,,,,,,,,,,,,,,,,,,,,,,,,,,{12}5,{983}7,,,,,,,,,,,,,,,,,,,,,,,,,,,,,,,,,,,,,,,,,{8}8,
{16}7/8-3[8:1],,1,,7/8,,5,,8/7-4[8:1],,6,,7/8>5[4:1],,,6hx[16:5],
{16},,,,,,,,{12}4/7,{983}6,,,,,,,,,,,,,,,,,,,,,,,,,,,,,,,,,,,,,,,,,{12}5,{983}3,,,,,,,,,,,,,,,,,,,,,,,,,,,,,,,,,,,,,,,,,{12}4,1/6,,
{16}1x-6[8:1],,7/8,,1/2,,3,,2-5[8:1],,3/4,,2/1<4[4:1],,,3hx[16:5],
{16},,,,,,,,{12}2/5,{983}3,,,,,,,,,,,,,,,,,,,,,,,,,,,,,,,,,,,,,,,,,{12}4,{983}6,,,,,,,,,,,,,,,,,,,,,,,,,,,,,,,,,,,,,,,,,{12}5,3/8,,
{16}3x/4hx[4:1],,,,1^6[8:1],,,3x,,,,,4/2^5[8:1],,,6hx[16:3],
{4},1b/8b^5[8:1],8b/1b^4[8:1],1b/8b,
{8}8/1h[8:1],B1,8/2h[8:1],B2,1/8,7,1/8,2,
{8}1/8h[8:1],B8,1/7h[8:1],B7,1/8,2,1/8,7,
{8}8/2h[8:1],B2,8/3h[8:1],B3,1/7h[8:1],B7,1/6h[8:1],B6,
{8}4/3>6[4:1],4,,,,,2/7,2/7,
{8}8/1h[8:1],B1,8/2h[8:1],B2,8/3h[8:1],B3,8/4h[8:1],B4,
{8}8/5h[8:1],B5,8/6h[8:1],B6,8/7h[8:1],B7,1/8,2,
{8}1/8h[8:1],B8,1/7h[8:1],B7,1/6h[8:1],B6,1/5h[8:1],B5,
{16}1/4h[8:1],,B4,,1/3h[8:1],,B3,,2,1,,7,8,,3/7,,
{16}3x/4hx[4:1],,,,1^6[8:1],,,3x,,,,,4/2<3[4:1],,,6hx[16:5],
{16},,,,,,,,3,4,,7/8,,1/6,,,
{16}6x/5hx[4:1],,,,8^3[8:1],,,6x,,,,,5/7>6[4:1],,,3hx[16:5],
{16},,,,,,,,6,5,,1/2,,3/8,,,
{16}8x-3[8:1],,1/2,,7/8,,6,,7-4[8:1],,5/6,,7/8>5[4:1],,,6hx[16:5],
{16},,,,,,,,{12}4/7,{983}6,,,,,,,,,,,,,,,,,,,,,,,,,,,,,,,,,,,,,,,,,{12}5,{983}3,,,,,,,,,,,,,,,,,,,,,,,,,,,,,,,,,,,,,,,,,{12}4,1/6,,
{4}8x/1x-6[8:1],1x/8x-3[8:1],8x/1x-6[8:1],1x/8x,
{16}1b/8b,1b/8b,,5b/6b,,2b/3b,,8b,{641}1,,,,,,,,,,,,,,,,,,,,{639}2,,,,,,,,,,,,,,,,,,,,3,,,,,,,,,,,,,,,,,,,,{641}4,,,,,,,,,,,,,,,,,,,,5,,,,,,,,,,,,,,,,,,,,{639}6,,,,,,,,,,,,,,,,,,,,7,,,,,,,,,,,,,,,,,,,,{641}8,,,,,,,,,,,,,,,,,,,,{1}1hx[1:1]/5hx[1:1],,
E

Re:MASTER


名前:
コメント:

タグ:

+ タグ編集
  • タグ:
最終更新:2026年03月31日 19:40