アットウィキロゴ

SHINY DAYS

アーティスト

BPM EASY BASIC ADVANCED EXPERT MASTER Re:MASTER
110 1 3 5 8+ 12 -

EXPERT MASTER Re:MASTER
譜面制作者

EASY


BASIC

(110.0){1},,,,,
{2}1,1,
{2}2,2,
{2}3,3,
{4}4,4,4,,
{2}4/5,4/5,
{2}6,6,
{2}4/5,4/5,
{2}3,3,
{4}4,4,4,,
{4}5,5,5,,
{4}6,6,6,,
{4}7,7,7,,
{1}8-5[4:3],,
{1}1-4[4:3],,
{1}1h[2:1]/8h[2:1],
{4}1,1,8,8,
{4}1/8,1/8,1b/8b,,
{4}1,1,1,,
{4}2,2,2,,
{2}3/4,3/4,
{4}4,5,4,,
{4}5,5,5,,
{4}6,6,6,,
{2}7/8,7/8,
{4}1,8,1,,
{1}8h[2:1],
{1}7h[2:1],
{1}6h[2:1],
{2}4/5,4/5,
{1}3h[2:1]/6h[2:1],
{4}3,3,3,,
{4}2,2,2,,
{4}1,1,1,,
{4}8,8,1,1,
{1}8b,
E

ADVANCED

(110.0){1},
{4}6,5,6,5/6,
{4}3,4,3,3/4,
{4}5,4,5,4/5,
{4}5/6,3/4,4/5,3/6,
{4}2,1,2,1/2,
{4}7,8,7,7/8,
{4}1,8,1,1/8,
{1}1^4[8:3]/8^5[8:3],
{4}3h[2:1],,4,3/4,
{4}6h[2:1],,5,5/6,
{4}3h[2:1],,4,3/4,
{4}5/6,5-2[16:5]/6-1[16:5],,,
{4}2h[4:1],1,2,1/2,
{4}7h[4:1],8,7,7/8,
{4}2h[4:1],1,2,1/2,
{4}7/8,7-4[16:5]/8-3[16:5],,,
{2}3h[2:1],4h[2:1],
{2}5h[2:1],6,
{2}7h[2:1],8h[2:1],
{2}1h[2:1],2,
{4}2,1,7,8,
{1}1^4[8:3]/8^5[8:3],
{4}4/5,3/6,2b/7b,,
{4}7/8,1/2,7/8,1/6,
{4}1/2,7/8,1/2,3/8,
{8}1,1,1,,8,8,8,,
{4}1/8,2/7,3b/6b,,
{4}3/4,5/6,3/4,2/5,
{4}5/6,3/4,5/6,4/7,
{8}5,5,5,,4,4,4,,
{4}4/5,3/6,2b/7b,,
{4}7h[4:1]/8h[4:1],,7/8,1/8,
{4}1h[4:1]/2h[4:1],,1/2,1/8,
{4}2h[4:1]/7h[4:1],,2/7,1/8,
{8}8,8,8,,1,1,1,,
{1}2^7[8:3],
{4}7,8,7,7/8,
{4}2,1,2,1/2,
{4}8,1,8,1/8,
{4}1/8,2/7,3/6,4/5,
{8}4^1[8:3]/5^8[8:3],,,,,,
E

EXPERT

(110.0){1},
{4}6h[1:1],5,,5,
{4}3h[1:1],4,,4,
{4}6h[4:3],5,,5,
{16}1/8,,,,2/7,,,2/7,,,,,4/5,,,,
{4}6,5/7,3,2/4,
{4}6,5/7,1/8,2/7,
{4}3,2/4,6,5/7,
{1}8<1[2:1],
{4}2/7,4qq3[8:3]/5pp6[8:3],,,
{4},4/5,8,4/7,
{4}3h[4:1],4,6h[4:1],5,
{4}2/5,1w5[4:1],,,
{8}6,6,5,,3/5,,6/4^1[4:1],,
{8},,,,1,1,2/5,,
{4}6h[4:1],5,3h[4:1],4,
{4}4/7,1^4[4:1]/8^5[4:1],,,
{4}6h[2:1],5,3h[2:1],4,
{4}6h[2:1],5,3h[2:1],4,
{4}6,7,8,1>8[2:1],
{4},,,2/7,
{8}1/8,1/8,2/7,,3/6,,4/5,,
{4}6h[4:1],8h[4:1],1h[4:1],3,
{4}4/5,3/6,1/8,2b/7b,
{16}7/8,,,,1/6,,,1/6,,,,,5,,4,,
{8}3qq6[8:3],,,,,,,7,
{4}7,5/6,7/8,1/2,
{4}4/3>6[8:3],,,8b,
{16}1/2,,,,3/8,,,3/8,,,,,4,,5,,
{8}6pp3[8:3],,,,,,,2,
{4}2,3/4,1/2,7/8,
{4}5/6<3[8:3],,,1b,
{8}3,3,4/2q6[4:1],,,,8,,
{8}6,6,5/7p3[4:1],,,,1,,
{8}6,6,7/5p1[4:1],,,,8,,
{4}3,2/4,1/2,8<1[2:1],
{4},,,8b,
{8}3,3,2/4,,6,6,5/7,,
{8}3,3,2/4,,1/8,,2/7,,
{8}6,6,5/7,,3,3,2/4,,
{4}6h[4:1],8h[4:1],1h[4:1],3<1[1:1],{1},,
E

MASTER

(110.0){1},
{8}4/6V82[4:1],3/5,2-6[4:1],,,,4,,
{8}5/3V17[4:1],4/6,7-3[4:1],,,,5,,
{8}4/6,5/7,8pp2[8:1]*qq6[8:1],,,,1/7,,
{16}2/4,,,,5/7,,,1/8,,,4/5,,6,,4,,
{8}5/3^8[8:1],4/6pp3[4:1],,,,1,2,3,
{8}4/6^1[8:1],5/3qq6[4:1],,,,8,7,6,
{8}5/3^8[8:1],4/6pp3[4:1],,,,1,2,3,
{8}4/6,7,3/5,2,4/6,7,3/5<4[8:3],2,
{4}4,5,4qq3[4:1]/5pp6[4:1],,
{8},,4/5,4/5,7h[4:1]/3^6[8:1],,,,
{8}3/6^3[8:1],7,1,,6/3^6[8:1],2,8,,
{4}8^5[8:1],4^1[8:1],8w4[8:1],,
{16}3/6,,7,,8,,1,,2/4,,,5/7,,,1/8,,
{8}2,3,4/5,4/5,6h[4:1]/2^7[8:1],,,,
{8}2/7^2[8:1],6,5,,7/2^7[8:1],3,4,,
{4}4^1[8:1]/5^8[8:1],,2/7,4/5,
{4}3^8[4:1],4,5^2[4:1],6,
{4}7^4[4:1],8,1^6[4:1],2,
{4}3^8[4:1],4,5,5<4[8:5],
{8},,,,,,4/5,3/6,
{8}1/8,7,5/6,4,3/5,2,1>5[4:1],1,
{4}5<1[4:1],1>5[4:1],5,8,
{4}3-8[8:1]/4-7[8:1],,1/6,8b,
{16}2/7>4[4:1],,,,4,,,1,,,1/8,,2/7,,4/5,,
{16}6/3<8[4:1],,,,8,,,4,,,1/8,,3/6h[4:1],,8,,
{8}5h[4:1],8,4h[4:1],1,3h[4:1],1,5,1,
{16}7>4[4:1],,,,4,,,1b,,,3/6,,1,,8,,
{16}7/2<5[4:1],,,,5,,,8,,,1/8,,2/7,,4/5,,
{16}3/6>1[4:1],,,,1,,,5,,,4/5,,6/3h[4:1],,1,,
{8}4h[4:1],1,5h[4:1],8,6h[4:1],8,4,8,
{16}2<5[4:1],,,,5,,,8b,,,4/5,,2/7,,,,
{24}1/6^3[8:1],,,3,,,2,,,1,,,5/2q6[8:1],,5,,,7,,,,8,,,
{24}8/3^6[8:1],,,6,,,7,,,8,,,4/7p3[8:1],,4,,,2,,,,1,,,
{24}1/6^3[8:1],,,3,,,2,,,1,,,5/2-6[8:1],,5,,,7,,,,8,,,
{8}1/8,7,4/6,3,2/1^6[8:1],3,4<1[8:3]*pp2[8:3],,
{8},,,,4/5,3/6,2/7,,
{8}4/6^1[8:1],5/3qq6[4:1],,,,8,7,6,
{8}5/3^8[8:1],4/6pp3[4:1],,,,1,2,3,
{8}4/6^1[8:1],5/3qq6[4:1],,,,8,7,6,
{8}3/5,2,4/6,7,3/5,1,6/4>5[1:1],8,
{1}5,,
E

Re:MASTER




名前:
コメント:

タグ:

+ タグ編集
  • タグ:
最終更新:2022年06月18日 15:41