アットウィキロゴ

only my railgun

アーティスト

BPM EASY BASIC ADVANCED EXPERT MASTER Re:MASTER
143 2 4 6 10 11 12

EXPERT MASTER Re:MASTER
譜面制作者

EASY


BASIC

(143.0){1},,,,
{2}1,1,
{2}2,2,
{2}3,3,
{1}4b/5b,
{2}5/6,5/6,
{2}3/4,3/4,
{4}2,2,2,,
{4}1,1,1/8,,
{2}1/2,1/2,
{2}7/8,7/8,
{4}6,6,6,,
{4}5,5,5,,
{2}4/5,4/5,
{1}4-1[4:3]/5-8[4:3],,,
{1}1h[2:1],
{1}2h[2:1],
{1}3h[2:1],
{1}4h[2:1],
{4}5,5,5,,
{4}6,6,6,,
{4}7,7,7,,
{1}1h[2:1]/8h[2:1],
{4}8,8,8,,
{4}7,7,7/8,,
{4}6,6,6,,
{4}5,4,5,,
{4}4,4,4,,
{4}3,3,3/4,,
{4}2,2,2,,
{1}1h[2:1]/8h[2:1],
{1}2b/7b,
{2}3/4,5/6,
{2}3/4,5/6,
{4}7,7,7,,
{4}8,8,1/8,,
{2}7/8,1/2,
{2}7/8,5/6,
{4}5,5,5,,
{4}4,5,4,,
{2}5/6,3/4,
{4}5/6,,3,3,
{4}2,2,2,,
{4}1,1,1/8,,
{2}1/2,7/8,
{4}1/2,,3,3,
{4}3,,4,4,
{2}4/5,4/5,
{2}5/6,3/4,
{1}4h[2:3]/5h[2:3],
{8},,,,,,,3/6,
E

ADVANCED

(143.0){4}5,5,4,4,
{4}3,3,3/4,,
{4}4,4,5,5,
{4}6,6,5/6,,
{4}6,5,6,5,
{4}3,4,3,4,
{4}6,5,4,3,
{1}4-8[2:1],
{4}7,7/8,2,1/2,
{4}7,7/8,1/6,2/5,
{4}3,3/4,6,5/6,
{4}4,3,2/5,,
{4}3,3/4,6,5/6,
{4}3,3/4,2/5,1/6,
{2}7h[2:1],8h[2:1],
{2}1h[2:1],2h[2:1],
{4}1,1,8,8,
{1}2h[2:1]/7h[2:1],
{1}1-4[2:1]/8-5[2:1],
{1}3h[2:1]/6h[2:1],
{1}6-3[2:1],
{1}2-7[2:1],
{2}6h[2:1],5h[2:1],
{4}4h[2:1],,3,3/4,
{2}2h[2:1],1,
{2}7h[2:1],8,
{4}1,1,8,8,
{4}1,8,1b/8b,,
{4}6,5,6,5/6,
{4}3,4,3,3/4,
{4}2,1,2,1/2,
{4}7,8,1/8,,
{4}7,8,1,1/2,
{4}3,4,5,5/6,
{4}7,8,2,1,
{4}1/8,2/7,3/6,4/5,
{1}3b/6b,
{4}7,7/8,2,1/2,
{4}7,7/8,1/6,2/5,
{4}3,3/4,6,5/6,
{4}4,3,2/5,,
{4}2,1/2,7,7/8,
{4}2,1/2,3/8,4/7,
{2}6h[2:1],5h[2:1],
{4}4,3,2b/5b,,
{4}1/2,1/2,7/8,7/8,
{4}1/2,7/8,1/6,2/5,
{4}3,3/4,6,5/6,
{4}4,3,2/5,,
{4}1/2,1/2,7/8,7/8,
{4}1/2,7/8,1/6,2/5,
{2}3h[2:1],4h[2:1],
{4}5,5/6,4/7,3/8,
{4}2,1/2,7,7/8,
{1}1-4[2:1]/8-5[2:1],
{8}3h[8:7]/6h[8:7],,,,,,,,
E

EXPERT

(143.0){4}6h[4:7],5,5,5,
{4}5,5,5,5,
{4}3h[4:7],4,4,4,
{4}4,4,4,4,
{4}6h[4:3],5,4,5,
{4}3h[4:3],4,5,4,
{4}6h[4:3],5,4,3,
{4}2bV41[8:3]/7bV58[8:3],,,2b/7b,
{16}7h[16:3],,,8,,,1/6,,2h[16:3],,,1,,,3/8,,
{16}7h[16:3],,,8,,,1/6,,2,,3,,4/5,,,,
{2}6/5-1[8:1],3/4-8[8:1],
{16}5/6,,,3/4,,,2b/7b,,,,,,4/5,,,,
{16}3h[16:3],,,4,,,2/5,,6h[16:3],,,5,,,4/7,,
{16}3h[16:3],,,4,,,2/5,,6,,7,,1/8,,,,
{8}5/6^1[8:1],,,,4,3,1/2,,
{4}2/7h[4:1],5h[4:1],4h[4:1],2,
{2}8h[4:1]/7-4[8:1],1h[4:1]/2-5[8:1],
{1}7<3[2:1]/8p2[2:1],
{2}1h[4:1]/8h[4:1],3b/6b,
{1}3>6[2:1],
{2}6/5h[2:1],4h[2:1],
{4}3h[2:1],2,2,,
{2}3/4h[2:1],5h[2:1],
{4}6h[2:1],7,8,1/6,
{8}5/2-5[16:3],,,,6,6,5,,
{8}4/7-4[16:3],,,,3,3,4,,
{4}4/7h[4:1],6,5/2h[4:1],3,
{2}4-1[8:1]/5-8[8:1],2b/7b,
{8}7,7,5,,3h[4:1],,4,,
{8}7,7,5>1[16:5],,,,,,
{4}2,5/6,7,3/4,
{8}2,,4,4,6h[4:1],,8,,
{8}5,4,3,,2/5,,5/6,,
{8}4,5,6<2[16:5],,,,,,
{8}3,4,2,,6,5,7,,
{2}1-4[8:1]/8-5[8:1],3h[4:1]/6h[4:1],
{16}7/8,,,1/2,,,3b/6b,,,,,,,,,,
{16}7h[16:3],,,8,,,3/5,,2h[16:3],,,1,,,4/6,,
{16}7h[16:3],,,8,,,4/5,,3,,2,,1/8,,,,
{2}3-8[8:1]/7-4[8:1],1-5[8:1]/6-8[8:1],
{16}5/6,,,3/4,,,2b/7b,,,,,,4/5,,,,
{16}3h[16:3],,,4,,,1/7,,6h[16:3],,,5,,,2/8,,
{16}3h[16:3],,,4,,,1/8,,7,,6,,4/5,,,,
{8}3-8[8:1]/7-4[8:1],,,,6,6,4/7,,
{16}1/2,,,7/8,,,3b/6b,,,,,,4/5,,,,
{16}4/2h[16:3],,,1,,,4/6,,5/7h[16:3],,,8,,,3/5,,
{16}4/2h[16:3],,,1,,,4/5,,6,,7,,1/8,,,,
{2}2-5[8:1]/6-1[8:1],3-1[8:1]/8-4[8:1],
{16}2/4,,,5/7,,,3b/6b,,,,,,4/5,,,,
{16}5/7h[16:3],,,8,,,3/5,,4/2h[16:3],,,1,,,4/6,,
{16}5/7h[16:3],,,8,,,4/5,,3,,2,,1/8,,,,
{8}3-8[8:1]/7-4[8:1],,,,6,6,3/7,,
{8}2-5[8:1]/6-1[8:1],,,,3,3,2/6,,
{8}7,5,6,,2,4,3,,
{1}5q3[2:1]/6<2[2:1],
{16}4h[4:1]/5h[4:1],,,,,,,,2/4,,,5/7,,,2b/7b,
E

MASTER

(143.0){8}6h[2:3]/5-3[8:1],,,,5,5,5,,
{4}5-2[8:1],,5,4/5,
{8}3h[2:3]/4-6[8:1],,,,4,4,4,,
{4}4-7[8:1],,4,4/5,
{2}6h[2:1]/5-3[8:1],5-2[8:1],
{2}3h[2:1]/4-6[8:1],4-7[8:1],
{8}4/5,4/5,6/3>6[8:3],,5,,,,
{8}2/7,,,,,3/8,3/8,1-6[8:1]/2-5[8:1],
{8}1/2,,,7-4[8:1]/8-3[8:1],7/8,,,1-5[8:1]/8-4[8:1],
{8}1/8,,,6,5/7,3,2/4,6,
{4}1/7-4[8:1],2-6[8:1],8-4[8:1],1,
{16}1/8,,,5/6,,,3/8,,,,1/6,,1/6,,7-4[8:1]/8-3[8:1],,
{8}7/8,,,1-6[8:1]/2-5[8:1],1/2,,,1-5[8:1]/8-4[8:1],
{8}1/8,,,3,4,5,6<3[8:3],6,
{8}4,,,,3,2/4,6,5/7,
{4}4-1[8:1],8-5[8:1],2-7[8:1],6<3[4:1],
{8}4,,,1-5[8:1],1,8,,8<1[8:5],
{8}8,1,,,,,,,
{4}1h[4:1],5s1[8:3],,,
{1}4>5[2:1],
{8}6<3[2:1],,,,4,4,4,,
{8}3>6[2:1],,,,5,5,5,,
{8}6<3[2:1],,,,4,4,4,,
{8}3-5[8:1],3,7-4[8:1],7,1-5[8:1],,8,,
{8}6/5^2[8:1],,8h[4:1],,1,8,2,,
{8}3/4^7[8:1],,1h[4:1],,8,1,7,,
{4}6/5-2[8:1],7-4[8:1],1-5[8:1],6^3[4:1],
{8}2,,,2/7,2b/7b,,4/5,,
{16}4/7,,6,5,,3,4<8[4:1],,,,1,,2,,3,,
{16}7h[4:1],,,,5p1[8:1],,8,8h[16:7],,,,,,,1,8,
{16}1,,2,,3,,4/7,,6,5,,4/6,,,1,,
{16}2/5,,3,4,,,3/5,,2/6,,,,4/5,,,,
{16}2/5,,3,4,,6,5>1[4:1],,,,8,,7,,6,,
{16}2h[4:1],,,,4q8[8:1],,1,1h[16:5],,,,,8,,8,,
{8}1h[4:1],,5-8[8:1],5,2-7[8:1],2,6^3[8:1],6,
{8}1,,1>8[8:3],1,8,,,,
{16}1/8,,,4/5,,,2/7,,,,1/8,,2/5,,4-1[8:1]/7-3[8:1],,
{8}4/7,,,1-3[8:1]/4-8[8:1],1/4,,,5-1[8:1]/7-3[8:1],
{8}5/7,,,2,1/3,7,6/8,4,
{4}3-6[8:1],7-2[8:1],4-8[8:1],8,
{16}1/7,,,3/4,,,1/6,,,,1/8,,4/7,,2-6[8:1]/5-8[8:1],,
{8}2/5,,,5-1[8:1]/8-6[8:1],5/8,,,2-6[8:1]/4-8[8:1],
{8}2/4,,,7,5,4,3>6[8:3],3,
{8}5,,,,5/7,6,2/4,3,
{16}4/7,,,2/5,,,3/6,,,,1/8,,4/7,,2-6[8:1]/5-8[8:1],,
{8}2/5,,,5-1[8:1]/8-6[8:1],5/8,,,2-6[8:1]/4-8[8:1],
{8}2/4,,,7,6/8,2,1/3,5,
{4}6-3[8:1],2-7[8:1],5-1[8:1],1,
{16}2/8,,,5/6,,,3/8,,,,1/8,,2/5,,4-1[8:1]/7-3[8:1],,
{8}4/7,,,1-3[8:1]/4-8[8:1],1/4,,,5-1[8:1]/7-3[8:1],
{8}5/7,,,2,4,5,6<3[8:3],6,
{8}4,,,,1,1,7,7,
{4}4-1[8:1],8-5[8:1],2-7[8:1],6<3[4:1],
{8}4,,,1-5[8:1],1,8,,8<1[8:5],
{8}8,1,,,,,,,
{16}4,5,4,5,4,5,4,,2/8,,,1/6,,,3b/7b,
E

Re:MASTER

(143.0){16}4/5,,3,,3,,5,4,,,6,,6,,4,5,
{16},,3,,3,,5,4,,,6,,6,,4,5,
{16},,2,,2,,4,3,,,7,,7,,5,6,
{16},,2,,2,,4,3,,,7,,7,,5,6,
{16},,1,,2,,3,4,3,,8,,7,,6,5,
{16}6,,1,,2,,3,4,3,,8,,2/7,,3/6,,
{16}4,5,4,5,3,6,3,6,2,7,1,8,{641}1,,,,,,,,,,,,,,,,,,,,{639}2,,,,,,,,,,,,,,,,,,,,3,,,,,,,,,,,,,,,,,,,,{641}4,,,,,,,,,,,,,,,,,,,,5,,,,,,,,,,,,,,,,,,,,{639}6,,,,,,,,,,,,,,,,,,,,7,,,,,,,,,,,,,,,,,,,,{641}8,,,,,,,,,,,,,,,,,,,,
{8}1/5,,,,,5/6,3/4,2/7,
{16}7-4[8:1],,8,7,,,2,,2-5[8:1],,1,2,,,7,,
{16}7^2[8:1],,8,7,,,3,,2/4,,6,,5/7^2[4:1],,3,,
{4}2^5[4:1],5^8[4:1],8^3[4:1],3,
{16}1,,,4/7,,,1/8,,,,3/4,,5/6,,2/7,,
{16}2-5[8:1],,1,2,,,7,,7-4[8:1],,8,7,,,2,,
{16}2^7[8:1],,1,2,,,6,,5/7,,3,,2-5[8:1]/7-4[8:1],,1/8,,
{8}2/7,,3/6,,8/1-5[8:1],3,1/8-6[8:1],6,
{4}8/1^4[8:1],1^6[8:1],1w5[8:1],1,
{16}6,,7,5,,,3,,3,,2,4,,,2/7,,
{16}7/2>7[2:1],,1/8,1/8,,,,,,,,,,,,,
{16}3,,1,,8,,6,,4/5,,4/5,,5s1[8:5],4,6,3,
{4},,2-6[8:1],2,
{8}7^4[8:1],,,,6,5,4,3,
{8}2^5[8:1],,,,3,4,5,6,
{8}7^2[8:1],,,,3,4,5,7,
{8}5,4,2,4,2b/7b,,4b/5b,,
{8}3/7-3[8:1],,1,,2/4,3,2/5,3,
{8}6/2-6[8:1],,8,,5/7,6,4/7,6,
{4}4/8-4[8:1],1-5[8:1],6-2[8:1],3>6[4:1],
{8}8h[4:1],,,8,2/7,,4/5,,
{16}1/8,,7,5,,2,4,,4,,8,,6,,5,,
{16}4h[4:1],,,,8,,2/7,2/7,,,4,,3/6,,1,8,
{16}1,,7,,6,,5,,1,8,,2/5,,,4/6,,
{16}3/5,,,3/8,,,1/2,,4/3^6[8:1],,,,,,,,
{16}1/8,,2,4,,7,5,,5,,1,,3,,4,,
{16}5h[4:1],,,,1,,2/7,2/7,,,3/5,,4,,8,,
{16}8-4[8:1],,,,1,,2,,3,,3/6,3/6,,,4/5,,
{8}4/5,,6pp2[8:3],4,3,,,,
{16}3b/7b,,,4b/8b,,,2b/6b,,,,7/8,,1/2,,3/4,,
{16}6-1[8:1],,5,6,,,3,,3-8[8:1],,4,3,,,6,,
{16}6^1[8:1],,5,6,,,3,,2/4,,6,,2/8p4[4:1],,3,,
{4}4p8[4:1],8<4[4:1],4>8[4:1],8,
{16}4,,,5/7,,,1/8,,,,1/2,,7/8,,5/6,,
{16}3-8[8:1],,4,3,,,6,,6-1[8:1],,5,6,,,3,,
{16}3^8[8:1],,4,3,,,6,,5/7,,3,,2-5[8:1]/7-4[8:1],,1/8,,
{8}2/7,,3/6,,1/3,2,6/8,7,
{16}3b/5b,,,1b/7b,,,4b/8b,,,,3/4,,1/8,,5/6,,
{16}5-1[8:1],,4,5,,,2,,2-6[8:1],,1,2,,,7,,
{16}7^2[8:1],,8,7,,,4,,3/6,,5,,7/1q5[4:1],,6,,
{4}5q1[4:1],1>5[4:1],5<1[4:1],1,
{16}5,,,2/4,,,1/8,,,,5/6,,1/8,,3/4,,
{16}4-8[8:1],,5,4,,,7,,7-3[8:1],,8,7,,,2,,
{16}2^7[8:1],,1,2,,,5,,3/6,,4,,2-5[8:1]/7-4[8:1],,1/8,,
{8}2/7,,2/7,,1/8-4[8:1],6,8/1-3[8:1],3,
{4}1/8^5[8:1],8^3[8:1],8w4[8:1],8,
{16}1,,3,4,,,8,,8,,6,5,,,2/7,,
{16}2/7<2[2:1],,1/8,1/8,,,,,,,,,,,,,
{16}1,8,2,7,{641}1,,,,,,,,,,,,,,,,,,,,{639}2,,,,,,,,,,,,,,,,,,,,3,,,,,,,,,,,,,,,,,,,,{641}4,,,,,,,,,,,,,,,,,,,,5,,,,,,,,,,,,,,,,,,,,{639}6,,,,,,,,,,,,,,,,,,,,7,,,,,,,,,,,,,,,,,,,,{641}8,,,,,,,,,,,,,,,,,,,,{16}1b/5b,,,3b/7b,,,2b/6b,
E



名前:
コメント:

タグ:

+ タグ編集
  • タグ:
最終更新:2022年06月18日 15:48