| アーティスト |
SC-3000(シーさん)/CV.相沢 舞、SG-1000(せん)/CV.芹澤 優、SG-1000Ⅱ(せんつー)/CV.大空直美、ゲームギア(ムギ)/CV.田中美海、ロボピッチャ(ぴっちゃん)/CV.もものはるな「Hi☆sCoool! セハガール」 [アニメPV] |
EASY
BASIC
(162.0){1},,,,
{2}1,1,
{2}2,2,
{2}3,3,
{1}4/5,
{1}5h[2:1],
{1}6h[2:1],
{2}5,6,
{1}5h[2:1]/6h[2:1],
{1}4h[2:1],
{1}3h[2:1],
{2}4,3,
{1}3h[1:1]/4h[1:1],,
{4}3,3,3,,
{4}2,2,2,,
{4}1,1,8,8,
{1}1h[2:1],
{4}7,7,7,,
{4}6,6,6,,
{4}5,5,4,4,
{1}5h[1:1],,
{1}6-2[4:3],,
{1}3-7[4:3],,
{2}7/8,1/8,
{1}1/2,
{2}2,3,
{1}4h[1:1]/5h[1:1],,
{2}4,4,
{2}5,5,
{2}4,4/5,
{2}5,4/5,
{2}4,5,
{2}4,3/5,
{2}5,4/6,
{2}4,3,
{2}2,1/8,
{1}2h[2:1]/7h[2:1],
{4}1,1,1,,
{2}1/2,1/2,
{4}8,8,8,,
{2}7/8,7/8,
{4}6,6,6,,
{2}5/6,5/6,
{4}4,4,4,,
{2}3/4,3/4,
{1}5h[2:1],
{2}4/5,3/6,
{1}4h[2:1],
{2}4/5,3/6,
{4}6,6,6,,
{4}7,7,7,,
{4}8,8,8,,
{4}1,1,1,,
{2}1/2,1/2,
{2}7/8,7/8,
{1}1h[2:1]/8h[2:1],
{2}1/8,2b/7b,
{1}3-7[4:3],,
{1}6-2[4:3],,
{2}1/2,1/8,
{1}7/8,
{2}7,6,
{1}4-1[4:3]/5-8[4:3],,
{2}2,3,
{1}4h[2:1],
{4}5,5,5,,
{4}6,6,6,,
{2}7/8,7/8,
{4}1/8,1/8,
E
ADVANCED
(162.0){1},,,,
{4}7,7,8,8,
{4}1,1,2,2,
{4}3h[4:1],{865}4,,,,,,,,,,,,,,,,,,,,,,,,,,,,,,,,,,,,,,,,,,,,,,,,,,,,,,,,,,,,,,,,,,,,,,,,,,,,,,,,,,,,,,,,,,,,,,,,,,,,,,,,,,,,,,,,,,,,,,,,,,,,,,,,,,,,,,,,,,,,,,,,,,,,,,,,,,,,,,,,,,,,,,,,,,,,,,,,,,,,,,,,,,,,,,,,,,,,,,,,,,,,,,,,,,,,,,{673}6h[673:170],,,,,,,,,,,,,,,,,,,,,,,,,,,,,,,,,,,,,,,,,,,,,,,,,,,,,,,,,,,,,,,,,,,,,,,,,,,,,,,,,,,,,,,,,,,,,,,,,,,,,,,,,,,,,,,,,,,,,,,,,,,,,,,,,,,,,,,,,,,,,,,,,,,,,,,,,,,,,,,,,,,,,,,,,,{8}5,,
{8}4,5,4,5,,,,,
{4}2,2,1,1,
{4}8,8,1/7,,
{4}2,1,8,7,
{4}1/8,2/7,3/6,,
{1}2^7[8:3],
{1}7-3[8:3],
{1}3^6[8:3],
{4}6,5,4,3,
{4}4,5,3/6,,
{4}3,4,2/5,,
{4}6,5,4/7,,
{4}1,2,3,4^1[2:1]/5^8[2:1],{1},
{4}2,3,4,5/6,
{4}7,6,5,4,
{4}3h[4:1],4,6h[4:1],5p2[1:1],{1},
{2},1/8,
{4}7,6,5,3/4,
{4}2,3,4,5/6,
{4}7,4/5,2,4^1[2:1]/5^8[2:1],
{8},,,,,,,7/8,
{8}7/8,,,1/2,1/2,,,1/8,
{1}1-4[4:1]/8-5[4:1],
{4}6h[4:1],5,3h[4:1],4q7[1:1],{1},,
{4}3,3h[2:1],,4,
{4}6,6h[2:1],,5,
{8}3,,2,,1,1,1,,
{8}6,,7,,8,8,8,,
{8}2,,3,,4,5,4,,
{4}6,7,8,1/2,
{8}3,,2,,1,1,1,,
{8}6,,7,,8,8,8,,
{4}1h[2:1],,8,2/7,
{4}3,4,5,6,
{8}7,,6,,5,4,5,,
{1}3-7[8:3],
{8}2,,3,,4,5,4,,
{4},3/6,1/8,,
{8}6,,7,,8,1,8,,
{4},2/7,4/5,,
{1}6-2[8:3],
{4}1/2,7/8,1/8,,
{8}3,,2,,1,8,1,,
{4},3/6,1/8,,
{4}8h[2:1],,1,2/7,
{4}5/6,3/4,4/5,,
{4}2,5,4,7,
{8}3,4,3,,6,5,6,,
{4}4/5,3/6,2/7,,
{8}3/4,,5/6,,4,5,4,5,
{8}4,,3,,2,1,2,,
{8}5,,6,,7,8,7,,
{1}1-5[2:1],
{4}4/6,3/7,2/8,1b/5b,
{8}2,,3,,4,5,4,,
{8}7,,6,,5,4,5,,
{4}3,2/4,6,5/7,
{8}4,,5,,2/7,,,1/2,
{8}1/2,,,7/8,7/8,,,1/8,
{1}1-4[4:1]/8-5[4:1],
{8}3/4,3/4,,,5/6,5/6,,,
{8}2,,1/2,,3,4,3,,
{8}7,,7/8,,6,5,6,,
{4}3,2,1,8,
{4}7,6,5,4,
{8}3,,3/4,,2,1,2,,
{8}6,,5/6,,7,8,7,,
{4}3,1/2,6,7/8,
{8}1,8,1,8b,
E
EXPERT
(162.0){8},,4/5,,,3,4,,
{8},,4/5,,,6,5,,
{8},,4/5,,,3,4,,
{8}2,7,2,7,,,1/8,,
{8}2h[4:1],,4,,6,5,6,,
{8}7h[4:1],,5,,3,4,3,,
{4}6h[4:1],1,3h[4:1],8,
{8}2,1,8,7,,1b,1b,,
{4}7h[2:1],,5,4,
{4}2h[2:1],,4,5,
{4}1/8,3/6,2/7,4/5,
{1}1^4[4:1]/8^5[4:1],
{1}2h[2:1]/7^4[4:1],
{1}6h[2:1]/3^8[4:1],
{4}7h[4:1],5h[4:1],4h[4:1],2h[4:1],
{1}8<3[2:1],
{8}4,5,4,5,4,5,4,5,
{8}3,3h[8:5],,7^5[8:1],,,,,
{8}7,7h[8:5],,2^4[8:1],2,,,,
{4}6-1[8:1],4,3-8[8:1],5,
{1}6<3[8:3],
{4}2h[4:3],3,4,5,
{4}7h[4:3],6,5,4,
{4}3h[4:1],4,7h[4:1],6,
{1}1>8[4:3],
{4},,,3/4,
{1}3^8[4:1]/4^7[4:1],
{1}5^2[4:1]/6^1[4:1],
{8}1,2,3,4,5h[4:1],,6h[4:1],,
{8}7^2[4:1],,,,,,,1,
{8}1,8b,8b,2,2,7b,7b,3,
{8}3-8[8:1],,6b,,,,7,8,
{4}7^4[8:1],,1h[4:1],2h[4:1],
{1}3q6[2:1],
{8},,5/6,,,4,5,,
{8},,3/4,,,5,4,,
{8},,5/6,,,4,5,,
{8}4,,6,,1,8,2/7,,
{8}5,,3,,8,1,2/7,,
{8}3/4,,5/6,,1,8,1,,
{4}2/8,1/7,1-4[8:1]/8-5[8:1],,
{8}3,4,3,,6,5,6,,
{8}2,1,2,,7,8,7,,
{4}1h[4:1]/8h[4:1],,4/5,2/7,
{1}1p8[2:1],
{8}5,,4,,8,1,8,,
{2}2-4[8:1]/8-6[8:1],2-5[8:1]/8-5[8:1],
{8}2,1,2,,3,4,3,,
{4},5/6,7/8,,
{2}8^5[8:1],4^1[8:1],
{4}7,2/6,4/8,,
{4}1b/8h[4:1],1-4[8:1],7,,
{2}2-5[8:1]/7-4[8:1],2/7,
{4}1/3,6/8,1-5[8:1]/8-4[8:1],,
{4},1/8,2/7,,
{2}1-6[8:1]/2-5[8:1],7-4[8:1]/8-3[8:1],
{4}5,4,2/7,,
{8}3h[4:1],,4,,2,1,2/8,,
{8}6h[4:1],,5,,7,8,1/7,,
{8}6h[4:1],,5h[4:1],,4,3,2/4,,
{2}4h[4:1]/5h[4:1],2-6[8:1]/7-3[8:1],
{4}1/8,8/1s5[4:1],,,
{4}1/7,2-5[8:1]/8-5[8:1],,,
{4}3^8[4:1],8^5[4:1],,,
{4}1b/2b,7b/8b,5b/6b,3b/4b,
{1}3^8[4:1]/4^7[4:1],
{1}5^2[4:1]/6^1[4:1],
{8}1,2,3,4,5h[4:1],,6h[4:1],,
{8}7^2[4:1],,,,,,,1,
{8}1,8b,8b,2,2,7b,7b,3,
{8}3-8[8:1],,6b,,,,7,8,
{4}7^4[8:1],,1h[4:1],2h[4:1],
{1}3q6[4:3],
{8},,,,,7,8,1,
{4}2h[4:1],5,7h[4:1],4,
{1}2q5[2:1],
{8}7h[4:1],,5,,3,4,3/5,,
{8}2h[4:1],,4,,6,5,4/6,,
{4}3h[4:1],8,6h[4:1],1,
{8}7b,8b,1b,2b,
E
MASTER
(162.0){8}4,5,3,6,2-6[8:1],7,7,,
{8}5,4,6,3,7-3[8:1],2,2,,
{8}3,4,2,5,1-5[8:1],6,6,,
{8}7/8,1/6,2/5,3/4,,7/8,1b/6b,,
{8}6,5,7,4,8-4[8:1],3,3,,
{8}2,3,4,5,6^1[8:1],2,2,,
{8}7,6,5,4,3^8[8:1],7,7,,
{8}5/6,3/4,1/2,3b/8b,,,,,
{4}2^5[8:1],7^4[8:1],3p6[8:1],8,
{8}7,4/5,,2,4-1[8:1]/5-8[8:1],,,,
{8}2q6[8:1],2,7p3[8:1],7,2,,4>5[2:1]/5<4[2:1],,
{8},,,,,,3,2,
{8}1^4[8:1],,6,,5/7,8,7,6,
{8}5^8[8:1],,2,,1/3,,4,3,
{4}2-6[8:1],8b,7-3[8:1],1b,
{8}2,4,5,7,3,1,8,6,
{8}4,8,2,6,1-4[8:1]/5-8[8:1],,,,
{16}7,,6,,4/5,,3,4,3,,2,,1/3,,,,
{16}2,,3,,4/5,,6,5,6,,7,,6/8,,,,
{16}7,,6,,4/5,,3,4,3,,2,,1/3,,,,
{4}4-1[8:1],5-8[8:1],2-5[8:1],7p4[2:1],
{8}2,,,3,3-8[8:1],,7,,
{8}5/6,4/7,,3/4,2/5,,2,3,
{4}4^7[4:1],7^2[4:1],2^5[4:1],5-1[8:1],
{8}8,,2/7,,3,4,2/5,,
{8}6,5,4/7,,1/8,,4-1[8:1]/5-8[8:1],,
{8},,2>6[8:1],1,8,,7<3[8:1],8,
{8}1,,2,7,1-5[8:1]/8-4[8:1],,,,
{8}3,6,2,7,1s5[4:1],,5<4[2:1],,
{8},,,,5,,1/8,2-5[8:1],
{8}7-4[8:1],2b,7b,1-5[8:1],8-4[8:1],1b,8b,3>6[8:3],
{8}3p6[4:1],,3b,,,,5,4,
{4}3-1[8:1],8-4[8:1],1-5[8:1],6-8[8:1],
{8}1-5[8:1],,6h[2:1],,,5,5,,
{8}1/8-4[8:1],,3h[2:1],,,4,4,,
{8}1/2-6[8:1],,7h[2:1],,,6,6,,
{8}8/7-3[8:1],,2h[2:1],,,3,3,,
{8}4,5,6,7,8-4[8:1],4-8[8:1],,,
{8}5,4,3,2,1-5[8:1],2/8,,,
{8}7,5,4,2,8,1,7/2-4[8:1],,
{4}2/1-5[8:1],1/8-4[8:1],8/7-5[8:1],1b/7,
{8}2,4,5,7,8-4[8:1],1/7,,,
{8}3,1,8,6,4,5,3/6<3[8:3],,
{4},,4-1[8:1]/5-8[8:1],4/5,
{8}2,4,6,8,7,5,3,1,
{4}2-4[8:1]/8-6[8:1],2-5[8:1]/8-5[8:1],2/8,1/5,
{8}4/8,3/7,2/6,5/1-5[8:1],,8,8,,
{4}1^6[4:1],6^3[4:1],3p6[8:1],,
{4}1-3[8:1]/7-5[8:1],1-4[8:1]/7-4[8:1],1b/7b,,
{8}3,6,2,7,1-5[8:1],2/8,,,
{8}4/5,,1-5[8:1]/8-4[8:1],2/7,,,2/7,,
{8}2,1,8,7-3[8:1],,1,2^4[8:1],,
{4}2/8^6[8:1],8/1s5[4:1],1,,
{8}1/2,3,7/8,6,4-8[8:1]/5-1[8:1],4/5,,,
{4}2/7,1^4[8:1]/8^5[8:1],1b/8b,,
{8}3h[8:3]/6h[8:3],,,,2-6[8:1],7-3[8:1],2,7,
{8}5,4,3v1[8:1]/7v5[8:1],,3/7,,4/8,,
{8}2,1/2,7,7/8,1,1/8,2/7,,
{16}3,4,3,4,2,,6,5,6,5,7,,1/8,,,,
{8}3,2/4,6,5/7,8,1/8,,,
{8}4^1[8:1]/5^8[8:1],,,,2,1/3,7,6/8,
{16}1/2,,3/4,,5/6,,7/8,,1,8,1,8,1b,,,,
{16}3/4,,1/2,,7/8,,5/6,,4,5,4,5,4,5,4,,
{8}3,1/7,6,2/8-4[8:1],,1,1,,
{8}5b/6b,4b/7b,3b/8b,1b/2-6[8:1],,8,8z4[4:1],,
{8},,3>7[8:1],4,5,,6<2[8:1],5,
{8}4,,3,6,4^1[8:1]/5^8[8:1],,,,
{8}2/7,2/7,3/6,3/6,5/4q5[4:1],,4/5<4[2:1],,
{8},,,,5,,1/8,7-4[8:1],
{8}2-5[8:1],7b,2b,8-4[8:1],1-5[8:1],8b,1b,6<3[8:3],
{8}6q3[4:1],,6b,,,,4,5,
{8}3/4,2h[4:1]/5h[4:1],,,5/6,4h[4:1]/7h[4:1],,,
{8}3-1[8:1]/8-4[8:1],,3/8,,2,3,4,5,
{8}1-5[8:1]/6-8[8:1],,1/6,,7,6,5,4,
{4}3^8[8:1],7^4[8:1],2^5[8:1],6^1[8:1],
{8}2-6[8:1],,7,,1/8,2/7,3/6,4/5,
{8}1/2,3,4/5,6,7/8,6,4/5,3,
{8}5/6,7,1/8,2,3/4,2,1/8,7,
{8}5/6,2,3/4,7,1/2,6,7/8,3,
{8}4/5,3/6,2/7,1b/8b,
E
Re:MASTER
(162.0){8}2-6[4:1],,6-3[4:1],,7,8,8,,
{8}7-3[4:1],,3-6[4:1],,2,1,1,,
{8}2-6[4:1],,6-3[4:1],,7,8,8,,
{8}1b-5[8:1],8b-4[8:1],1b,8b,,1b,1b,,
{4}3^8[4:1],8^5[4:1],5^2[4:1],8,
{4}6^1[4:1],1^4[4:1],4^7[4:1],1,
{4}4>8[4:1],8<4[4:1],4>8[4:1],,
{8}5b-1[8:1],4b-8[8:1],5b,4b,,,,,
{4}5<1[4:1],1>5[4:1],5V71[4:1],1V35[4:1],
{4}5q1[4:1],1q5[4:1],5-1[4:1],,
{4}2^5[4:1],5^8[4:1],8-5[4:1],5q4[2:1],
{8},,,,,,6^3[4:1],6,
{8}3p6[4:1],,,,,3^6[4:1],7,6q3[8:3],
{8}7,,,,,,4,5,
{4}4,4pp5[2:1],8,5>5[1:1],
{1}8,,
{8}3-1[8:1],1V73[8:3],,5,,,,,
{8}7-5[8:1],5V37[8:3],,1,1,,,,
{4}5^2[4:1],2^7[4:1],7^4[4:1],4w8[2:1],{1},
{4}1pp3[8:1],1qq7[8:1],1^4[8:1],1^6[8:1],
{4}1-5[8:1],1w5[8:1],,2^7[4:1],
{4}7q3[4:1],3V16[4:1],6v4[4:1],4>5[1:1],{1},
{4},,,5,
{8}4p1[8:3],,,1-6[8:1],1,,,5<4[2:1],
{8}5,,,4-7[8:1],4-1[8:1],,,,
{8}6^1[4:1],6,1^4[4:1],1,4^7[4:1],,7^2[4:1],,
{8}2p6[4:1]*q6[4:1],,,,,,,8p4[8:1],
{8}4p8[8:1],,,5p1[8:1],1p5[8:1],,,8-4[8:1],
{8}4w8[8:1],,,,,,1v4[4:1]/7v4[4:1],1/7,
{4}1/7,,7-2[4:1],2-4[1:1],
{1}1-5[4:3],,,,
{4}7-1[8:1],6-2[8:1],5-3[8:1],1,
{8}1-7[8:1],,6-2[8:1],,8-4[8:1],8,8,,
{4}2^7[4:1],7-3[4:1],3^6[4:1],6,
{4}1-4[8:1],1,1-4[8:1]/8-5[8:1],1/8,
{8}6-2[8:1],,6,,8V64[8:1]*V24[8:1],8,,,
{4}1-4[8:1],1,8<4[8:1]*>4[8:1],8,
{4}7-5[8:1],8-4[8:1],{2}1-3[8:1],{1},
{2}6V85[8:1],4V25[8:1],
{8}2^7[8:1],7-3[8:1],3^6[8:1],,,,,,
{8}6,6-8[8:1],8v1[4:1],8,1-3[8:1],1,3,,
{4},5>8[8:1]/8-5[8:1],5/8,,
{4}1<4[4:1],4p7[4:1],1,1,
{8},,7-2[8:1],2<4[4:1],,,,,
{4}1b/8w4[4:1],8,,,
{4}1<4[4:1],4p7[4:1],7,,
{2}4-2[8:1]/6-8[8:1],4v1[8:1]/6v1[8:1],
{4},1-5[8:1]/8-2[8:1],1/8,,
{2}1<4[4:1],8,
{4}4pp4[4:1],4-1[8:1],,,
{8}5,4,6V85[4:1],4V25[4:1],6,4,,,
{8}1-4[8:1]/8-5[8:1],1/8,1/8,,1-4[8:1]/8-5[8:1],1/8,1/8,,
{8}8,8^2[8:1],2v3[4:1],,3^5[8:1],,,,
{4}6-2[8:1]/7-1[8:1],,1-5[8:1]/8-4[8:1],1/8,
{8}1,1,1s5[4:1],,1,,,,
{2}2-5[8:1]/8-5[8:1],4V25[8:1]/6V85[8:1],
{16}8b>5[4:1],8b-5[16:3],8b,,,,,,,,,,,,,,
{4}2<5[4:1],5>8[4:1],8<4[4:1],,
{8}8p5[8:3],,,5-2[8:1],5,,,1>8[2:1],
{8}1,,,8-3[8:1],8-5[8:1],,,,
{8}7^4[4:1],7,4^1[4:1],4,1^6[4:1],,6^3[4:1],,
{8}3p7[4:1]*q7[4:1],,,,,,,8p4[8:1],
{8}4p8[8:1],,,5p1[8:1],1p5[8:1],,,8-4[8:1],
{8}4w8[8:1],,,,,,1v4[4:1]/7v4[4:1],1/7,
{4}1/7,,7-2[4:1],2-4[1:1],
{1}1-5[4:3],,
{4}1-6[8:1]/2-5[8:1],1/2,7-4[8:1]/8-3[8:1],7/8,
{4}1^6[8:1]/2^5[8:1],1/2,7^4[8:1]/8^3[8:1],7/8,
{4}1-7[8:1]/2-4[8:1],1-5[8:1]/2-6[8:1],1>5[8:1]/2<6[8:1],1/2,
{4}7-5[8:1]/8-2[8:1],7-3[8:1]/8-4[8:1],7>3[8:1]/8<4[8:1],7/8,
{4}8<4[8:1]*p4[8:1],8>4[8:1]*q4[8:1],8<4[8:1]*p4[8:1],8,
{8}2b/7b,2b-7[16:1]/7b-2[16:1],2b/7b,{16}2b/7b,,
E
最終更新:2026年10月01日 20:31