EASY
BASIC
(202.0){1},
{2}1,1,
{1}1h[2:1],
{2}8,8,
{1}8h[2:1],
{2}1,1,
{2}2,2,
{2}3/4,3/4,
{4}4,4,4,,
{2}5,5,
{4}5,,6,6,
{2}6,6,
{4}6,,7,7,
{2}7,7,
{4}7,,8,8,
{1}8-4[4:3],,
{2}1/2,7/8,
{1}1h[2:1]/2h[2:1],
{2}8,8,
{2}7,7/8,
{2}5/6,3/4,
{1}5h[2:1]/6h[2:1],
{2}4,4,
{2}3,3/4,
{1}2h[2:1],
{1}1h[2:1],
{1}1-5[4:3],,
{1}7h[2:1],
{1}8h[2:1],
{2}1,1,
{1}2h[2:1]/7h[2:1],
{2}1b/8b,1/8,
{4}1,1,1,,
{4}2,2,2,,
{4}3,3,3,,
{4}4,4,4,,
{1}5h[2:1],
{1}4h[2:1],
{2}5/6,3/4,
{4}5,5,4,4,
{4}5,5,5,,
{4}6,6,6,,
{4}7,7,7,,
{4}8,8,8,,
{1}1h[2:1],
{4}8,8,8,,
{2}1/2,1/2,
{4}8,8,8,,
{4}7,7,7,,
{4}6,6,6,,
{1}6-2[4:3],,
{1}3-7[4:3],,
{1}1h[1:1]/8h[1:1],,
{1}1-4[4:3],,
{1}8-5[4:3],,
{1}2-5[4:3],,
{1}7-4[4:3],,
{1}1h[1:1]/8h[1:1],,
{2}1,1,
{4}8b,8b,,,
{4}1b,1,1,,
{4}2,2,2,,
{4}3,3,3,,
{1}4h[2:1]/5h[2:1],
{2}5/6,5/6,
{2}3/4,3/4,
{4}5,5,4,4,
{4}5,4,5,4,
{4}5,5,5,,
{4}6,6,6,,
{4}7,7,7,,
{4}1/8,1/8,1/8,,
{4}1,1,2,,
{4}8,8,7,,
{1}1h[2:1]/2h[2:1],
{1}3h[2:1]/4h[2:1],
{1}5h[2:1]/6h[2:1],
{1}7h[2:1]/8h[2:1],
{2}1,1,
{2}8,8,
{2}1/2,7/8,
{4}1/8,,1b,1b,
{4}8,8,8,,
{4}7,7,7/8,,
{4}6,6,6,,
{4}5,5,4/5,,
{4}4,4,4,,
{4}3,3,3/4,,
{4}2,2,2,,
{4}1,1,1,,
{4}8,8,8,,
{4}7,7,7,,
{1}1b/8b,
E
ADVANCED
(202.0){2},3,
{2}4,3,
{1}3/4,
{2}6,5,
{1}5/6,
{2}4,5,
{2}4,3/6,
{2}1,8,
{4}1h[4:3],,,8b,
{4}2,2,3,3,
{4}4,4,5/6,,
{4}7,7,6,6,
{4}5,5,3/4,,
{4}2,2,3,3,
{4}4,4,5/6,,
{4}8,1,8,1,
{1}2b/7b,
{4}4,4,3,3p6[2:1],{1},
{4}5,5,6,6,
{4}5,6,4/7,,
{4}1,1,2,2q7[2:1],{1},
{4}8,8,7,7,
{4}8,7,1/6,,
{2}6h[2:1],5,
{2}3h[2:1],4,
{4}6,7,8,1,
{4}2,3,4/5,,
{2}2h[2:1],1,
{2}7h[2:1],8,
{4}2,3,4,5,
{4}6,7,1-4[4:1]/8-5[4:1],,
{2},2b/7b,
{4}4,3,4,3,
{4}2/5,,8,7,
{4}8,6,5,6,
{1}4/7,
{1}7-4[4:1]/8-3[4:1],
{4}3,4,3/4,,
{1}1-6[4:1]/2-5[4:1],
{4}6,5,5/6,,
{4}5,6,5,6,
{4}4/7,,1,2,
{4}1,3,4,3,
{4}2/5,,1,8,
{1}2b/7b,
{4}4,5,3/6,,
{4}1,1,2,2,
{4}3,3,3/4,,
{4}8,8,7,7,
{4}6,6,5/6,,
{4}1,2,3,4,
{4}5,6,7/8,,
{4}8,7,6,5,
{4}4,3,1/2,,
{4}4,4,5,5,
{4}4,5,2/7,,
{2}2h[2:1],1,
{2}7h[2:1],8,
{2}3h[2:1],2,
{2}6h[2:1],7,
{2}3h[2:1],4,
{2}6h[2:1],5,
{2}2h[2:1],3,
{2}7h[2:1],6,
{2}4/5,4/5,
{2}3/6,3/6,
{2}1,8,
{4}2/7,2/7,2b/7b,,
{4}6,5,5/6,4/7,
{4}3/8,,6,5/6,
{4}3,3/4,2/5,1/6,
{1}7-4[4:1]/8-3[4:1],
{1}5-2[4:1]/6-1[4:1],
{4}1,2,3/8,,
{1}3-8[4:1]/4-7[4:1],
{4}8,7,1/6,,
{4}6,5,5/6,4/7,
{4}3/8,,6,5/6,
{4}3,3/4,2/5,1/6,
{4}7/8,,1,8,
{1}2b/7b,
{4}4,5,3/6,,
{4}3/4,2/5,1/6,,
{4}5/6,4/7,3/8,,
{4}1/2,3/8,4/7,,
{4}7/8,1/6,2/5,,
{1}7-3[4:1],
{1}2-6[4:1],
{4}2/7,1/8,1h[2:1]/8h[2:1],,
{4},,1b/8b,2b/7b,
{4}8,7,6,5,
{4}4,3,1/2,1/2,
{4}1,2,3,4,
{4}5,6,7/8,7/8,
{4}7,6,5,4,
{4}3,2,1/8,2/7,
{4}1,2,3,4,
{4}8,7,6,5,
{4}2,3,4,5,
{4}7,6,5,4,
{1}2b/7b,
E
EXPERT
(202.0){1},
{1}4^1[2:1],
{1}5^8[2:1],
{1}3^8[2:1],
{1}6^1[2:1],
{4}3,3,6,6,
{4}2,7,1,8,
{2}3-8[4:1],6-1[4:1],
{4}3-8[4:1],,,2b/7b,
{4}3/5,4/6,3/4,5/6,
{4}2/4,5/7,1b/2b,1b/2b,
{4}4/6,3/5,5/6,3/4,
{4}5/7,2/4,7b/8b,7b/8b,
{4}3/5,4/6,3/4,5/6,
{4}2/4,5/7,1b/2b,1b/2b,
{4}4/5,3/6,2/7,1/8,
{1}1b-4[2:1]/8b-5[2:1],
{4}3h[4:1],4h[4:1],5h[4:1],6h[4:1],
{1}2p5[2:1],
{4}7h[4:3],6,8,2,
{4}2h[4:3],3,1,7,
{4}6h[4:1],5h[4:1],4h[4:1],3h[4:1],
{1}7q4[2:1],
{4}2h[4:3],3,1,7,
{4}7h[4:3],6,8,2,
{8}2/7,,,4/5,4/5,,3b/8b,,
{8}2/7,,,4/5,4/5,,3b/8b,,
{4}2,4,5,7p4[2:1],{1},
{8}2/7,,,4/5,4/5,,1b/6b,,
{8}2/7,,,4/5,4/5,,1b/6b,,
{4}7,5,4,2q5[2:1],{1},
{8}1b/8b,1b/8b,1b/8b,,5/6,,3/4,,
{8}1/2,,3/8,,4/5,,7,8,
{4}6h[4:1],8b,3/4,5/6,
{8}7/8,,1/6,,4/5,,2,1,
{4}3h[4:1],1b,4/5,3/6,
{4}2/4,3/5,4/6,5/8,
{4}5/7,4/6,3/5,1/4,
{8}1/8,,5/6,5/6,,3/4,3/4,,
{4}8-6[8:1],1-3[8:1],7-5[8:1],2,
{8}7/8,,1/6,,4/5,,2,1,
{4}3h[4:1],1b,5/6,3/4,
{8}1/2,,3/8,,4/5,,7,8,
{4}6h[4:1],8b,1,2,
{8}3/6,3/6,,3^1[4:1]/6^8[4:1],,,,,
{4}5/6,3/4,1/2,7/8,
{4}2b/7b,3/5,2/4,1/4,
{4}2/4,3/5,4/6,5/8,
{4}5/7,4/6,3/5,1/4,
{4}2/4,3/5,4/6,5/8,
{8}2h[8:3],,1,1,,,7h[8:3],,
{8}8,8,,,2^4[8:1],,7^5[8:1],,
{1}3>6[2:1],
{1}6<3[2:1],
{4}1-3[8:1],8-6[8:1],2-4[8:1],7-5[8:1],
{4}1-3[8:1],8-6[8:1],2-4[8:1],7,
{2}1h[2:1],2h[2:1],
{2}3h[2:1],4h[2:1],
{4}2,4,5,7p4[2:1],{1},
{2}8h[2:1],7h[2:1],
{2}6h[2:1],5h[2:1],
{4}7,5,4,2q5[2:1],{1},
{4}7-4[4:1],1,2-5[4:1],8,
{1}7qq4[2:1],
{2}1b,2b,
{8}3b/6b,3b/6b,3b/6b,,5/6,,3/4,,
{8}2,1,3/8,,4/5,,7,8,
{4}6h[4:1],8b,3/4,5/6,
{8}7,8,1/6,,4/5,,2,1,
{8}3h[4:1],,1b,,4,5,3/6,,
{4}2/4,3/5,4/6,5/8,
{4}5/7,4/6,3/5,1/4,
{8}1/8,,5/6,5/6,,3/4,3/4,,
{4}8-6[8:1],1-3[8:1],7-5[8:1],2,
{8}7,8,1/6,,4/5,,2,1,
{4}3h[4:1],1b,5/6,3/4,
{8}2,1,3/8,,4/5,,7,8,
{4}6h[4:1],8b,1,2,
{8}3/6,3/6,,3^1[4:1]/6^8[4:1],,,,,
{8}5/6,,1/2,,7/8,,3/4,3b/4b,
{8},,2/6,,1/8,,5/6,5b/6b,
{8},,3/7,,1/8,,3/4,3b/4b,
{8},,2/6,,1/8,,5/6,5b/6b,
{4},3/7,1/8,2/7,
{8}4b/5b,,,1,8,,2/7,,
{4}3/4,7/8,5/6,1/2,
{8}4/5,4bqq1[8:7]/5bpp8[8:7],,,,,,,
{8},,,,2b/7b,2b/7b,2b/7b,,
{4}2/8,1/7,1/2,7/8,
{4}3/8,1/6,3b/4b,5b/8b,
{4}1/7,2/8,7/8,1/2,
{4}1/6,3/8,5b/6b,1b/4b,
{4}2/8,1/7,1/2,7/8,
{4}3/8,1/6,3b/4b,5b/8b,
{4}1/8,2/7,3/6,4/5,
{1}4b^1[2:1]/5b^8[2:1],
{4}1/8,1/8,2/7,2/7,
{8}3/6,3/6,3/6,,4/5,,1/8,,
{2}2h[2:7]/7h[2:7],{1},,,,
E
MASTER
(202.0){4},,5,4,
{4}3h[2:1],,4,5,
{4}6h[2:1],,4,3,
{4}2h[2:1],,5,6,
{4}7h[2:1],,1,2,
{4}3,3,6,6,
{8}3,4,5,4,6,5,4,5,
{2}7/2-6[8:1],2/7-3[8:1],
{4}1-5[8:1],8-4[8:1],1,6b/3b-8[8:1],
{4}6-1[8:1],4-7[8:1],5-2[8:1],3-8[8:1],
{4}6-1[8:1],4,3b/4b,1b/6b-1[8:1],
{4}3-8[8:1],5-2[8:1],4-7[8:1],6-1[8:1],
{4}3-8[8:1],5,5b/6b,8b/3b-8[8:1],
{4}6-1[8:1],4-7[8:1],5-2[8:1],3-8[8:1],
{4}6-1[8:1],4,3b/4b,6b/1b-6[8:1],
{4}8-3[8:1],2-5[8:1],7-4[8:1],1>8[2:1],
{4}8b,,,5/6,
{4}2/8,3/4,1/7,4qq3[8:3]/5pp6[8:3],
{8},,,,,4/5,4/5,,
{8}2-5[8:1],5,2,7-4[8:1],4,7,1-5[8:1],5,
{8}1,8-4[8:1],4,8,1w5[8:1],,1,,
{4}3/5,4/7,1/5,2pp3[8:3]/6pp7[8:3],
{8},,,,,4/5,4/5,,
{8}8-4[8:1],4,8,1-5[8:1],5,1,8-3[8:1],3,
{8}8,1-6[8:1],6,1,8w4[8:1],,8,,
{8}4qq1[8:3],,,8,8,,2b/7b,,
{8}5-8[4:1],,,1,1,,2b/7b-4[4:1],,
{4}4-1[4:1],1-5[4:1],5-8[4:1],8<1[2:1],
{4},,,6/3s7[2:1],
{8}6,,,8,8,,3b/8b,,
{8}4h[4:1],,,4,4,,1b/6b,,
{4}2/5,3/4pp4[4:1]*qq4[4:1],,,
{4}6h[4:1]/8p3[8:1],,1/2,4/5,
{8}1b/8b,1b/8b,2b/7b,,4/5,,7/2-5[8:1],,
{8}6-1[8:1],,3-8[8:1],,7,7,8^3[8:1]*^5[8:1],8,
{4},2b/6b,3/4,2/7-4[8:1],
{8}3-8[8:1],,6-1[8:1],,2,2,1^4[8:1]*^6[8:1],1,
{4},3b/7b,5/7,2/4,
{2}7^4[8:1]/8p4[8:1],1q5[8:1]/2^5[8:1],
{2}1p4[8:1]/7^4[8:1],2^5[8:1]/8q5[8:1],
{4}1>5[4:1],5<1[4:1],1>5[4:1],5<1[4:1],
{4}1b,5b,1/8,3/6-1[8:1],
{8}2-5[8:1],,7-4[8:1],,2,2,1^4[8:1]*^6[8:1],1,
{8},,3b/7b,,4/5,4/5,6/3-8[8:1],,
{8}7-4[8:1],,2-5[8:1],,7,7,8^3[8:1]*^5[8:1],8,
{4},2b/6b,1h[4:1],2h[4:1],
{4}3-7[8:1],6-2[8:1],4-8[8:1],,
{8}2/6,3/7,2-6[8:3]/6V82[8:3],3/7,,,,,
{4}2b/7b<3[4:1],3q8[4:1],8>4[4:1],4p7[4:1],
{4}7qq1[2:1],1,,,
{4}7/2>6[4:1],6p1[4:1],1<5[4:1],5q2[4:1],
{4}2pp8[2:1],6,,,
{8}2/5,3,4,1/6,7,8,4/7,6,
{16}5,,3/8,,2,,1,,1,2,3,4,8,7,6,5,
{4}4-2[8:1],5-7[8:1],4-1[8:1],5-8[8:1],
{4}4-8[8:1],5-1[8:1],4-2[8:1],5-7[8:1],
{8}1-5[8:1],1,8-4[8:1],8,1v6[8:1],1,8v3[8:1],8,
{8}1q6[8:1],1,8p3[8:1],8,1-5[8:1],1,8b,,
{1}5^8[2:1]*p8[2:1],
{1}4-1[2:1],
{4}4/5,3/6,2s6[4:3]/7z3[4:3],,
{4},,,1/8,
{1}2>7[8:5]/7v2[8:5],
{1}2q1[8:5]/5p6[8:5],
{4}2^7[4:1],7-3[4:1],3^6[4:1],6,
{4}7pp7[4:1],7^4[4:1],,,
{4}2qq2[4:1],2^5[4:1],,,
{2}8-3[8:1]*-5[8:1],6-2[8:1],
{4}1b,5/6,2b,5/6,
{8}4b/5b,3b/6b,2b/7b,,3/4,,1/6^1[8:1],,
{8}4-8[8:1],,6^3[8:1],,2,2,1^4[8:1]*^6[8:1],1,
{4},3b/7b,5/6,8/3^8[8:1],
{8}5-1[8:1],,3^6[8:1],,7,7,8^3[8:1]*^5[8:1],8,
{4},2b/6b,2/4,5/7,
{2}5q1[8:1]/6^1[8:1],3^8[8:1]/4p8[8:1],
{2}4q1[8:1]/6^1[8:1],3^8[8:1]/5p8[8:1],
{4}4>8[4:1],8<4[4:1],4>8[4:1],8<4[4:1],
{4}4b,8b,1/8,6/3^8[8:1],
{8}7^4[8:1],,1q5[8:1],,7,7,8^3[8:1]*^5[8:1],8,
{8},,2b/6b,,4/5,4/5,3/6^1[8:1],,
{8}2^5[8:1],,8p4[8:1],,2,2,1^4[8:1]*^6[8:1],1,
{4},3b/7b,1h[4:1],2h[4:1],
{4}3-7[8:1],6-2[8:1],4-8[8:1],6z2[8:3],
{4}1h[2:1],,8,4/5,
{2}3q8[8:1]/4^7[8:1],5^2[8:1]/6p1[8:1],
{2}2^7[8:1]/3p6[8:1],6q3[8:1]/7^2[8:1],
{2}3^8[8:1]/4p7[8:1],5q2[8:1]/6^1[8:1],
{2}4^1[8:1]/5p8[8:1],4q1[8:1]/5^8[8:1],
{4}2-7[8:1],5,6-3[8:1],1,
{4}2^7[8:1],6q3[8:1],4,4/5,
{8}2b/7b,2b/7b,,,3q8[8:3]/6p1[8:3],,,,
{8},,,,1b/8b,4b/5b,3b/6b^1[8:1],,
{4}3^8[8:1],5q2[8:1],4p7[8:1],6^1[8:1],
{4}3^8[8:1],5,5b/6b,8b/3b^8[8:1],
{4}6^1[8:1],4p7[8:1],5q2[8:1],3^8[8:1],
{4}6^1[8:1],4,3b/4b,1b/6b^1[8:1],
{4}3^8[8:1],5q2[8:1],4p7[8:1],6^1[8:1],
{4}3^8[8:1],5,5b/6b,8b/3b-8[8:1],
{4}6-1[8:1],4-8[8:1],5-1[8:1],3-7[8:1],
{4}6-2[8:1],3-8[8:1],6-1[8:1],4-8[8:1],
{4}5-1[8:1],2-6[8:1],7-3[8:1],2,
{8}1b/8b,1b/8b,1b/8b,,4/5,,1/8,,
{2}7h[2:7]/2b<3[4:13],{1},,,,
E
Re:MASTER
最終更新:2026年10月01日 20:31