アットウィキロゴ

1 > 3の純情な感情

アーティスト

BPM EASY BASIC ADVANCED EXPERT MASTER Re:MASTER
152 2 5 6 10 12 -

EXPERT MASTER Re:MASTER
譜面制作者 -

EASY


BASIC

(152.0){1},,,,
{2}2,2,
{1}3,
{2}4,4,
{1}5,
{2}6,6,
{1}7,
{2}8,8,
{1}1,
{1}1-5[4:3],,,
{4}6,6,6,,
{4}5,5,5,,
{4}4,4,4,,
{4}3,3,3,,
{4}2,2,,2,
{4},1,,1,
{4},8,,8,
{4},7,,7,
{4},6,,6,
{4},5,,5,
{4},3/4,,3/4,
{4},1/2,,1/2,
{4},3,,3,
{4},4,,4,
{4},5,,5,
{4},6,,6,
{4},7,,7,
{4},8,,8,
{4},1/2,,1/2,
{4},3/4,,3/4,
{4},4b/5b,,,
{4}5,5,6,6h[4:3],{1},
{4}4,4,3,3h[4:3],{1},
{4}5,5,6,6,
{4}7,7,8,8,
{4}1,1h[4:5],,,{1},
{4},,1,1,
{4}8,,8,8,
{4}7,,7,7,
{4}6,,6,6,
{4}5,,5,5,
{4}4/5,,4,4,
{4}3/4,,2,2,
{4}1/2,,1,1,
{4}1b/8b,,2,2,
{4}3,3,4,4,
{4}4/5,,6,6,
{4}7,7,8,8,
{4}1/8,,8,8,
{4}7,7,6,6,
{4}5/6,,4,4,
{4}3,3,2,2,
{2}1/2,1-5[4:3],{1},,
{4},,8,8,
{4}1,1,{2}8-4[4:3],{1},
{4},,1,1,
{8}1,,8,8,
E

ADVANCED

(152.0){1},,,,
{2}3/4,3/4,
{4}3,4,3,,
{2}5/6,5/6,
{4}6,5,6,,
{2}7/8,7/8,
{4}7,8,7,,
{2}1/2,1/2,
{4}2,1,2,3,
{1}4>5[4:7],,,
{4}4/5,3,2,1,
{4}8,7,6,,
{4}4/5,6,7,8,
{4}1,2,3,,
{4}6,5,6,,
{4}3,4,3,,
{4}2,1,2,,
{1}8-4[2:1],
{4}3,4,3,,
{4}6,5,6,,
{4}7,8,7,,
{1}1-5[2:1],
{4}6,5,4/7,,
{4}3,4,2/5,,
{4}2,1,3/8,,
{1}7^4[2:1],
{4}3,4,2/5,,
{4}6,5,4/7,,
{4}7,8,1/6,,
{1}2^5[2:1],
{4}4/5,4/5,4b/5b,,
{4}3,4,5,6,
{2}3h[2:1],4,
{4}6,5,4,3,
{2}6h[2:1],5,
{4}4,3,2,1,
{4}8,7,6,5,
{1}4>5[4:7],,
{4},,6,6,
{4}5,5,6,5,
{4}4/7,,3,3,
{4}4,4,3,4,
{4}2/5,,4/5,4/5,
{4}3/6,3/6,2/7,2/7,
{2}1/8,1q4[4:5],{1},
{4},,6,5,
{4}6,5,4/7,3/8,
{4}1/2,,3,4,
{4}3,4,2/5,1/6,
{4}7/8,,6,5,
{4}4,3,1/2,3/8,
{4}4/7,,3,4,
{4}5,6,7/8,1/6,
{4}2/5,3/4,{2}5<4[4:5],{1},
{4},,4,3,
{4}2,1,8,7,
{4}6,5,{2}4>5[4:5],{1},
{4},,4/5,3/6,
{8}2/7,,1/8,1/8,
E

EXPERT

(152.0){1},,,
{8},,,,,,,7,
{8}8,1,2,2h[4:1],,1h[4:1],,8h[4:1],
{8},7h[4:1],,2,,,,3,
{8}4,5,6,6h[4:1],,5h[4:1],,4h[4:1],
{8},3h[4:1],,6,,,,6,
{8}7,8,1,1h[4:1],,8h[4:1],,7h[4:1],
{8},6h[4:1],,3,,,,2,
{8}3,4,5,5h[4:1],,4h[4:1],,3h[4:1],
{8},2h[4:1],,7,,1/8,,1^4[8:17]/8^5[8:17],{1},,
{8},,,,,,,2b/7b,
{8},,5,,4,,3,3/4,
{8},5/6,,2/4,,5/7,,1/3,
{8},,1,,8,,7,7/8,
{8},1/2,,6/8,,1/3,1/3,,
{8}2b/7b,,,2,4,3,4,,
{8}7/8,,1/6,,2/5,,3/4,4/3>4[8:5],{1},
{8}6,6,,7/8,,1/8,,1/2,
{8},,3,3,,2/4,,5h[8:3]/7h[8:3],
{8},,,,3/6,3/6,,,
{2}2^4[4:1],7^5[4:1],
{2}1^4[4:1],8^5[4:1],
{8}1b,,,7,5,6,5,,
{8}1/2,,3/8,,4/7,,5/6,5/6<5[8:5],{1},
{8}3,3,,1/2,,1/8,,7/8,
{8},,6,6,,5/7,,2h[8:3]/4h[8:3],
{8},,,,3/6,3/6,,,
{2}7^5[4:1],2^4[4:1],
{2}8^5[4:1],1^4[4:1],
{8},,1b/8b,,7,,6,6h[4:1],
{8},5,5,,4/7,,4h[4:1]/7h[4:1],,
{8},,1b/8b,,2,,3,3h[4:1],
{8},4,4,,2/5,,2h[4:1]/5h[4:1],,
{8},,1b/8b,,7,,6,6h[4:1],
{8},5,5,,4/7,,1b/8b,,
{8}2,3,4,,7,6,5,,
{8}2,3,4,5q8[8:5],,,,,
{8},,,,1,8,2,7,
{8},2/7,2b/7b,,8,1,2,2h[4:1],
{8},1h[4:1],,8h[4:1],,7-3[8:1],,,
{8},,,3,4,5,6,6h[4:1],
{8},5h[4:1],,4h[4:1],,3-7[8:1],,,
{8},,,6,7,8,1,1h[4:1],
{8},8h[4:1],,7h[4:1],,6-2[8:1],,,
{8},,,2,3,4,5,5h[4:1],
{8},4h[4:1],,3-7[8:1],,,,,
{8}1,8,2b/7b,,8,1,2,2h[4:1],
{8},1h[4:1],,8-3[8:1],,7-4[8:1],,,
{8},,,3,4,5,6,6h[4:1],
{8},5h[4:1],,4-7[8:1],,3-8[8:1],,,
{8},,,6,7,8,1,1h[4:1],
{8},8h[4:1],,7-3[8:1],,6-4[8:1],,,
{8},,,2,3,4,5,5h[4:1],
{8},4h[4:1],,3-7[8:1],,2-8[8:1],,,
{8},7b,7b,,6,5,4,,
{8}3,3/4,,5/6,,2/4,,5/7,
{8},1/3,1/3,,2,1,8,,
{8}7,7/8,,1/2,,6/8,,1/3,
{8}1/3,,2b/7b,,2,3,4,5,
{8}6,5/6,,3/4,,5/7,,2/4,
{8},6/8,6/8,,6,7,8,1,
{8}2,3,,2b/7b,
E

MASTER

(152.0){8}2h[8:3],,1,1h[2:1],,,8,8h[2:1],
{8},,7,7,,,,,
{8}6h[8:3],,5,5h[2:1],,,4,4h[2:1],
{8},,3,3,,8,8,,
{8}3h[8:3],4,5,6h[2:1],,7,8,1h[2:1],
{8},2,3,4,,,,7,
{8}1-5[8:1],2,3,4,,6,5,4,
{8},1-5[16:3]/8-4[16:3],2/7,1/8,,,,1,
{8}3,5,7,2h[1:1],,3,4,5,
{8},1,8,7,,,,8,
{8}6,4,2,7h[1:1],,6,5,4,
{8},8,1,2,,1>5[4:1]/5<1[4:1],,1p7[8:19]/5p3[8:19],{1},,
{8},,,,,,,3h[4:1],
{8},4,3h[4:1],,6,5,6h[4:1],,
{8}2,1,2h[4:1],,7,8,7,8,
{8}1,2h[4:1],,6,5,7h[4:1],,3,
{8}4,2h[4:1],,1,8,7,6,5,
{8}4h[4:1],,6,6h[4:1],,8,8,1,
{8}2h[4:1],,8,8h[4:1],,6,6,5,
{8}4h[4:1],,6,6h[4:1],,8,8,8,
{8}5h[4:1],,3,3h[4:1],,1,1,1,
{8}3h[4:1],,7h[8:3],6,,2,1,8,
{8}7h[4:1],,3h[8:3],2,,6,5,4,
{8}3h[4:1],,2,2h[4:1],,1,8,7,
{16}5/6,,,,3/4,,,,5,4,5,,2/7,,,,
{8}1/8,,,3,4,5,6,7h[8:3],
{8},,3h[8:5],,2,1,8,7h[8:3],
{8},,1,1h[4:1],,8,8,2>6[8:1],
{8}2,7<3[8:1],,2>6[8:1],,7<3[8:1],,2b,
{8},,1,1h[4:1],,2h[4:1],,3h[8:3],
{8},,8h[8:3],,7,7h[4:1],,8h[2:1],
{8},,7,6h[4:1],,5h[4:1],,4h[2:1],
{8},,3,3h[4:1],,4h[4:1],,5,
{8}7/8,1/6,7b/8b,,3,4,3,2,
{8}3,1,3h[8:1],8,3h[8:1],7,3h[8:1],6,
{8}1/2,3/8,1b/2b,,6,5,6,7,
{8}6,8,6h[8:1],1,6h[8:1],2,6h[8:1],3,
{8}5/6,4/7,5b/6b,,2,3,2,1,
{8}2,4,2h[8:1],8,2h[8:1],5,2h[8:1],7,
{8}2,6,3,7,4,8,5,1,
{8},3>7[8:7]/7<3[8:7],3/7,,,,,,
{8},,,,2h[8:1],1h[8:1],8h[8:1],7h[4:1],
{8},1,8,1/8,1/8,1-4[8:1]/8-5[8:1],3/6,1/8,
{8},3,3,2,1^3[8:1],8,7,6b,
{8},8,1,1/8,1/8,7/8,6/7,5/6,
{8},1/2,2/3,3/4,,3^8[8:1]/7^4[8:1],3/7,,
{8},1,8,1/8,1/8,1-4[8:1]/8-5[8:1],3/6,1/8,
{8},6,6,7,8^6[8:1],1,2,3,
{8},1,8,4/8,4/8,3/7,2/6,1/5,
{8},2^5[8:1]/6^1[8:1],2/6,,,1/8,1/8,,
{16}3,6,3,6,3,6,3,6,3b,,4b,,5b,,6b,,
{8},7,7,6,5^7[8:1],4,3,2,
{8},7,7,7b,1-5[8:1],2b,3b,4b,
{8},7,6,5,,1-5[16:3]/8-4[16:3],3/6,1/8,
{8},,,3^8[8:1],4,5,6,7,
{8},2,2,3,4^2[8:1],5,6,7,
{8},7,8,7/8,7/8,7-3[8:1]/8-4[8:1],2/5,7/8,
{8},2^5[8:1],1,2,,7^4[8:1],8,7,
{8},1>5[4:1]/5<1[4:1],,1p7[8:11]/5p3[8:11],,,,,{1},
{8},,,,2h[8:1],3h[8:1],4h[8:1],5h[8:1],
{8}6h[8:1],7-4[8:1],,2-5[8:1],,,8,,
{8}8,4>8[4:1]/8<4[4:1],,4q6[8:11]/8q2[8:11],,,,,{1},
{8},,,,1^4[8:1],8,7,6,
{8}5^7[8:1],4,3,2q5[8:17],,,{1},,,
E

Re:MASTER




名前:
コメント:

タグ:

+ タグ編集
  • タグ:
最終更新:2022年06月25日 18:19