EASY
BASIC
(135.0){1},,
{1}1h[1:1],,
{1}2h[1:1],,
{1}3h[2:1]/4h[2:1],
{4}3,3,3/4,,
{4}6,6,5/6,,
{4}4,4,5,5,
{4}4,5,3/6,,
{4}6,6,5/6,,
{4}3,3,3/4,,
{2}5,5,
{2}6,6,
{4}7,7,7,,
{1}8-4[4:3],,
{1}1-5[4:3],,
{1}7-4[4:3],,
{1}2-5[4:3],,
{2}8,8,
{2}7,7,
{2}6,6,
{2}5,5,
{2}4,4,
{2}3,3,
{1}2h[2:1],
{4}1,8,1,,
{4}1,1,1,,
{4}2,2,2,,
{4}3,3,3,,
{4}4,4,4,,
{4}5,5,5,,
{4}6,6,6,,
{1}7h[2:1],
{4}8,1,8b,,
{1}1h[2:1],
{1}8h[2:1],
{1}1h[2:1]/2h[2:1],
{1}7h[2:1]/8h[2:1],
{4}1,1,2,2,
{4}3,3,4,4,
{1}5-8[4:3],
{2},1b,
{4}8,8,8,,
{4}7,7,7,,
{4}6,6,5,5,
{4}4,5,4,,
{4}4,4,4,,
{4}3,3,3,,
{4}2,2,1,1,
{4}8,1,8b,,
{4}1,1,1,,
{4}2,2,2,,
{4}3,3,4,4,
{4}5,4,5,,
{4}5,5,5,,
{4}6,6,6,,
{1}7h[2:1]/8h[2:1],
{1}1h[2:1]/2h[2:1],
{4}8,8,1,1,
{1}8-4[4:3],,
{1}1-5[4:3],,
{1}7-4[4:3],,
{1}2-5[4:3],,
{4}8,8,1,1,
{1}1-4[4:3]/8-5[4:3],,
E
ADVANCED
(135.0){1},,
{1}3h[1:1],
{1}4h[1:1],
{1}5h[1:1],
{1}6>8[4:5],,
{4}1,1,2,2,
{4}3,3,2/5,,
{4}6,5/6,3,3/4,
{4}4/5,3/6,2/7,,
{4}8,8,7,7,
{4}6,6,4/7,,
{4}3,3,3/4,,
{4}6,6,5/6,,
{4}4/5,3/6,2/7,1/8,
{1}1^4[2:1]/8^5[2:1],
{4}5,6,5/6,,
{4}4,3,3/4,,
{4}5,6,5/6,,
{4}8,7,7/8,,
{4}1,2,1/2,,
{4}1,8,7,6,
{4}5,4,3/6,,
{2}6h[2:1],5,
{2}3h[2:1],4,
{2}6h[2:1],5,
{2}7h[2:1],8,
{2}2h[2:1],1,
{2}7h[2:1],8,
{4}6,6,5/6,5/6,
{4}3,3,2/4,,
{4}8,7,6,5,
{4}5,6,7,8,
{4}1,2,3,4,
{4}4,3,2,1,
{4}1/8,1/8,2/7,,
{2}6h[2:1],5,
{2}3h[2:1],4,
{4}4/5,3/6,2/7,,
{1}1^4[2:1],
{1}5^8[2:1],
{1}8^5[2:1],
{1}4^1[2:1],
{4}1,2,3,4,
{4}5,6,7,8,
{4}1,1,8,1^4[2:1]/8^5[2:1],{1},
{4}2,1/2,7,7/8,
{4}5/6,5/6,4/7,,
{4}3,4,5,6,
{4}4/5,3/6,2/7,,
{4}7,7/8,2,1/2,
{4}3/4,3/4,2/5,,
{4}5,4,3,2,
{4}1/8,1/8,2/7,,
{4}7,7/8,2,1/2,
{4}7/8,7/8,1/6,,
{4}6,5/6,3,3/4,
{4}4/5,3/6,2/7,,
{4}2,1/2,7,7/8,
{4}1/2,1/2,3/8,,
{4}3/4,3/4,2/5,,
{4}5/6,5/6,4/7,,
{4}4/5,3/6,2/7,1/8,
{1}2b/7b,
{4}4,3,2/5,,
{4}6,5,4,3,
{4}5,6,4/7,,
{4}7,8,1,2,
{4}8,7,2/7,,
{4}2,1,7,8,
{4}1,2,2b/7b,,
{2}6h[2:1],5h[2:1],
{4}4>6[2:3],,,{1},,
E
EXPERT
(135.0){1},,
{1}4h[1:1],
{1}5h[1:1],
{1}6h[1:1],
{1}7h[1:1],
{1}8w4[2:1],
{8}3,3,2/4,,6,6,5/7,,
{8}3,3,4/2h[2:1],,1,,1,,
{16}3h[16:3],,,4h[16:3],,,5,,6h[4:1],,,,5,,,,
{4}5^2[4:1]/6p1[4:1],,,3/8,
{8}6,5,4/7,,3,4,2/5,,
{1}6p3[2:1],
{4}1/2,3/8,4h[4:1]/7h[4:1],,
{16}6h[16:3],,,5h[16:3],,,4h[8:3],,,,,,3,,,,
{2}1/2-5[8:1],8/7-4[8:1],
{1}1bw5[2:1],
{4}4,3/5,5,4/6,
{4}4,2/5,5,4/7,
{4}3,2/5,6,4/7,
{4}3/4,2/5,5/6,4/7,
{4}3/4,2/8,5/6,1/7,
{4}4/3h[4:1],1,5/6h[4:1],8,
{1}7qq4[2:1]/8pp3[2:1],
{8}3h[4:1],,4,4,,5,4/6,,
{8}6h[4:1],,5,5,,4,3/5,,
{8}2h[4:1],,4,4,,5,4/6,,
{8}7h[4:1],,5,5,,4,3/5,,
{4}3/4,2/5,5/6,4/7,
{4}1/2,3/8,4/7,5/6,
{1}6p3[2:1],
{8}1,8,2,7h[8:3],,,1b,,
{8}5,5,4/6,,4,4,3/5,,
{8}8,8,1/7,,1,1,2/8,,
{8}6,5,4/6,,3,4,3/5,,
{8}7,8,1/7,,2,1,2/8,,
{8}6,5,4/7,,3,4,2/5,,
{4}7/8,1/6,2/5,3/4,
{1}3q6[2:1],
{8}8,1,7,2h[8:3],,,8b,,
{4}3q5[8:3],,,8b,
{4}6p4[8:3],,,1b,
{4}2qq5[8:3],,,8b,
{4}7pp4[8:3],,,1b,
{8}1,1,7,7,3,3,5,5,
{8}4h[4:1],,6,6,2,2,8,8,
{4}1/2,2/3,3/4,4/5,
{4}5/6,6/7,7b/8b,,
{8}2,2,1/2,,7,7,7/8,,
{8}1,1,8,8,2h[4:1],,1,,
{16}3h[16:3],,,4h[16:3],,,5,,6h[4:1],,,,5,,,,
{4}6^3[8:1],,1,2/8,
{8}7,7,7/8,,2,2,1/2,,
{8}8,8,1,1,7h[4:1],,8,,
{4}5/6,4/7,3/8,1/2,
{4}1^6[4:1]/2^5[4:1],,,3b/8b,
{8}2,2,1/3,,7,7,6/8,,
{8}2,2,1/3,,3/4,,1/6,,
{16}6h[16:3],,,5h[16:3],,,4,,3h[4:1],,,,4,,,,
{4}3^6[8:1],,8,1/8,
{8}7,7,6/8,,2,2,1/3,,
{8}8,1,7,2h[8:3],,,1,,
{4}1/2,3/8,4h[4:1]/7h[4:1],,
{16}6h[16:3],,,5h[16:3],,,4h[8:3],,,,,,3,,,,
{2}1-6[8:1]/2-5[8:1],7-4[8:1]/8-3[8:1],
{1}1bw5[2:1],
{4}7,5/6,2,3/4,
{4}8,5/6,1,3/4,
{4}8/3h[4:1],4,1/6h[4:1],5,
{8}6,5,7,,3,4,2,,
{8}6,6,5,5,4,,3/5,,
{2}3-8[8:1],6-1[8:1],
{1}4w8[4:1],
{2}2-5[8:1]/8-5[8:1],1-4[8:1]/7-4[8:1],
{1}1bqq6[4:7]/2bpp5[4:7],,,
E
MASTER
(135.0){1},,
{1}5pp5[4:3]*qq5[4:3],
{2},4,
{1}3qq4[4:3]/5pp4[4:3],
{2},4/5,
{1}3qq5[2:1]/6pp4[2:1],
{8}3,4,3,2/5,,1,8,1h[8:3],
{8},8,8,,5/7,,2/4,,
{16}4/5h[16:3],,,6h[16:3],,,7,,7h[4:1],,,,2>7[4:1],,,,
{16}8h[8:3],,,,,,1,8,1,,,,2/7,,,,
{8}6,5,6,4/7^2[8:1],,3,3,3^6[8:1],
{8},7,7,7p2[8:1],,,,,
{16}1/3,,,,4/8,,,,5h[4:1]/7h[4:1],,,,,,6,5,
{16}6h[16:3],,,7h[16:3],,,8h[8:3],,,,,,1,,2,,
{8}2^5[8:1],,8,8,7^4[8:1],7,1,1,
{16}1qq6[2:1]/2pp5[2:1],,1/2,1/2,,,,,,,,,,,,,
{16}4/7,,6,,6,5,,5h[16:3],,,4,,4w8[4:3],3,,3,
{1}4,
{16}2/5,,3,,3,4,,4h[16:3],,,5,,5w1[4:3],6,,6,
{1}5,
{16}1,,1,,2,2,,8,,7,7,,6,,5,,
{2}3q8[8:1]/4^7[8:1],5^2[8:1]/6p1[8:1],
{1}3qq8[2:1]/4pp7[2:1],
{8}1h[4:1],,8,1/2,,3/4,,4q1[4:1]/5^8[4:1],
{8},,,,,4,3,1/2-6[8:1],
{8},,8,8,,3,4,6/5-1[8:1],
{8},,8,8,,6,6h[4:1],,
{8}4h[4:1],,3,3,,1,1h[4:1],,
{8}8h[4:1],,2,3h[4:1],,6,5,4h[4:1],
{16},,3,,3s7[16:3],,,,,,,,,,1,8,
{8}1,7,6,5^2[8:1],,,8b,,
{8}8h[4:1],,1,7/8,,5/6,,4q1[4:1]/5p8[4:1],
{8},,,,,5,6,8/7-3[8:1],
{8},,1,1,,6,5,4-8[8:1],
{8}3,,1,1,,3,3h[4:1],,
{8}5h[4:1],,6,6,,8,8h[4:1],,
{8}1h[4:1],,7,6h[4:1],,3,4,5h[4:1],
{8},6,6p3[4:1],,,,,8,
{8}1/7,2/6,3/5,4-8[8:1],,,1b,,
{8}6p4[4:1],,,1,1-5[8:1],,1b,,
{8}6p4[4:1],,,1,1-5[8:1],,1b,,
{8}3q5[4:1],,,8,8-4[8:1],,8b,,
{8}3q5[4:1],,,8,8-4[8:1],,8b,1h[4:1],
{8},8,1-5[8:1],1,8-4[8:1],8,2-6[8:1],2,
{8},,5/7,6,2/4,3,5/7,6h[4:1],
{8},2,2^5[16:3]/6^1[16:3],,,,,3-8[8:1]/7-4[8:1],
{8},,,,2b/6b,4b/8b,,,
{8}2,1,2,8^5[8:1],,1,1,2^5[8:1],
{8},1,8,7,6h[4:1],,7,,
{16}5h[16:3],,,4h[16:3],,,3,,2h[4:1],,,,1,,,,
{8}8<2[16:3],,,1,1-5[8:1],,8b,,
{8}7,8,7,1^4[8:1],,8,8,7^4[8:1],
{8},8,1,2,3-6[8:1]*^6[8:1],,,,
{4}1/8,2/7,3/6,4/5,
{4}3qq5[4:1]/6pp4[4:1],,,2b/7b,
{8}1/2,3/8,4/7,5/6^1[8:1],,4,3,2^5[8:1],
{8},8,8^5[8:1],,3b-7[8:1],,4b,,
{16}6^1[8:1],,,5,,,4,,3^6[8:1],,,,7p2[8:1],,,,
{16}1h[8:3],,,,,,8,1,8-4[8:1],,,,1b,,,,
{8}7/8,1/6,2/5,4/3^8[8:1],,7,6,5h[4:1],
{8},4pp4[8:3]*qq4[8:3],4,4,,,,,
{16}2h[4:1],,,,4h[4:1],,,,5-1[8:1],,,,7,,7,8,
{16}7h[16:3],,,5h[16:3],,,4-8[8:1],,,,,,2,,1,,
{8}1>5[8:1],,6,7,8<4[8:1],8,2,1,
{16}7qq4[2:1]/8pp3[2:1],,7/8,7/8,,,,,,,,,,,,,
{16}2h[8:1],,1,,2,2,,1,1,,,2/8,,,3/7,,
{1}4qq5[2:1]/6pp5[2:1],
{16}4/7,,6,,6,5,,5h[16:3],,,4,,4w8[4:3],3,,3,
{1}4,
{8}1h[4:1],,8,1,8,,2/7,,
{2}3qq5[4:1],6pp4[4:1],
{8}1pp5[2:1]*qq5[2:1],,,,,,,8,
{8}8p4[8:1],,3,2,1q5[8:1],1,8,7,
{16}3qq5[4:7]/6pp4[4:7],,3/6,3/6,,,,,,,,,,,,,{1},,
E
Re:MASTER
最終更新:2026年10月01日 20:33