アットウィキロゴ

ポップミュージックは僕のもの

アーティスト ONIGAWARA

BPM EASY BASIC ADVANCED EXPERT MASTER Re:MASTER
135 2 4 7+ 9+ 12 -

EXPERT MASTER Re:MASTER
譜面制作者 チャン@DP皆伝 譜面-100号 -

EASY


BASIC

(135.0){1},,,,,
{2}1,1,
{2}2,2,
{2}3,3,
{1}4b/5b,
{1}4h[2:1]/5h[2:1],
{2}4/5,4/5,
{1}3h[2:1]/5h[2:1],
{2}5,5,
{1}8h[2:1],
{2}7,7,
{1}2h[2:1],
{1}7h[2:1],
{1}4h[2:1]/5h[2:1],
{2}4/5,4/5,
{1}3h[2:1]/5h[2:1],
{2}5,5,
{1}8h[2:1],
{2}7,7,
{1}2h[2:1],
{2}7,7-2[4:3],{1},,
{2}1,1,
{2}2,2,
{2}3,3,
{4}4,4,4,,
{2}5,5,
{2}6,6,
{2}7,7,
{4}8,8,8,,
{2}1,1,
{2}8,8,
{2}7,7,
{4}6,6,6,,
{2}5,5,
{2}4,4,
{2}3,3,
{4}2,2,2,,
{2}1/2,1/2,
{2}7/8,7/8,
{2}1,8,
{2}1/8,1b/8b,
{2}1/2,1/2,
{2}7/8,7/8,
{2}1,8,
{1}1-4[4:3]/8-5[4:3],,
{1}4h[2:1]/5h[2:1],
{2}4/5,4/5,
{1}3h[2:1]/5h[2:1],
{2}5,5,
{1}8h[2:1],
{2}7,7,
{1}2h[2:1],
{1}7h[2:1],
{1}1h[2:1]/8h[2:1],
{4}1/8,1/8,1/8,,
{1}7h[2:1],
{4}7,7,7,,
{1}8h[2:1],
{2}7,7,
{1}2h[2:1],
{2}7,7-2[4:3],{1},,
{1}2h[2:1],
{2}7,7-2[4:3],{1},,
{1}1-4[4:3],,
{2}5,5,
{2}6,6,
{2}7,7,
{1}8-4[4:3],,
E

ADVANCED

(135.0){8},,,,,,,1/8,
{8},1/8,,2,,2,,3,
{8},3,,4,,4,,5,
{8},5,,6,,6,,7,
{8},7,,1h[4:1]/8h[4:1],,,,1/8,
{4}1/8,1/8,7,7,
{4}6,6,5,5,
{4}4,4,3,3,
{4}2,2,1/8,,
{4}3,3,4,4,
{4}3,4,2/5,,
{4}6,6,5,5,
{4}6,5,4/7,,
{4}1/2,1/2,3/8,,
{4}7/8,7/8,1/6,,
{4}2,3,4,5,
{4}6,7,1/8,1/8,
{4}6,6,5,5,
{4}6,5,4/7,,
{4}3,3,4,4,
{4}3,4,2/5,,
{4}7/8,7/8,1/6,,
{4}1/2,1/2,3/8,,
{4}7,6,5,4,
{4}3,2,1/8,1/8,
{1}1-4[4:1]/8-5[4:1],,
{4}3h[4:1],4,2/5,,
{4}6h[4:1],5,4/7,,
{4}3h[4:1],4,2/5,,
{4}7h[2:1]/8h[2:1],,,1/6,
{4}2h[4:1],1,3/8,,
{4}7h[4:1],8,1/6,,
{1}1^4[8:3]/8^5[8:3],
{4}4/5,3/6,2/7,,
{4}6h[4:1],5,4/7,,
{4}3h[4:1],4,2/5,,
{4}6h[4:1],5,4/7,,
{4}1h[2:1]/2h[2:1],,,3/8,
{4}7h[4:1],8,1/6,,
{4}2h[4:1],1,3/8,,
{1}1^4[8:3]/8^5[8:3],
{4}4/5,3/6,2/7,,
{1}7-4[4:1],
{1}2-5[4:1],
{1}8-4[8:3],
{1}1b,
{4}7,7,8,8,
{4}7,8,1/6,,
{4}2,2,1,1,
{4}2,1,3/8,,
{4}1/8,2/7,3/6,4/5,
{4}3,3/4,6,5/6,
{4}3,3/4,2/5,1/6,
{4}7,7/8,6,5/6,
{4}3,3/4,1b/8b,,
{4}3/4,3/4,1/6,,
{4}5/6,5/6,3/8,,
{4}2h[4:1],1,7h[4:1],8,
{4}2h[4:1],1,1/8,2/7,
{4}6,5/6,3,3/4,
{4}6,5/6,4/7,3/8,
{4}2,1/2,3,3/4,
{4}6,5/6,1b/8b,,
{4}5/6,5/6,3/8,,
{4}3/4,3/4,1/6,,
{4}7h[4:1],8,2h[4:1],1,
{4}7h[4:1],8,1/8,1/8,
{1}1-6[4:1]/2-5[4:1],
{1}7-4[4:1]/8-3[4:1],
{4}3,2/4,6,5/7,
{4}3,2/4,6,5/7,
{1}3-8[4:1]/4-7[4:1],
{4}7/8,7/8,1/8,1/8,
{1}5-2[4:1]/6-1[4:1],
{4}1/2,1/2,1/8,1/8,
{1}1^4[8:3]/8^5[8:3],
{4}3/4,3/4,5/6,5/6,
{4}4/5,4/5,3/6,3/6,
{8}2/7,,2/7,,1/8,,1/8,1b/8b,
E

EXPERT

(135.0){8},,,,,,,3h[8:3],
{8},,4h[4:1],,3,,,6h[8:3],
{8},,5h[4:1],,6,,,2h[8:3],
{8},,1h[4:1],,2,,,7h[8:3],
{4},8h[4:1],7,,
{4}4/5,6,7,8,
{4}1/8,2,3,4,
{8},4/5,4/5,,1/8,1/8,,1^4[8:1]/8^5[8:1],{1},
{4}2h[4:1],1,7h[4:1],8,
{8}2h[4:1],,1,,4/5,4/5,,,
{4}7h[4:1],8,2h[1:1],7,
{4}4,7,4,,
{4}8h[2:1],1,2,8/4h[4:3],
{4}6,8,6,,
{8}3h[4:1],,,,2/3,1/2,,,
{8}6h[4:1],,,,6/7,7/8,,,
{4}2h[4:1],8,7h[4:1],1,
{8}2h[4:1],,8,,4/5,4/5,,,
{4}7h[4:1],1,2h[1:1],7,
{4}4,7,4,,
{4}8h[2:1],1,2,8/4h[4:3],
{4}6,8,6,,
{8}3h[4:1],,,,2/3,1/2,,,
{4}1/8,7/8,7,7p3[2:1],{1},
{4}2,7,6,3,
{4}4,3/4,5,5/6,
{1}1^6[4:1]/2p5[4:1],
{4}3,2/4,6,5/7,
{4}2,1/3,7,6/8>4[4:1],
{4},,7,6/8,
{4}2,1/3,6,5/7,
{2}4h[2:1],5<4[4:3],{1},
{4}5,6/7,4,2/3,
{1}7q4[4:1]/8^3[4:1],
{4}6,5/8,3,1/4,
{4}7,5/8,2,4/1<5[4:1],
{4},,2,4/8,
{4}7,1/5,2,4/8,
{2}5h[2:1],4>5[4:3],{1},
{4}7/8h[2:1],7,1,,
{4}5/4h[2:1],5,1,5,
{4}8,1-4[4:1],8,,
{4}2h[4:3],7h[2:1],,,
{4}1/8,1/8,4/5,4,
{8}6,,8,8-5[8:1],,,,,
{4}7/8,1/6,2/5,3/4>5[2:1],{1},
{4}5/6,4/7,3/8,1/2,
{4}3h[4:1],1,6h[4:1],8,
{8}2/7,,8/1-5[8:1],,7,7,,,
{4}6h[4:1],8,3h[4:1],1,
{4}1/8,1-5[8:1]/8-4[8:1],,,
{4}8h[2:1],1,2,8/4h[2:1],
{4}6,8^5[8:1],,,
{8}3h[4:1],,,,2b/3b,1b/2b,,,
{8}6h[4:1],,,,6b/7b,7b/8b,,,
{4}3h[4:1],2,6h[4:1],7,
{8}1/8,,1/8-4[8:1],,2,2,,,
{4}3h[4:1],2,6h[4:1],7,
{4}1/8,1-5[8:1]/8-4[8:1],,,
{4}8h[2:1],1,2,8/4h[2:1],
{4}6,8^5[8:1],,,
{8}3h[4:1],,,,2b/3b,1b/2b,,,
{8}6/8,,1/3,,6/8,,7,7p3[8:3],{1},
{4}6/7,6/7,2/3,2/3,
{8}6h[4:1],,,,6b/7b,7b/8b,,,
{8}1/3,,6/8,,1/3,,2,2q6[8:3],{1},
{8}1/3,,1/3,,6/8,,7,7p3[8:3],{1},
{8}4/5,,4/5,,1/8,,2/7,2q6[8:7]/7p3[8:7],{1},
{8},,,7/8,,5/6,,3/4,
{8},1/2,,,,,,,
{4}4/8,3/7,2-7[4:1]/6-3[4:1],,,
E

MASTER

(135.0){8},,,,,,,2/5h[4:1],
{8}3,2h[4:1],4,5h[4:1],4,2h[4:1],3,6h[4:1],
{8}4,3h[4:1],5,6h[4:1],5,3h[4:1],4,7h[4:1],
{8}5,4h[4:1],6,7h[4:1],6,4h[4:1],5,6h[4:1],
{8}4,3h[4:1],5,6h[4:1],5,3h[4:1],4,5,
{8}2/6,5,3/7,{12}4,{983}4,,,,,,,,,,,,,,,,,,,,,,,,,,,,,,,,,,,,,,,,,{8}6h[4:1],5,3h[4:1],4,
{8}7,4,2/6,{12}5,{983}5,,,,,,,,,,,,,,,,,,,,,,,,,,,,,,,,,,,,,,,,,{8}3h[4:1],4,6h[4:1],5,
{8}4h[8:3],3,3,5h[8:3],6,6,4,2/7,
{8},1/3,6/8,{16}3,4,2,,{983}5,,,,,,,,,,,,,,,,,,,,,,,,,,,,,,,,,,,,,,,,,{625}4,,,,,,,,,,,,,,,,,,,,,,,,,,{983}6,,,,,,,,,,,,,,,,,,,,,,,,,,,,,,,,,,,,,,,,,{8}5,8,
{8}5/7,8,4/5,1,2/4,8,4/5,1,
{8}3h[4:1],5,4h[4:1],2,5h[4:1],7,6h[4:1],1,
{8}4,2,4/5,7,3/5,2,4/5,7,
{8}6h[4:1],4,5h[4:1],7,4h[4:1],2,3h[4:1],8h[8:17],
{8},,4,,4,,,1,
{8}7,2,6,3,5h[4:1],,,5,
{8}4h[4:1],7,5h[4:1],8,4h[4:1],7,5h[4:1],8,
{8}4h[4:1],2,5h[4:1],1,4h[4:1],2,5,1,
{8}2/4,1,4/5,8,5/7,1,4/5,8,
{8}6h[4:1],4,5h[4:1],7,4h[4:1],2,3h[4:1],8,
{8}5,7,4/5,2,4/6,7,4/5,2,
{8}3h[4:1],5,4h[4:1],2,5h[8:3],7,1,8h[8:17],
{8},,4,,4,,,1,
{8}7,2,6,3,5h[4:1],,,4,
{8}3h[4:1],7,6h[4:1],8,3h[4:1],1,6h[4:1],2,
{8}3h[4:1],1,6h[4:1],8,3qq5[4:3],6pp4[8:5],,,{1},
{8}7h[4:1],1,3h[4:1],8,6h[4:1],1,2h[4:1],8,
{8}7h[4:1],8,1h[4:1],8,7h[8:3],8,1,2h[4:1],
{8}1,8h[4:1],1,2h[8:3],1,8,7h[4:1],8,
{8}2h[2:1],3,4,5,7h[2:1],6,5,4,
{8}3h[2:1],5,4,5,6h[4:3],4,5,3h[8:9],
{8},,,,,4,4,4h[8:5],
{8},5,5,5h[8:7],,6,6,6h[8:7],
{16},,,,,,5,4,3h[4:1],,,,,,3/6,,
{8}4/5,5h[8:1]/7h[8:1],,2h[8:1]/4h[8:1],,1h[8:1]/6h[8:1],,8/3h[8:5],
{8},4,2,4,6h[2:1],5,7,5,
{8}3h[2:1],5,1,5,6h[2:1],4,8,4,
{8}3h[4:1],5,5h[4:1],6,6h[4:1],4,4h[4:1],3,
{8}3h[4:1],5,5h[4:1],6,6h[8:1],4h[8:1],2h[2:1],7h[8:9],
{8},,,,,8,6,3h[8:5],
{8},2,4,6h[8:7],,7,5,2h[8:7],
{16},,,,,,1,8,7h[4:1],,,,,,,,
{8}6h[8:1],5h[8:1],4h[8:1],3h[8:1],4h[8:1],5h[8:1],6,1/8,
{8},4q2[16:3]/6<2[16:3],4/6,,,,,8/3q5[8:3],
{8},8h[8:3],,,,,3,7,
{8}2,8,1-4[4:1],1h[8:3],,,,,
{8}3qq5[8:3],6pp4[4:1],3,6,,,,7h[8:5],
{8},2,3,4,5h[8:7],,4,3,
{8}2,1,8,7h[4:1],,2h[4:1],,6h[2:1],
{8}8,4,2,3h[2:1],1,5,7,6qq3[8:11],{1},
{8},,,,,,,7h[8:3],
{8},2,5h[4:1],1,6h[4:1],8,3h[4:1],7,
{8}4h[4:1],2,3h[4:1],7,6h[8:3],8,1,2h[8:3],
{8},7,4h[4:1],8,3h[4:1],1,6h[4:1],2,
{8}5h[4:1],7,6h[4:1],2,3h[8:3],8,1,8h[8:15],
{8},,4,,4h[4:1],,,1,
{8}7,2,6,3,5h[2:1],,,1,
{8}1-5[8:1],1,2-4[8:1],2,7-5[8:1],7,8-4[8:1],8,
{8}7-4[8:1],7,2w6[8:1],2,,,,3qq5[8:3]/6pp4[8:3],
{8},3/6,,,,,,2h[4:1],
{8}3,7h[4:1],6,2h[4:1],3,7h[4:1],6,2h[8:3],
{8},4,4h[4:1],5,5h[4:1],6,6h[4:1],7,
{8}3h[4:1],2,6h[4:1],7,3h[8:3],2,1,8h[4:7],
{8},,4,,4h[4:1],,,1,
{8}7,2,6,3,5h[8:3],,1,6h[8:3],
{8},8,3qq5[8:3],6pp4[4:1],3,6,,,
{8},6/8,1/7,2/8,1/3,1/8,2/7,3qq5[8:3]/6pp4[8:3],{1},
{8}5h[4:1],2,4h[4:1],7,6h[8:3],8,1,3h[8:3],
{8},8,6pp4[8:3],3qq5[4:1],6,3,,,
{8},4/8,1/5,4/8,3-6[8:1]/7-2[8:1],2<6[8:5]/6>2[8:5],,,{1},
{8}3h[4:1],1,6h[4:1],8,1,8,3qq5[2:1],6pp4[8:3],{1},
{8}6h[4:1],8,3h[4:1],1,8,1,6pp4[2:1],3qq5[8:3],{1},
{8}3/4,2/5,1/6,7h[8:1]/8h[8:1],,1h[8:1]/2h[8:1],,3qq5[8:3]/6pp4[8:3],
{8},3/6,,,,,8,1,
{8}7h[4:1],6,2h[4:1],3,5h[8:3],1,7,3b,
E

Re:MASTER


名前:
コメント:

タグ:

+ タグ編集
  • タグ:
最終更新:2026年10月01日 20:33