アットウィキロゴ

ミラクル・ショッピング

アーティスト 田中マイミ

BPM EASY BASIC ADVANCED EXPERT MASTER Re:MASTER
167 2 5 7+ 10+ 12+ -

EXPERT MASTER Re:MASTER
譜面制作者 某S氏 はっぴー -

EASY


BASIC

(167.0){1},
{2}4,4,
{1}4,
{2}3,3,
{1}3,
{2}2,2,
{1}2,
{2}1,1,
{1}1/8,
{2}8,8,
{4}7,7,7,,
{2}6,6,
{4}5,5,5,,
{2}4,4,
{4}3,3,3,,
{2}2,2,
{4}1,1,1,,
{1}8h[1:1],,
{1}1h[1:1],,
{1}2h[1:1],,
{2}3,3,
{1}3/4,
{1}4h[1:1],,
{1}5h[1:1],,
{1}6h[1:1],,
{2}7,7,
{1}7/8,
{4}1,1,1,,
{4}8,8,8,,
{4}7,7,7,,
{4}6,6,5/6,,
{4}5,5,5,,
{4}4,4,4,,
{4}3,3,3,,
{4}2,2,1b/2b,,
{4}8,8,8,,
{4}1,1,1,,
{4}2,2,2,,
{4}3,3,3/4,,
{4}4,4,4,,
{4}5,5,5,,
{4}6,6,6,,
{4}7,7,7/8,,
{1}1-5[4:3],,
{1}8-4[4:3],,
{1}1-6[4:3],,
{1}8-3[4:3],,
{1}1h[1:1]/2h[1:1],,
{1}7h[1:1]/8h[1:1],,
{1}5h[1:1]/6h[1:1],,
{1}3h[1:1]/4h[1:1],,
{4}2b,2,2,,
{4}3,3,3,,
{4}4,4,4,,
{4}4/5,4/5,4/5,,
{4}6,6,6,,
{4}7,7,7,,
{4}8,8,8,,
{4}1/8,1/8,1b/8b,,
{4}2,2,2,,
{4}1,1,1,,
{4}8,8,8,,
{4}7/8,7/8,7/8,,
{4}6,6,6,,
{4}5,5,5,,
{4}4,4,4,,
{4}3/4,3/4,3/4,,
{4}2,2,2,,
{4}3,3,3/4,,
{4}4,4,4,,
{4}5,5,4/5,,
{4}6,6,6,,
{4}7,7,7/8,,
{4}8,8,8,,
{4}1,1,1/8,,
{2}8,8,
{2}1,1,
{2}1/8,1/8,
{4}1h[4:3]/8h[4:3],,,,
E

ADVANCED

(167.0){1},
{1}3>6[4:5],,
{1}6<3[4:5],,
{1}2>7[4:5],,
{1}1^4[1:1]/8^5[1:1],,
{4}4,4,3/4,,
{4}5,5,5/6,,
{4}3,3,3/4,,
{4}6,6,5/6,,
{4}2,2,1/2,,
{4}7,7,7/8,,
{4}1,1,1/8,,
{4}1/8,1/8,2/7,,
{4}3,4,3/4,,
{4}6,5,5/6,,
{4}3,3/4,6,5/6,
{2}4/7,1/8,
{4}2,1,1/2,,
{4}7,8,7/8,,
{4}2,1/2,7,7/8,
{2}1/6,4/5,
{4}6,5,5/6,,
{4}3,4,3/4,,
{4}6,5/6,3,3/4,
{2}2/5,1/8,
{4}7,8,7/8,,
{4}2,1,1/2,,
{1}1pp4[4:5]/8qq5[4:5],,
{4}3b/4b,3/4,1/2,,
{2}3h[4:1]/4h[4:1],1/2,
{4}5b/6b,5/6,7/8,,
{1}5-2[8:3]/6-1[8:3],
{4}2,1/2,7,7/8,
{4}1,1/8,1/8,1^4[8:5]/8^5[8:5],{1},
{4}4/5,4/5,3/6,,
{4}5b/6b,5/6,7/8,,
{2}5h[4:1]/6h[4:1],7/8,
{4}3b/4b,3/4,1/2,,
{1}3-8[8:3]/4-7[8:3],
{4}7,7/8,2,1/2,
{4}8,1/8,1/8,1^4[8:5]/8^5[8:5],{1},
{4}4,5,4/5,4^1[4:3]/5^8[4:3],{1},
{2},1/8,
{4}2h[2:1],1,1,,
{4}3h[2:1],4,4,,
{4}6h[2:1],5,5,,
{4}7h[2:1],8,8,,
{4}2,1,1/2,,
{4}7,8,7/8,,
{1}7<2[4:5],,
{1}2>7[4:5],,
{1}6<3[4:5],,
{1}4^1[1:1]/5^8[1:1],,
{4}5b/6b,5/6,7/8,,
{2}5h[4:1]/6h[4:1],7/8,
{4}3b/4b,3/4,1/2,,
{1}3-8[8:3]/4-7[8:3],
{4}7,7/8,2,1/2,
{4}8,1/8,1/8,1^4[8:5]/8^5[8:5],{1},
{4}4/5,4/5,3/6,,
{4}3b/4b,3/4,1/2,,
{2}3h[4:1]/4h[4:1],1/2,
{4}5b/6b,5/6,7/8,,
{1}5-2[8:3]/6-1[8:3],
{4}2,1/2,7,7/8,
{4}1,1/8,1/8,1^4[8:5]/8^5[8:5],{1},
{4}5,4,4/5,4^1[4:3]/5^8[4:3],{1},
{2},1/8,
{4}7h[2:1],8,8,,
{4}6h[2:1],5,5,,
{4}3h[2:1],4,4,,
{4}2h[2:1],1,1,,
{4}7,8,7/8,,
{4}2,1,1/2,,
{2}3h[2:1],4h[2:1],
{2}5,3/6,
{2}6h[2:1],5h[2:1],
{4}4-8[2:1],,,,
E

EXPERT

(167.0){1},
{4}3h[4:1],4,6h[4:1],5,
{4}3h[4:1],4,6h[4:1],5,
{4}2h[4:1],4,7h[4:1],5,
{4}2h[4:1],4,7h[4:1],5,
{4}1h[4:1],3,8h[4:1],6,
{4}1h[4:1],3,8h[4:1],6,
{4}1/8,2/7,3/6,4^1[12:5]/5^8[12:5],
{4},,,2b/7b,
{4}1q6[4:1]/2^5[4:1],,,2/7,
{4}7^4[4:1]/8p3[4:1],,,2/7,
{4}4/5,2/8,4/5,1/7,
{4}4/5,2/8,4/5,1/7,
{4}5/3h[4:1],1,4/6h[4:1],8,
{4}5/3h[4:1],1,4/6h[4:1],8,
{1}4qq1[2:1]/5pp8[2:1],
{1}1b^4[4:1]/8b^5[4:1],
{4}3h[4:1],4h[4:1],5,1/7,
{4}6h[4:1],5h[4:1],4,2/8,
{4}3/4,3/5,5/6,4/6,
{1}3-8[4:1]/4-7[4:1],
{4}6h[4:1],5h[4:1],4,2/8,
{4}3h[4:1],4h[4:1],5,1/7,
{4}5/6,4/6,3/4,3/5,
{1}5-2[4:1]/6-1[4:1],
{4}4/3h[2:1],5,4,2/7,
{4}5/6h[2:1],4,5,2/7,
{4}3/4,2/5,5/6,4/7,
{1}3^8[4:1]/4^7[4:1],
{4}5/6h[2:1],4,5,2/7,
{4}4/3h[2:1],5,4,2/7,
{1}5^2[4:1]/6^1[4:1],
{1}7^4[4:1]/8^3[4:1],
{4}3/5,4/6,5/3h[4:1],5,
{12}1/8h[1999:833],,,,,1,,,,2/7,,,
{12}4/5,,,4/5,,,,,{3}4qq1[12:7]/5pp8[12:7],{1},
{4}2,1/3,7,6/8,
{4}3,2/4,6,5qq3[2:1]/7>3[2:1],{1},
{4}1/8,4/5,2b/7b,,
{4}4/6,3/5,4/6h[4:1],4,
{12}8/1h[1999:833],,,,,8,,,,2/7,,,
{12}4/5,,,4/5,,,,,{3}4qq1[12:7]/5pp8[12:7],{1},
{4}3,2/4,6,5/7,
{4}2,1/3,7,8/6pp3[2:1],{1},
{4}1,2/8,8,1/7,
{4}2h[4:1],1,7h[4:1],8,
{4}2h[4:1],1,7h[4:1],8,
{4}3h[4:1],1,6h[4:1],8,
{4}3h[4:1],1,6h[4:1],8,
{4}4h[4:1],1,5h[4:1],8,
{4}4h[4:1],1,5h[4:1],8,
{4}3h[4:1],2,6h[4:1],7,
{4}3h[4:1],2,6h[4:1],7,
{1}1^4[4:1],
{1}5^8[4:1],
{1}8^5[4:1],
{1}4^1[4:1],
{1}1^4[4:1]/5^8[4:1],
{1}4^1[4:1]/8^5[4:1],
{1}1>8[2:1],
{12}1h[1999:833],,,,,8,,,,2b/7b,,,
{4}5/6,3/4,5/6h[4:1],7,
{12}1h[1999:833],,,,,8,,,1,8,,,
{12}4/5,,,4/5,,,,,{3}4qq1[12:7]/5pp8[12:7],{1},
{4}7,6/8,2,1/3,
{4}6,5/7,3,2<6[2:1]/4pp6[2:1],{1},
{4}1/8,4/5,2b/7b,,
{4}3/4,5/6,4/3h[4:1],2,
{12}1/8h[1999:833],,,,,1,,,8,1,,,
{12}4/5,,,4/5,,,,,{3}4qq1[12:7]/5pp8[12:7],{1},
{4}6,5/7,3,2/4,
{4}7,6/8,2,1/3qq6[2:1],{1},
{4}7/8,1/6,1/2,3/8,
{1}7qq4[4:3]/8pp3[4:3],
{4},,2,1/8,
{4}7,8,1/6,1/6,
{4}2,1,3/8,3/8,
{1}1qq6[4:3]/2pp5[4:3],
{4},,4,4/5,
{4}6,5,4/7,4/7,
{4}3,4,2b/5b,,
{12}3/4,,,2/5,,3,4,,,2/5,,,
{12}5/6,,,4/7,,6,5,,,4/7,,,
{12}4/5,,4,5,,5,4,,4,5,,5,
{12}4h[1999:833],,,,,5,,,,2b/7b,
E

MASTER

(167.0){12},,,,,,4,,4,5,,6/3h[3:4],
{12},,,4,,6,6,,,4,,6,
{12}6,,,4,,,5,,5,4,,3/6h[3:4],
{12},,,5,,3,3,,,5,,3,
{12}3,,,5,,,4,,4,5,,7/2h[3:4],
{12},,,4,,6,6,,,4,,6,
{12}6,,,4,,,5,,5,4,,2^4[8:1]/7^5[8:1],
{12},,,,,,5,,5,4,,4,
{12}3b/6b,,,5,,1/6,,,2,3/8,,,
{4}6/5-3[8:1],7,5/4-2[8:1],7,
{4}6/5^3[8:1],7,5/4^2[8:1],7,
{4}6/5-2[8:1],7,6/5-1[8:1],8,
{4}6/5^2[8:1],7,6/5p1[8:1],8,
{12}4/7,,6,5,,,2/5,,3,4,,2/7,
{12}2/7,,5,4,,4,5,,5,4/6,,,
{12}2/5,,3,4,,,4/7,,6,5,,2b/7b,
{12}2/7,,3/4,3-8[8:1]/4-7[8:1],,,,,,1b,,,
{4}3^6[8:1],8,6^3[8:1],1,
{4}3^6[8:1],1,6^3[8:1],8,
{4}2qq7[2:1],6,5,4,
{4}7pp2[2:1],3,4,5,
{4}6^3[8:1],1,3^6[8:1],8,
{4}6^3[8:1],8,3^6[8:1],1,
{4}7pp2[2:1],3,4,5,
{4}2qq7[2:1],6,5,4,
{4}2^7[8:1],5,7^2[8:1],4,
{4}2^7[8:1],4,7^2[8:1],5,
{4}3pp6[2:1],7,8,1,
{4}6qq3[2:1],2,1,8,
{4}7h[4:1],8,2h[4:1],1,
{1}2pp8[2:1]/7qq1[2:1],
{12}3,{995}4,,,,,,,,,,,,,,,,,,,,,,,,,,,,,,,,,,,,,,,,,,,,,,,,,,,,,,,,,,,,,,,,,,,,,,,,,,,,,,,,,,,{12}3,6,{995}5,,,,,,,,,,,,,,,,,,,,,,,,,,,,,,,,,,,,,,,,,,,,,,,,,,,,,,,,,,,,,,,,,,,,,,,,,,,,,,,,,,,{12}6,3,{995}4,,,,,,,,,,,,,,,,,,,,,,,,,,,,,,,,,,,,,,,,,,,,,,,,,,,,,,,,,,,,,,,,,,,,,,,,,,,,,,,,,,,{12}2,6,{995}5,,,,,,,,,,,,,,,,,,,,,,,,,,,,,,,,,,,,,,,,,,,,,,,,,,,,,,,,,,,,,,,,,,,,,,,,,,,,,,,,,,,{12}7,
{12}1,,2/8,,,1/7,,,4/5,4/5,,,
{12}7b-3[8:1]/8b-5[8:1],,,7b/8b,,,1b/2b,,3,4,,,
{12}2b/4b,,4b/5b,,,7h[4:1]/8h[4:1],,,,7-3[8:1]/8-5[8:1],,,
{12}7b/8b,,,1b/2b,,,3/6,,4,5<4[2:1],,,
{4},,,2/5,
{4}6/5-8[8:1],7,3/4-1[8:1],2,
{2}6/5-1[8:1]*-7[8:1],3/4-2[8:1]*-8[8:1],
{4}1/8,4/5,3/6,2/7,
{4}1^4[8:1]/8^5[8:1],,2b/7b,4/5,
{12}7b-3[8:1]/8b-5[8:1],,,7b/8b,,,1b/2b,,3,4,,,
{12}3b/5b,,4b/6b,,,7h[4:1]/8h[4:1],,,,7-3[8:1]/8-5[8:1],,,
{12}7b/8b,,,1b/2b,,,3/6,,5,4>5[2:1],,,
{4},,,4/7,
{4}4/3p6[8:1],5,5/6q3[8:1],4,
{4}4/3^8[8:1],7,5/6,7-3[8:1]/8-5[8:1],
{4},1/2,7h[4:1]/5-2[8:1],,
{4}2-7[8:1]/6-3[8:1],,1-5[8:1],8<1[4:3],{1},
{12}1h[4:1]/2h[4:1],,,,,7h[4:1]/8h[4:1],,,,4/5,,,
{4}2/7,4/5,1^4[2:1]/6^1[2:1],,
{4},,,7-3[4:1]/8-5[4:1],
{4},,1b/2b,7/8,
{1}1/2qq7[2:1],
{12}2/7,,1,8,,,2/7,,,1b/8b,,,
{12}7h[4:1]/8h[4:1],,,,,1h[4:1]/2h[4:1],,,,4/5,,,
{4}1^4[4:1],4^7[4:1],7^2[4:1],2^5[4:1],
{4}5^8[4:1],8^3[4:1],3,6,
{4}8^5[4:1],5^2[4:1],2^7[4:1],7^4[4:1],
{4}4^1[4:1],1^6[4:1],6,3,
{4}1>5[4:1],5<1[4:1],1>5[4:1],5<1[4:1],
{4}1>5[4:1],5<1[4:1],1,5,
{4}8<4[4:1],4>8[4:1],8<4[4:1],4,
{12}8,,,3/4,,2/5,,,6,5/7,,,
{12}7bp3[8:1]/8b-5[8:1],,,7b/8b,,,1b/2b,,3,4,,,
{12}3b/5b,,1b/3b,,,7h[4:1]/8h[4:1],,,,7p3[8:1]/8-5[8:1],,,
{12}7b/8b,,,1b/2b,,,3/6,,4,5pp2[2:1],,,
{4},,,4-1[8:1]/5-8[8:1],
{4},4-1[8:1]/5-8[8:1],,4-1[8:1]/5-8[8:1],
{4},4h[6:1]/5h[6:1],4h[6:1]/5h[6:1],4/5,
{4}6b<3[2:1],5,5,4,
{4}2-5[8:1]/7-4[8:1],,1b/8b,6/4^2[8:1],
{4}5b,7b/4^1[8:1],5b,7/5pp8[2:1],
{4}6,,,5-8[8:1]/6-3[8:1],
{12}5b/6b,,,1b/2b,,,3/6,,5,4qq7[2:1],,,
{4},,,3/6V83[4:1],
{4}4,,1/2,8-6[4:1],
{4}6z2[8:3],1,1,8h[4:1]/1q5[4:1],
{4},,4/5,2/7,
{4}7b-3[8:1]/8b-5[8:1],7b/8b,1b/2b,3b/8b,
{2}1v4[8:1]/7v4[8:1],3-5[8:1]/6-2[8:1],
{2}1v4[8:1]/7v4[8:1],3-5[8:1]/6-2[8:1],
{2}2v5[8:1]/8v5[8:1],3-7[8:1]/6-4[8:1],
{2}2v5[8:1]/8v5[8:1],3-7[8:1]/6-4[8:1],
{2}2-4[8:1]/8-6[8:1],2-5[8:1]/8-5[8:1],
{2}8/1q6[8:1],8/1<4[8:1],
{2}1v4[8:1]/7v4[8:1],3-5[8:1]/6-2[8:1],
{1}4>5[2:1],
{12}3,,3,4,,4,5,,5,6,,6,
{12}5,,5,4qq5[8:3],,4,3,,,,,,
{12}6,,6,5,,5,4,,4,3,,3,
{12}2/4,,,5/6,,4/7,,,2/7,2b/7b,
E

Re:MASTER


名前:
コメント:

タグ:

+ タグ編集
  • タグ:
最終更新:2026年10月01日 20:34