| アーティスト |
uno(IOSYS) feat.miko |
EASY
BASIC
(190.0){1},,,,
{2}3,3,
{1}3/4,
{2}6,6,
{1}5/6,
{2}3,3,
{1}3/4,
{2}6,6,
{1}5/6,
{2}4,4,
{2}3/4,3/4,
{2}2,2,
{1}1/8,
{2}8,8,
{2}7/8,7/8,
{2}6,6,
{1}4/5,
{2}5,5,
{2}5/6,5/6,
{2}7,7,
{1}1/8,
{2}1,1,
{2}1/2,1/2,
{2}3,3,
{1}4/5,
{1}6-3[4:3],,
{1}2-7[4:3],,
{1}8-5[4:3],,
{1}4-1[4:3],,
{2}8,8,
{2}1,1,
{2}1/8,1/8,
{4}1/8,1/8,1b/8b,,
{4}8,8,1/8,,
{4}7,7,7/8,,
{4}6,6,5/6,,
{4}5,5,4/5,,
{4}3,3,3/4,,
{4}2,2,1/2,,
{2}1/8,1/8,
{2}2/7,2/7,
{4}1,1,1/8,,
{4}2,2,1/2,,
{4}3,3,3/4,,
{4}4,4,4/5,,
{4}6,6,5/6,,
{4}7,7,7/8,,
{2}1/8,1/8,
{2}2/7,2b/7b,
{1}1-4[4:3],,
{1}3-6[4:3],,
{1}5-8[4:3],,
{1}7-2[4:3],,
{2}1/2,1/2,
{4}1/2,1/2,1/2,,
{2}7/8,7/8,
{4}7/8,7/8,7/8,,
{2}5/6,5/6,
{4}5/6,5/6,5/6,,
{2}3/4,3/4,
{4}3/4,3/4,3/4,,
{1}5h[1:1]/6h[1:1],,
{4}7,7,7/8,,
{4}8,8,1/8,,
{4}2,2,1/2,,
{4}3,3,3/4,,
{2}4/5,4/5,
{2}3/6,3/6,
{4}4,4,4/5,,
{4}6,6,5/6,,
{4}7,7,7/8,,
{4}8,8,1/8,,
{4}2,2,1/2,,
{4}3,3,3/4,,
{2}4/5,4/5,
{2}3/6,2b/7b,
{4}8,8,7,7,
{4}6,6,5,,
{4}4,4,3,3,
{4}2,2,1,,
{4}1,1,2,2,
{4}3,3,4,,
{4}5,5,6,6,
{4}7,7,8,,
{4}1/8,,1/8,1/8,
{1}1-4[4:3]/8-5[4:3],,
E
ADVANCED
(190.0){2}6h[2:1],5,
{2}3h[2:1],4,
{2}6h[2:1],5,
{4}3/4,3/4,2/5,,
{4}6,6,5,5,
{4}3/4,3/4,2/5,,
{4}3,3,4,4,
{4}5/6,5/6,4/7,,
{4}6,6,5,5,
{4}3/4,3/4,2/5,,
{4}3,3,4,4,
{4}4/5,3/6,2/7,,
{4}8,8,7,7,
{4}6,6,5/6,5/6,
{4}3,3,4,4,
{4}3/4,3/4,2/5,,
{4}1,1,2,2,
{4}3,3,3/4,3/4,
{4}6,6,5,5,
{4}5/6,5/6,4/7,,
{4}5,5,6,6,
{4}7,7,7/8,7/8,
{4}2,2,1,1,
{4}1/2,1/2,3/8,,
{4}4,4,3,3,
{4}2,2,1/2,1/2,
{4}7,7,8,8,
{4}7/8,7/8,1/6,,
{2}3h[2:1],4,
{2}6h[2:1],5,
{4}1/8,2/7,3/6,4^1[2:1]/5^8[2:1],{1},
{2}6h[2:1],5,
{2}3h[2:1],4,
{4}5,5,6,6,
{4}7/8,7/8,1/6,,
{4}4,4,3,3,
{4}1/2,1/2,3/8,,
{2}1h[4:3],8h[4:1],
{4}1/8,1/8,2b/7b,,
{4}6,5/6,3,3/4,
{4}1/2,3/8,4/7,,
{4}3,3/4,6,5/6,
{4}7/8,1/6,2/5,,
{4}7,7/8,2,1/2,
{4}3/4,2/5,1/6,,
{2}8-4[4:1],1-5[4:1],
{4}8h[2:1],,1,2/7,
{4}3,3/4,6,5/6,
{4}7/8,1/6,2/5,,
{4}6,5/6,3,3/4,
{4}1/2,3/8,4/7,,
{4}2,1/2,7,7/8,
{4}5/6,4/7,3/8,,
{2}4h[4:3],5h[4:1],
{4}4/5,3/6,2/7,,
{1}6h[1:1],
{1}5h[1:1],
{1}4h[1:1],
{2}3,2/5,
{1}3h[1:1],
{1}4h[1:1],
{1}5h[1:1],
{2}6,4/7,
{4}6,6,5/6,5/6,
{4}3,3,3/4,3/4,
{4}6,6,5/6,4/7,
{4}3,3,3/4,2/5,
{2}5h[4:1]/6h[4:1],5h[4:1]/6h[4:1],
{2}3h[4:1]/4h[4:1],3h[4:1]/4h[4:1],
{1}4^1[2:1]/5^8[2:1],
{1}1^4[2:1]/8^5[2:1],
{1}4h[1:1]/5h[1:1],,
{4}7,7/8,2,1/2,
{4}3/4,2/5,1/6,,
{4}3,3/4,6,5/6,
{4}7/8,1/6,2/5,,
{2}4-1[4:1],5-8[4:1],
{4}4h[2:1],,5,3/6,
{4}7,7/8,2,1/2,
{4}3/4,2/5,1/6,,
{4}2,1/2,7,7/8,
{4}5/6,4/7,3/8,,
{4}6,5/6,3,3/4,
{4}1/2,3/8,4/7,,
{2}8h[4:3],1h[4:1],
{4}1/8,2/7,3/6,,
{4}6,5/7,3,2/4,
{4}1/8,2/7,3/6,4/5,
{4}3,2/4,6,5/7,
{4}1/8,2/7,3/6,4/5,
{4}7,6/8,2,1/3,
{4}4/5,3/6,2/7,1/8,
{4}2,1/3,7,6/8,
{4}4/5,3/6,2/7,1^4[2:1]/8^5[2:1],{1},
{4}2/7,2b/7b,
E
EXPERT
(190.0){2}2h[2:1],1,
{2}7h[2:1],8,
{4}2h[4:1],1,7h[4:1],8,
{4}3/6,2/7,1-4[8:1]/8-5[8:1],,
{4}6h[2:1],8,3h[2:1],1,
{4}6h[2:1],8,5,3/8,
{4}3h[2:1],1,6h[2:1],8,
{4}3h[2:1],1,4,1/6,
{4}6h[2:1],8,3h[2:1],1,
{4}6h[2:1],8,5,3/8,
{4}3h[2:1],1,6h[2:1],8,
{4}3,4-1[8:1]/5-8[8:1],,2b/7b,
{4}1-5[8:1]/2-4[8:1],,7/8,1/6,
{4}3/5,4/6,2/8,1/7,
{4}3,2/4,6,5/7,
{4}1,2^7[4:1]/3p6[4:1],,,
{2}5/6^1[8:1],4/3^8[8:1],
{4}4/5,2/7,1/6,3/8,
{4}1/7h[4:1],6,8/2h[4:1],3,
{4}1/8,4/5,2/7,8b,
{4}7-5[8:1]/8-4[8:1],,1/2,3/8,
{4}4/6,3/5,1/7,2/8,
{4}6,5/7,3,2/4,
{4}8,6q3[4:1]/7^2[4:1],,,
{2}1/2^5[8:1],8/7^4[8:1],
{4}1-4[8:1]/8-5[8:1],,3/8,1/6,
{4}5/3h[4:1],2,4/6h[4:1],7,
{4}1/8,4/5,2/7,1b,
{8}6h[2:1],,,5,5,,2/8,,
{8}3h[2:1],,,4,4,,1/7,,
{4}6,5/7,3,4/2^7[4:1],
{2},2/7,
{8}3h[2:1],,,4,4,,1/7,,
{8}6h[2:1],,,5,5,,2/8,,
{8}3,,3/4,,6,6,5,,
{4}7h[4:1],8,2h[4:1],1,
{4}3/4,1/2,7/8,5/6,
{1}5qq4[8:3]/6pp7[8:3],
{2}4/3-8[8:1],5/6-1[8:1],
{4}2/4,4/6,1b/7b,,
{4}8,5/7,1,2/4,
{8}6,6,5,,3/7-4[8:1],,,,
{4}1,2/4,8,5/7,
{8}3,3,4,,6/2-5[8:1],,,,
{4}8,5/7,1,2/4,
{8}6,6,5,,3/7-1[8:1],,,,
{4}3,1/7,6,2/8,
{8}4/5,,2h[4:1]/7h[4:1],,,1b/8b,1b/8b,,
{4}1,2/4,8,5/7,
{8}3,3,4,,6/2-6[8:1],,,,
{4}8,5/7,1,2/4,
{8}6,6,5,,3/7-3[8:1],,,,
{4}1/2,3/8,4/7,5/6,
{4}3/4,7^4[4:1]/8^3[4:1],,,
{2}3h[4:3],6h[4:1],
{4}4/5,1/8,2b/7b,,
{4}6,5,4,3,
{4}2/4,3,5/7,6,
{4}3,4,5,6,
{4}5/7,6,2/4,3,
{4}6,5,4,3,
{4}2/5,3/4,4/7,5/6,
{4}3,3/4,6,5/6,
{4}2/4,5/7,1/8,,
{2}5/6-8[8:1],5/6-8[8:1],
{2}4/3-1[8:1],4/3-1[8:1],
{2}5/6-8[8:1],5/6-8[8:1],
{2}4/3-1[8:1],4/3-1[8:1],
{2}6/5-8[8:1],6/5-8[8:1],
{2}3/4-1[8:1],3/4-1[8:1],
{1}5q4[2:1]/6<4[2:1],
{1}3>5[2:1]/4p5[2:1],
{1}2/7,
{4},,,3/6,
{4}5,6/8,4,1/3,
{8}6,6,5,,3/7^2[8:1],,,,
{4}4,1/3,5,6/8,
{8}3,3,4,,6/2^7[8:1],,,,
{4}6,2/8,3,1/7,
{8}4/5,,2h[4:1]/7h[4:1],,,1b/8b,1b/8b,,
{4}5,6/8,4,1/3,
{8}6,6,5,,3/7^2[8:1],,,,
{4}4,1/3,5,6/8,
{8}3,3,4,,6/2^7[8:1],,,,
{4}5/6,4/7,3/8,1/2,
{4}3/4,5^2[4:1]/6^1[4:1],,,
{2}6h[4:3],3h[4:1],
{4}4/5,1/8,2b/7b,,
{2}8/1-6[8:1],1/8-3[8:1],
{4}1^6[8:1]/2^5[8:1],,3/8,1/6,
{2}1/8-3[8:1],8/1-6[8:1],
{4}7^4[8:1]/8^3[8:1],,1/6,3/8,
{2}8/1-5[8:1],1/8-4[8:1],
{4}1q6[8:1]/2^5[8:1],,3/8,1/6,
{2}1/8-4[8:1],8/1-5[8:1],
{4}7^4[8:1]/8p3[8:1],,1/6,3/8,
{8}1/2,1/2,,7/8,7/8,,4/5,4/5,
{8},,2b/7b,2b/7b,
E
MASTER
(190.0){4}6h[2:1]/3^8[4:1],,,4/5,
{4}3h[2:1]/6^1[4:1],,,4/5,
{2}1/2^5[8:1],8/7^4[8:1],
{8}3/6,2/7,1/8,,2b/7b,8,1,5,
{2}3q8[8:1]/4^7[8:1],5^2[8:1]/6p1[8:1],
{4}3q8[8:1]/4^7[8:1],,4/5,2/8,
{2}5^2[8:1]/6p1[8:1],3q8[8:1]/4^7[8:1],
{4}5^2[8:1]/6p1[8:1],,4/5,1/7,
{2}3^8[8:1]/4p7[8:1],5q2[8:1]/6^1[8:1],
{4}3^8[8:1]/4p7[8:1],,4/5,2/8,
{2}5q2[8:1]/6^1[8:1],3^8[8:1]/4p7[8:1],
{4}4/5,1^4[8:1]/8^5[8:1],,2b/7b,
{8}3,4,6,5,4-1[8:1]*-7[8:1],,,,
{8}8h[4:1],,1,1,3/8,,1/6,,
{8}6q3[8:1]/7^2[8:1],,,,4/5,3/6,2/7,,
{8}3/6h[2:1],,8,8,3h[4:1],,1,,
{8}5,6,4,3,5-2[8:1]*-8[8:1],,,,
{8}1h[4:1],,8,8,1/6,,3/8,,
{2}5^2[8:1]/6^1[8:1],3^8[8:1]/4^7[8:1],
{8}2/7,3/6,4-1[8:1]/5-8[8:1],,,,2b/7b,,
{8}6,5,3,4,5-2[8:1]*-8[8:1],,,,
{8}1h[4:1],,8,8,1/5,,4/8,,
{2}5^2[8:1]/6^1[8:1],3^8[8:1]/4^7[8:1],
{4}2p5[4:1]*q7[4:1],,,2b/7b,
{8}3,4,6,5,4/5,,8/1-4[8:1],,
{4}8-5[8:1],1-4[8:1],8b,2b/7b,
{4}3h[8:1]/4h[8:1],5h[8:1]/6h[8:1],3-8[8:1]/4-7[8:1],,
{8}3/8,4/7,5-2[8:1]/6-1[8:1],,,,3b/8b,,
{8}2h[4:1]/7^4[8:1],,,2,1/2,,3/8,,
{8}7h[4:1]/2^5[8:1],,,7,7/8,,1/6,,
{4}3,2/4,6,7/5>6[8:3],
{4},,2/8,4/5,
{8}1h[4:3],,,5,5h[4:1],,,,
{1}1pp4[2:1]/5pp8[2:1],
{2}7-3[8:1]/8-2[8:1],1-5[8:1],
{4}3h[4:1]/8V63[4:1],,,8-2[8:1],
{4}5V37[4:1],,,3q4[4:3]/4<3[4:3],{1},
{2}5-2[8:1]/6-1[8:1],3-8[8:1]/4-7[8:1],
{16}2/7,,1,8,1,,2/7,,3b/6b,,,,,,,,
{8}1^6[8:1]/2^5[8:1],,,,7,8,1>5[4:1],,
{4}5<1[4:1],1,5,3/8,
{2}3-1[8:1]/4-6[8:1],5-3[8:1]/6-8[8:1],
{8}4/3p6[4:1]*>7[4:1],,,,,8b,8b,,
{8}4-1[8:1]/5-8[8:1],,,,3/6,2/7,1^4[8:1]/8^5[8:1],,
{4},1v4[8:1]/8-5[8:1],,2b/7b,
{2}3-8[8:1]/4-7[8:1],5-2[8:1]/6-1[8:1],
{8}4-1[8:1]/5-8[8:1],,,,1/8,2b/7b,2b/7b,,
{8}7^4[8:1]/8^3[8:1],,,,2,1,8<4[4:1],,
{4}4>8[4:1],8,4,1/6,
{2}5-3[8:1]/6-8[8:1],3-1[8:1]/4-6[8:1],
{8}5/6<2[4:1]*q3[4:1],,,,,1b,1b,,
{8}4h[4:1],,1h[4:1],,6,6V42[4:1]*V82[4:1],,,
{8},,4/8,,1/2,3/8,4/7,,
{2}6/3^6[8:1],2/7^2[8:1],
{2}1v4[8:1]/7v4[8:1],2b/8b,
{8}6h[4:1],,,5h[4:1]/7h[4:1],,,6,4,
{8}3h[4:1],,,2h[4:1]/4h[4:1],,,3,5,
{8}7h[4:1],,,6h[4:1]/8h[4:1],,,7,5,
{8}3,3,2/4,,6,6,5/7,,
{8}3h[4:1],,,2h[4:1]/4h[4:1],,,3,5,
{8}6h[4:1],,,5h[4:1]/7h[4:1],,,6,6,
{8}7h[4:1]/8h[4:1],,,,1/2,1/2,3/8,,
{4}7/8,3/4,3b/8b,4/5,
{4}5/3-8[8:1],4,5/3-8[8:1],4,
{4}4/6-1[8:1],5,4/6-1[8:1],5,
{4}5/3-8[8:1],4,5/3-8[8:1],4,
{4}4/6-1[8:1],5,4/6-1[8:1],5,
{4}5/3-7[8:1],4,5/3-7[8:1],4,
{4}4/6-2[8:1],5,4/6-2[8:1],5,
{1}4qq1[2:1]*q7[2:1],
{1}5p2[2:1]*pp8[2:1],
{1}2b/7b,
{4},,,4/5,
{2}5^3[8:1]/6^8[8:1],3^1[8:1]/4^6[8:1],
{8}5/6<2[4:1]*q3[4:1],,,,,1b,1b,,
{8}4-1[8:1]/5-8[8:1],,,,2/7,3/6,4^1[8:1]/5^8[8:1],,
{4},4v1[8:1]/5-8[8:1],,2b/7b,
{2}3-8[8:1]/4-7[8:1],5-2[8:1]/6-1[8:1],
{8}4-1[8:1]/5-8[8:1],,,,1/8,2b/7b,2b/7b,,
{8}1^6[8:1]/2^5[8:1],,,,7,8,1>5[4:1],,
{4}5<1[4:1],1,5,3/8,
{2}3-1[8:1]/4-8[8:1],5-1[8:1]/6-8[8:1],
{4}4/3>7[4:1],5,6h[4:1],8b,
{8}5h[4:1],,8h[4:1],,3,3V17[4:1]*V57[4:1],,,
{8},,1/5,,7/8,1/6,2/5,,
{2}3/6^3[8:1],7/2^7[8:1],
{4}2v5[8:1]/8v5[8:1],,1b/7b,6/3-1[8:1],
{4}6-8[8:1],4-8[8:1],5-1[8:1],4,
{4}3^8[8:1]/4^7[8:1],,1/6,4b/6b-8[8:1],
{4}3-1[8:1],5-1[8:1],4-8[16:3],5,
{4}5^2[8:1]/6^1[8:1],,3/8,5b/3b-1[8:1],
{4}6-8[8:1],4-8[8:1],5-1[8:1],4,
{4}3^8[8:1]/4^7[8:1],,1/6,4b/6b-8[8:1],
{4}3-1[8:1],5-1[8:1],4-8[8:1],5,
{4}5^2[8:1]/6^1[8:1],,3/8,3b/5b,
{8}5/6,5/6,,3/4,3/4,,4-1[8:1]/5-8[8:1],4/5,
{8},,2b/7b,2b/7b,
E
Re:MASTER
最終更新:2026年10月01日 20:34