アットウィキロゴ

おじゃま虫

アーティスト DECO*27

BPM EASY BASIC ADVANCED EXPERT MASTER Re:MASTER
143 1 2 6 9+ 12 -

EXPERT MASTER Re:MASTER
譜面制作者 -

EASY


BASIC

(143.0){1},
{1}1,
{1}2,
{1}3,
{1}4,
{1}5,
{1}6,
{1}7,
{1}8,,
{1}1/2,
{1}1/2,
{1}7/8,
{1}7/8,
{1}1/8,
{1}1/8,
{1}8,
{1}8,
{2}7,7,
{1}7,
{1}6,
{1}6,
{2}5,5,
{1}5,
{1}4,
{1}4,
{2}3,3,
{1}3,
{1}2,
{1}2,
{2}1,1,
{1}1,
{1}1h[1:1]/8h[1:1],,
{2}1,1,
{2}2,2,
{2}3,3,
{2}4,4,
{2}5,5,
{2}6,6,
{2}7,7,
{2}8,8,
{2}1,8,
{1}1b/8b,
{2}8,8,
{4}7,7,7,,
{2}6,6,
{4}5,5,5,,
{2}4,4,
{4}3,3,3,,
{2}2,2,
{4}1,1,1,,
{1}2/7,
{1}1-4[4:3],,
{1}8-5[4:3],,
{1}4-1[4:3],,
{1}5-8[4:3],,
{2}1,1,
{4}2,2,2,,
{2}3,3,
{4}4,4,4,,
{2}5,5,
{4}6,6,6,,
{2}7,7,
{4}8,8,8,,
{4}1,1,1,,
{4}3,3,3,,
{4}5,5,5,,
{4}7,7,7,,
{4}8,8,8,,
{4}6,6,6,,
{4}4,4,4,,
{4}2,2,2b,
E

ADVANCED

(143.0){1},
{1}1h[2:1]/2h[2:1],
{1}7h[2:1]/8h[2:1],
{4}2,2,4,4,
{4}6,6,8,8,
{1}7h[2:1]/8h[2:1],
{1}1h[2:1]/2h[2:1],
{4}7,7,5,5,
{1}3-6[4:1],
{1}8-5[4:1],
{1}1^4[4:1],
{1}5^8[4:1],
{1}2-5[4:1],
{1}8-5[4:1],
{1}1-7[4:1]/2-6[4:1],
{1}3-5[4:1]/7-5[4:1],
{4}1,1,2,2,
{4}3,3,4,4,
{4}8,8,7,7,
{4}6,6,5,5,
{4}3,4,5,6,
{4}6,5,4,3,
{4}1,1,8,8,
{2}1h[4:1]/8h[4:1],2b/7b,
{4}8,8,7,7,
{4}6,6,5,5,
{4}1,1,2,2,
{4}3,3,4,4,
{4}6,5,4,3,
{4}3,4,5,6,
{4}8,8,1,1,
{4}1/8,1/8,2/7,2/7,
{1}1h[1:1]/8h[1:1],
{2},1b/8b,
{4}2h[2:1],1,1,,
{4}7h[2:1],8,8,,
{4}3h[2:1],4,4,,
{4}6h[2:1],5,5,,
{4}4h[2:1],3,3,,
{4}5h[2:1],6,6,,
{1}4^1[8:5]/5^8[8:5],
{2},1/8,
{2}1/2,7/8,
{4}4/5,4/5,3b/6b,,
{4}3,4,3,3/5,
{4}6,5,6,4/6,
{4}2,1/2,7,7/8,
{2}1h[4:1]/8h[4:1],1/8,
{4}6,5,6,4/6,
{4}3,4,3,3/5,
{4}7,7/8,2,1/2,
{2}1h[4:1]/8h[4:1],1/8,
{4}1,1,8,8,
{4}1,1,1/2,1/2,
{4}8,8,7/8,7/8,
{4}1,1,1/2,1/2,
{4}1/8,1/8,2/7,,
{4}1/8,1/8,1/2,1/2,
{4}1/8,1/8,7/8,7/8,
{4}1/8,1/8,1/2,1/2,
{4}1/8,1/8,2b/7b,,
{4}3,5,4,3/5,
{4}6,4,5,4/6,
{4}3/4,2/5,5/6,4/7,
{4}1/8,2/7,3/6,4b/5b,
{4}6,4,5,4/6,
{4}3,5,4,3/5,
{4}5/6,4/7,3/4,2/5,
{2}3h[4:1]/6h[4:1],3/6,
{4}4/5,4/5,1/2,1/2,
{4}4/5,4/5,7/8,7/8,
{4}4/5,4/5,1/2,1/2,
{4}4/5,4/5,3/6,,
{4}3/4,3/4,5/6,5/6,
{4}3/5,3/5,4/6,4/6,
{4}4/5,4/5,1/2,1/2,
{4}1/8,2/7,3b/6b,
E

EXPERT

(143.0){1},
{4}1/8h[4:3],1,5,5,
{4}8/1h[4:3],8,4,4,
{2}1-5[8:1],8-4[8:1],
{1}2>7[16:7],
{4}4/5h[4:3],4,8,8,
{4}5/4h[4:3],5,1,1,
{2}1^4[8:1],5^8[8:1],
{4}1/2,3,4,5,
{4}6,7,8,1/2,
{4}7/8,6,5,4,
{4}3,2,1,7/8,
{4}1/7,2,4,6,
{4}2/8,7,5,3,
{4}2/5,3,4/7,6,
{4}3/4,5/6,4/5,2b/7b,
{4}2h[4:3],3,6,3,
{4}7h[4:3],6,3,6,
{4}2h[4:3],1,7,1,
{4}7h[4:3],8,2,8,
{4}2h[4:1],3,7h[4:1],6,
{4}2h[4:1],1,7h[4:1],8,
{4}1/2,3/4,5/6,7/8,
{1}7^4[4:1]/8^3[4:1],
{4}3h[4:3],4,1,4,
{4}6h[4:3],5,8,5,
{4}3h[4:3],2,6,2,
{4}6h[4:3],7,3,7,
{4}3h[4:1],4,6h[4:1],5,
{4}3h[4:1],2,6h[4:1],7,
{4}7/8,5/6,3/4,1/2,
{2}1/2-5[8:1],8/7-4[8:1],
{1}1>8[4:3],
{4},,1,1b/8b,
{1}8h[4:3]/2z6[2:1],
{1}1h[4:3]/7s3[2:1],
{1}5h[4:3]/3p8[2:1],
{1}4h[4:3]/6q1[2:1],
{4}1,2,3,4,
{4}5,6,7,8,
{1}8<1[4:3],
{4},3h[4:1],4h[4:1],5h[4:1],
{8}6,6,,,3,3,,,
{4}8h[4:1],1,2b/7b,,
{8}1/2,,2,1,,3/8,,,
{8}7/8,,7,8,,1/6,,,
{4}1-5[8:1],8,8-4[8:1],1,
{4}2q5[8:3],,,8,
{8}5/6,,6,5,,4/7,,,
{8}3/4,,3,4,,2/5,,,
{4}1^4[8:1],8,8^5[8:1],1,
{4}2h[4:1],4q7[1:1],,,
{4},,,1/8,
{8}4,5,4,5,2,,2,,
{8}5,4,5,4,7,,7,,
{8}4,5,4,5,2,,2,,
{4}1/6,3/8,1/6,,
{8}1,8,1,8,1/2,,3/8,,
{8}8,1,8,1,7/8,,1/6,,
{8}1,8,1,8,1/2,,3/8,,
{4}1/5,3/7,1/5,8b,
{8}2/5,,3,4,,2/5,,,
{8}4/7,,6,5,,4/7,,5,
{8}3,4,3,,6,5,6,,
{4}2h[4:1],1h[4:1],8h[4:1],7,
{8}1/6,,7,8,,1/6,,,
{8}3/8,,2,1,,3/8,,4,
{8}6,5,6,,3,4,3,,
{1}1^4[4:1]/8^5[4:1],
{8}4,5,4,5,2,,2/8,,
{8}5,4,5,4,7,,1/7,,
{8}4,5,4,5,2,,2/8,,
{4}1/8,4/5,2b/7b,,
{8}1,8,1,8,2,7,2,7,
{8}3,6,3,6,4,5,4,5,
{8}3,6,3,6,1,,1/8,,
{4}1/2,4/5,{8}7-4[8:1]/8-3[8:1],,,,
E

MASTER

(143.0){1},
{4}2,2q3[2:1],,,
{4}7,7p6[2:1],,,
{2}3h[2:1],4h[2:1],
{4}5h[2:1],,6,1/8,
{4}1-3[8:1],1,8-4[8:1],8,
{4}1-5[8:1],1,8-6[8:1],8,
{4}2h[4:1],1h[4:1],8h[4:1],7,
{8}2-6[8:1],,2,,7,8,1,2,
{8}3-7[8:1],,3,,6,5,4,3,
{8}7-3[8:1],,7,,2,1,8,7,
{8}6-2[8:1],,6,,3,4,5,3/6,
{8}7^2[8:1],2-6[8:1],,,3,3,4,4,
{8}2^7[8:1],7-3[8:1],,,6,6,5,5,
{8}1-5[8:1],5-3[8:1],,,8,8,7,7,
{8}8-4[8:1],4-6[8:1],,,1,1,2,2,
{8}8,4,2,6h[2:3],,2^5[8:1],2,,
{8},7^2[8:1],7,,,2-6[8:1],2,,
{8},8,5,3h[2:3],,7^4[8:1],7,,
{8},2^7[8:1],2,,,7-3[8:1],7,,
{8},1,5,2,6,8,4,7h[1:1],
{8},3^8[8:1],3,,,6^3[8:1],6,,
{8},3,7,2h[1:1],,6^1[8:1],6,,
{8},3^6[8:1],3,,,1/7,8,1b/7b,
{8}2,1/2,7,7/8,,2/5,3/6,4/7,
{8}1,1/2,8,7/8,,4/7,3/6,2/5,
{8}1,2/3,8,6/7,,3/8,2/7,1/6,
{8}8,6/7,1,2/3,,1/6,2/7,3/8,
{8}2^5[4:1],6,7,8,,5/8,4/7,3/6,
{8}7^4[4:1],3,2,1,,1/4,2/5,3/6,
{8}7p3[4:1],2,1,8,,3/8,1/4,2/5,
{8}6q2[4:1],3,4,5,,2/5,1/4,3/8,
{8}1,,1,,8,8,,2/7,
{8},3/6,,4/5,4b/8-5[8:1],,8/4-1[8:1],,
{8}4,,7,3,6,2,5,1h[4:1],
{8},2,3,4,5-8[8:1],,5/1-4[8:1],,
{8}1,,2,6,3,7,4,8h[4:1],
{8},1,2/7,3/6,,1,2,3,
{8}4,1/5,2/6,3/7,4/8,7,6,5>1[4:1],
{8},1<5[4:1],,5>1[4:1],,1<5[16:3],,,
{16}4,,,4,,,4,,3/5,,,4,,6,5,,
{16}8,,,8,,,8,,1/7,,,8,,1,8,,
{8}2/5,3/4,,4/7,5/6,4/7,,1,
{16}8,,,2/7,,,3/6,,1-5[8:1]/8-4[8:1],,,,1b/8b,,,,
{8}3/4,2,3/4,1,3/4,8,5/6,1,
{8}5/6,7,5/6,8,5/6,1,3/4,8,
{8}7-4[8:1],7,2-5[8:1],2,8-4[8:1],8,1,1,
{8},3/5,3/5,,2^4[8:1]/8^6[8:1],1,,,
{8}2/4,3,2/4,5,2/4,3,2/4,8,
{8}5/7,6,5/7,4,5/7,6,5/7,1,
{8}1<5[4:1],,2,3,4>8[4:1],5,6,7,
{8},6,6,,1^6[8:1]/8^3[8:1],1/8,,,
{4}2<6[4:1],6q3[4:1],3^5[16:3],8b,
{8}2h[8:3],,4,4h[8:3],,1,1,,
{8}7h[4:1],,5,5h[8:3],,8,8,,
{8}2h[4:1],,5,5h[4:1],,4,3/6,,
{4}1^6[8:1]/8^3[8:1],1-5[8:1]/8-4[8:1],1/8,2b/7b,
{8}3/4,5,3/4,2,7h[8:1]/8h[8:1],,1h[8:1]/2h[8:1],,
{8}5/6,4,5/6,7,1h[8:1]/2h[8:1],,7h[8:1]/8h[8:1],,
{8}4/5,2,4/5,7,1/2,1/2,7/8,7/8,
{4}1^6[8:1]/8^3[8:1],1-5[8:1]/8-4[8:1],1/8,2b/7b,
{8}2/8,1,2/8,3/4,1/7,8,1/7,5/6,
{8}3/4,8,5/6,1,2/4,8,5/7,1,
{8}2,2/3,3,3/4,4,4/5,5,5/6,
{8},4/5,3/6,2/7,8/1-5[8:1],1/8,1b/8,,
{8}1/7,8,1/7,3/4,2/8,1,2/8,5/6,
{8}3/4,1,5/6,8,2/4,1,5/7,8,
{2}7-3[8:1]/8-2[8:1],1-5[8:1],
{4}8-2[8:1],7-3[8:1],6-4[8:1],,
{8}3/4,5,3/4,2,6h[8:1]/8h[8:1],,1h[8:1]/3h[8:1],,
{8}5/6,4,5/6,7,1h[8:1]/3h[8:1],,6h[8:1]/8h[8:1],,
{8}4/5,2,4/5,7,1/2,1/3,7/8,6/8,
{4}1^6[8:1]/8^3[8:1],1-5[8:1]/8-4[8:1],1/8,2b/7b,
{8}3/4,1,2/4,7,5/6,8,5/7,1,
{8}3/4,1,5/7,8,2/4,8,5/6,1,
{8}7/8,3/4,7/8,3/4,1/2,5/7,1/3,5/6,
{4}1-3[8:1]/8-4[8:1],1-5[8:1]/8-6[8:1],1/8,2b/7b,
E

Re:MASTER


名前:
コメント:

タグ:

+ タグ編集
  • タグ:
最終更新:2022年06月26日 18:02