アットウィキロゴ

+♂

アーティスト ギガ/れをる ダンス アルスマグナ

BPM EASY BASIC ADVANCED EXPERT MASTER Re:MASTER
180 3 5 9 10+ 13 -

EXPERT MASTER Re:MASTER
譜面制作者 Jack はっぴー -

EASY


BASIC

(180.0){1},,,,
{1}1,
{1}3,
{1}5,
{1}7,,,
{2},8,
{4}8,,8,8,
{2}8,1,
{4}1,,1,1,
{2}1,8,
{4}8,,8,8,
{2}8,1,
{4}1,,1,1,
{2}1,2,
{2}2,3,
{2}3,4,
{2}4,4/5,
{2}4/5,6,
{2}6,7,
{2}7,8,
{2}8,1/8,
{2}1/8,8,
{4}8,,7,7,
{2}7,6,
{4}6,,5,5,
{2}4/5,4,
{2}3/4,2,
{4}1/2,,1,1,
{4}1,,8,8,
{2}8,1-5[4:3],{1},
{2},8-4[4:3],{1},
{2},1-5[4:3],{1},
{2},8-4[4:3],{1},
{4},,1,1,
{4}2,2,3,3,
{4}3/4,,5,5,
{4}6,6,7,7,
{2}7/8,8h[2:1],
{2},1h[2:1],
{2},1/2,
{2}1/2,7/8,
{4}7/8,,8,8,
{4}7,7,6,6,
{4}5/6,,4,4,
{4}3,3,2,2,
{2}1/2,1h[2:1],
{2},8h[2:1],
{2},7/8,
{2}7/8,1/2,
{2}1/2,1,
{4}1,,2,2,
{2}2,8,
{4}8,,7,7,
{2}7,6,
{4}6,,5,5,
{2}5,3,
{4}3,,4,4,
{2}4,4b/5b,{1},
{4},,5,5,
{4}6,6,7,7,
{4}7/8,,1,1,
{4}2,2,3,3,
{2}3/4,5h[2:1],
{2},4h[2:1],
{2},5/6,
{2}5/6,3/4,
{4}3/4,,4,4,
{4}3,3,2,2,
{4}1/2,,8,8,
{4}7,7,6,6,
{2}5/6,4h[2:1],
{2},5h[2:1],
{2},3/4,
{2}3/4,5/6,
{2}5/6,4/5,
{4}4/5,,4,5,
{4}4,,4,4,
{4}4,,3,3,
{4}3,,2,2,
{4}2,,1,1,
{4}1/8,,8,8,
{4}8,,7,7,
{4}7,,6,6,
{4}6,,5,5,
{4}4/5,,5,5,
{4}5,,6,6,
{4}6,,7,7,
{4}7,,8,8,
{4}1/8,,1,1,
{4}1,,2,2,
{4}2,,3,3,
{4}3,,4,4,
{4}5,5,
E

ADVANCED

(180.0){1},,,,
{2}3,5,
{2}7,1,
{2}6,4,
{2}2,8w4[4:5],{1},
{4},,4/5,4/5,
{4}4/5,2/7,3,3,
{4}4,4,3,4,
{4}3/4,,6,6,
{4}5,5,6,5,
{4}5/6,,7,7,
{4}8,8,7,8,
{4}7/8,,2,2,
{4}1,1,2,1,
{4}1/2,,3,3,
{4}3/4,3/4,3,3,
{4}3/4,3/4,6,6,
{4}5/6,5/6,6,6,
{4}5/6,5/6,3,3,
{4}2/4,2/4,3,3,
{4}2/4,2/4,6,6,
{4}5/7,5/7,6,6,
{4}5/7,5/7,3h[4:3],,
{4}4,4,6h[4:3],,
{4}5,5,2h[4:3],,
{4}4,4,7h[4:3],,
{4}5,5,2h[4:3],,
{4}3,3,7h[4:3],,
{4}6,6,2h[4:3],,
{4}1,1,7h[4:3],,
{4}8,8,{2}1pp4[4:5],{1},
{2},8qq5[4:5],{1},
{2},2V46[4:3],{1},
{1}7V53[4:3],
{2},1b/8b,
{4},,3,3/4,
{4}3,3/4,6,5/6,
{4}6,5/6,3,3/4,
{4}6,5/6,4/5,3/6,
{4}4/5,,3,3,
{4}3/4,3/4,6,6,
{4}5/6,5/6,4,5,
{4}3,6,4,5,
{4}4b/5b,,3,3/4,
{4}2/5,3/4,6,5/6,
{4}4/7,5/6,3,3/4,
{4}6,5/6,4/5,3/6,
{4}2/7,,3h[4:1],4,
{4}6h[4:1],5,2h[4:1],4,
{4}7h[4:1],5,3/4,3/4,
{4}5/6,5/6,4,5,
{4}3,6,4/5,,
{2}3/4,4/5,
{2}5/6,4/5,
{2}2/4,4/5,
{2}5/7,4/5,
{2}1/3,4/5,
{2}6/8,4/5,
{4}1/2,,4/5,3/6,
{1}2b/7b,,
{4},,2,1/2,
{4}2,1/2,7,7/8,
{4}7,7/8,2,1/2,
{4}7,7/8,1/8,2/7,
{4}1/8,,2,2,
{4}1/2,1/2,7,7,
{4}7/8,7/8,1,8,
{4}2,7,1,8,
{4}1b/8b,,2,1/2,
{4}3/8,1/2,7,7/8,
{4}1/6,7/8,2,1/2,
{4}7,7/8,1/8,2/7,
{4}3/6,,2h[4:1],1,
{4}7h[4:1],8,3h[4:1],1,
{4}6h[4:1],8,1/2,1/2,
{4}7/8,7/8,1,8,
{4}2,7,1/8,1/8,
{4}2/7,2/7,1/8,1/8,
{4}1b/8b,,2,2,
{4}3,3,4,4,
{4}5/6,5/6,7,7,
{4}6,6,5,5,
{4}3/4,3/4,3,3,
{4}2,2,1,1,
{4}7/8,7/8,6,6,
{4}7,7,8,8,
{4}1/2,1/2,3,2,
{4}1,8,7,6,
{4}4/5,4/5,6,7,
{4}8,1,2,3,
{4}4/5,4/5,7,6,
{4}5,4,3,2,
{4}1/8,1/8,2,3,
{4}4,5,6,7,
{4}1/8,1b/8b,
E

EXPERT

(180.0){2}7,6,
{2}5,4,
{2}2,3,
{2}4,5,
{2}3,2,
{2}1,8,
{2}6,7,
{2}8,1>8[2:3],{1},
{4},,1,1,
{8}1,1,2b/8b,,3,,2/4,,
{4}5,4/6,7,6/8,
{4}4/5,4/5,6,5/7,
{4}4,3/5,2,1/3,
{8}8,8,1/7,,6,,5/7,,
{4}4,3/5,2,1/3,
{4}4/5,4/5,3,2/4,
{4}5,4/6,7h[2:1],,
{4}8,1/2,3h[4:1],4,
{4}6h[4:1],5,4h[4:1],5,
{4}3/6,3/6,7h[4:1],6h[4:1],
{4}5h[4:1],4h[4:1],3h[4:1],2h[4:1],
{4}1,7/8,1h[4:1],8,
{8}2/7,,2/7,,3,4,3,,
{8}6,5,6,,3h[4:1],,4h[4:1],,
{4}5h[4:1],6h[4:1],5,3/4,
{8}5,5h[4:1],,4,4h[4:1],,5,,
{4}2/7,2/7,1,8,
{4}7,1/6,8,1,
{4}2,3/8,2,1/3,
{4}7,6/8,1-5[8:1],,
{4}6,1/7,8-4[8:1],,
{8}3,,2/8,,1,2,3,,
{8}8,7,6,,3,3,5,5,
{8}4,4,{4}6pp2[4:3],,,{1},
{2},1v3[2:1]/5v7[2:1],
{2},4v2[2:1]/8v6[2:1],
{2},3V15[2:1]/7V15[2:1],
{2},2V84[2:1]/6V84[2:1],
{2},4-1[16:3],
{2}8-5[16:3],4,
{8},8b,8b,8b,2h[4:1],,1,,
{4}7h[4:1],8,1h[4:1],8,
{8}4/5,,2/7,,3,3,5,5,
{8}4,4,6,6h[4:1],,5,,1,
{4}1-5[16:3],,6h[4:1],5h[4:1],
{8}4h[4:1],,3h[4:1],,6,6,,2/7,
{8},1/8,1/8,,7,6,5,2,
{8}3,4,8,7,6,1,2,3,
{8}8b-4[16:3],,,,3h[4:1],,4,3h[4:1],
{8},4,2,2,6h[4:1],,5,6h[4:1],
{8},5,7,7,1h[4:1],,8,1h[4:1],
{8},8,2/7,2/7,3,5,4,6,
{8}3,5,4,,2-5[8:1],,6,,
{4}7-4[8:1],3,1-5[8:1],6,
{4}8-4[8:1],3,1/2,7/8,
{8}1,8,1,8,1,,2/7,,
{4}3/6,4/5,3h[2:1],,
{4}4h[2:1],,3,1/8,
{2}5/6,5h[2:1],
{4}6h[2:1],,5,1/8,
{2}3/4,2h[2:1],
{4}1h[2:1],,2,4/5,
{2}7/8,8h[2:1],
{4}7h[2:1],,8,4/5,
{1}1/2-6[8:1],,
{8},,,,7h[4:1],,8,1,
{8}2h[4:1],,1,8,7h[4:1],,8,1,
{8}2,,4/5,,6,6,4,4,
{8}5,5,3,3h[4:1],,4,,8,
{8}8-4[16:3],,,,3,3,5,5,
{8}4,4,6,6,4,5,,2/7,
{8},1/8,1/8,,3,4,3,6,
{8}5,6,2,1,2,7,8,7,
{8}1b-5[16:3],,,,6h[4:1],,5,7h[4:1],
{8},8,7,7,3h[4:1],,4,2h[4:1],
{8},1,2,2,8h[4:1],,1,8h[4:1],
{8},1,2/7,2/7,1,8,2,7,
{8}1,8,1b,,7-4[8:1],,3,,
{4}2-5[8:1],6,7-3[8:1],8,
{4}2-6[8:1],1,7/8,1/2,
{8}8,1,8,1,8,,2/7,,
{8}3/6,,4/5,,3,3,4h[4:1],,
{8}6,6,5h[4:1],,4,,3V14[8:3]/6V85[8:3],,
{4},,6,5/7,
{4}4,3/5,2,1/3,
{8}4,5,4,5,3,,2/4,,
{4}5,4/6,7,6/8,
{8}1,1,2/8,,3,,2/4,,
{4}5,4/6,7,6/8,
{8}5,4,5,4,6,,5/7,,
{4}4,3/5,1/2,4/6,
{4}7/8,3/5,6,5/7,
{4}4,3/5,2,1/3,
{8}4,5,4,5,3,,2/4,,
{4}5,4/6,7,6/8,
{8}1,1,2/8,,3,,2/4,,
{4}5,4/6,7,6/8,
{8}5,4,5,4,5,,3/6,,
{4}2/7,1pp4[8:5]/8qq5[8:5],,,
{4},2/7,
E

MASTER

(180.0){2}1,3,
{2}2,4,
{2}5,6,
{2}8,7,
{2}7/8,2/5,
{2}1/6,3/4,
{2}5/6,4/7,
{2}1/2,3/8<1[4:5],{1},
{16},,,,,,,,4/5,,6,5,6,,3,4,
{8}3,4/5,2b/7b,,8/3^8[8:1],,6^1[8:1],,
{4}4p7[8:1],5q2[8:1],3^8[8:1],6^1[8:1],
{4}4p7[8:1],5,5-2[8:1]/6-1[8:1],5/6,
{8}3/8,2/7,1/6,,3/4,,7qq4[4:1]/8pp3[4:1],,
{4},,1/6^1[8:1],3^8[8:1],
{4}5q2[8:1],4p7[8:1],6^1[8:1],3^8[8:1],
{4}5q2[8:1],4,3-8[8:1]/4-7[8:1],3/4,
{16}1/6,,,,5,4,5,4,6h[8:1],,3h[8:1],,4h[8:1],,5,,
{8}3/6,4/5,4/5,4/5,5/6,4,3/4,5,
{8}5/6,3,2/4,6,5/7,3,2/4,5,
{8}1b,2b,3b^1[8:1],,5pp7[8:1],,4^2[8:1],,
{4}6^8[8:1],4qq2[16:3],5^7[8:1],4-8[8:1],
{4}8-2[8:1]*-6[8:1],,{16}3,6,3,6,{32}4,5,4,5,,,,,
{8}1/8,,1/8,,2/7,1/8,2/7,1/8,
{8}2/7,3,3,5,5/6,4,3/4,6,
{8}5/7,3,4/2qq7[8:3],,,,,,
{8}4/5,4/5,4h[8:1]/5h[8:1],,3/6,7,7/8,2,
{8}1/2,7,7/8,2,1/2,3/8,1/2,3/8,
{8}7/8,1/6,2/5,6,7/8,3,1/2,6,
{8}7/8,3,1/2,8,1/6,2/5,3/4,3/4,
{8}1b/6b,,7,7qq4[4:1],7,,,,
{8}1b/2,2,1b/2pp5[8:3],2,,,,,
{8}7/8b,7,7/8b,,6,5,3,4,
{8}7,5,2,4,7,8,2,1,
{8}6,8,3,1<2[8:9],,,,,{1},
{8},1-3[8:1]/8-6[8:1],,,,,1-3[8:1]/8-6[8:1],,
{8},,,,7/8,7^4[4:1]/8^3[4:1],7/8,,
{8},,1/2,1^6[4:1]/2^5[4:1],1/2,,,,
{4},1-3[8:1]/8-6[8:1],,,
{8}1/8,1/8,1^4[8:1]/8^5[8:1],,1/8,,,,
{2},4b/5b,
{8},1b,1b,1b,5/7pp8[8:1],,3,3,
{8}4/2qq1[8:1],,6,6,3/6qq5[8:1],,1,1,
{8}6/3pp4[8:1],,8,8,7-3[8:1],7,2-6[8:1],2,
{8}5pp8[4:1],5,,,,2,3,4,
{8}5^2[8:1],6,7,,6^3[8:1],6,2q6[8:1],2,
{8}7pp1[8:1],7,3pp8[8:3],3,,,,,
{8},6,5,4,1/2,3/8,4/7,1/8,
{8}2/7,3/6,7/8,1/6,2/5,1/8,2/7,3/6,
{8}4-1[8:1]/5-8[8:1],,4b/5b,,6-2[8:1],,3,3-7[8:1],
{8},8,8,6,3-7[8:1],,6,6-2[8:1],
{8},1,1,3,5-1[8:1],,4,4-8[8:1],
{8},5,5,5,7b,8b,1b,2b,
{16}1pp2[8:1]/8qq7[8:1],,,,,,,,6h[16:3],,,5,7,,7,,
{16}3h[16:3],,,4,2,,2,,6h[16:3],,,5,7qq4[8:3],,,,
{8}1,1,2,,7,7/8,2,1/2,
{8}3,4,5,6h[4:1],,5,3,4,
{8}6,5,4,5,1h[8:3]/8h[8:3],,,,
{4}4/5,4/5,1h[8:3]/2h[8:3],,
{4}4/5,4/5,7h[8:3]/8h[8:3],,
{4}4/5,4/5,1/2,1/2,
{4}5/6,3b/8b,7h[8:3]/8h[8:3],,
{4}2/7,2/7,1h[8:3]/2h[8:3],,
{4}2/7,2/7,7h[8:3]/8h[8:3],,
{4}2/7,2/7,4/5,4/5,
{4}2b-5[8:1]/7b-4[8:1],,7,6,
{4}2,3>4[4:3],,,
{16},,,,,,,,2^5[8:1],,,1,2,,6,,
{16}7^4[8:1],,,8,7,,3,,2^5[8:1],,,1,2,,6,,
{8}7^2[8:1],,,,3-7[8:1],3,6-2[8:1],6,
{8}4qq1[4:1],4,,,,6,7,8,
{8}1^4[8:1],1,,,3^6[8:1],3,7p3[8:1],7,
{8}2qq8[8:1],2,6qq1[8:3],6,,,,,
{8},3,4,5,7/8,1/6,2/5,1/8,
{8}2/7,3/6,1/2,3/8,4/7,1/8,2/7,3/6,
{8}4-1[8:1]/5-8[8:1],,4b/5b,,6q2[8:1],,3,3V15[4:1],
{8},7,7,6,3p7[8:1],,6,6V84[4:1],
{8},2,2,3,5-1[8:1],,4,4-8[8:1],
{8},5,5,6,7b,8b,1b,2b,
{16}1pp2[8:1]/8qq7[8:1],,,,,,,,2^5[8:1],,,1,2,,6,,
{16}7^4[8:1],,,8,7,,3,,2^5[8:1],,,1,2,,6,,
{8}7,7,8,8,3h[8:1],4,6h[8:1],5,
{8}2,4,5,7h[4:1],,5,3,2/4,
{8}6,5,3,4,3b/6b,,1/8,,
{8}3/7,1/2,2/8,,4^1[8:1]/5^8[8:1],,,,
{8}3b/6b,8,8,8,1/6^1[8:1],,3^8[8:1],,
{4}5q2[8:1],4p7[8:1],6^1[8:1],3^8[8:1],
{4}5q2[8:1],4,3-8[8:1]/4-7[8:1],3/4,
{8}1/6,2/7,3/8,,5/6,,1qq6[4:1]/2pp5[4:1],,
{4},,8/2^5[8:1],7^4[8:1],
{4}1q6[8:1],8p3[8:1],2^5[8:1],7^4[8:1],
{4}1q6[8:1],8,7-4[8:1]/8-3[8:1],7/8,
{4}2/5,3V17[8:1]/4v7[8:1],,5v2[8:1]/6V82[8:1],
{4},3b/6b,8/3^8[8:1],6^1[8:1],
{4}4p7[8:1],5q2[8:1],3^8[8:1],6^1[8:1],
{4}4p7[8:1],5,5-2[8:1]/6-1[8:1],5/6,
{8}3/8,2/7,1/6,,1/8,,4qq1[4:1]/5pp8[4:1],,
{4},,8/2^5[8:1],7^4[8:1],
{4}1q6[8:1],8p3[8:1],2^5[8:1],7^4[8:1],
{4}1q6[8:1],8,7-4[8:1]/8-3[8:1],7/8,
{8}2qq7[4:1],,,,,6,3,3,
{4}4h[8:1]/5h[8:1],2/7,
E

Re:MASTER


名前:
コメント:

タグ:

+ タグ編集
  • タグ:
最終更新:2026年10月03日 22:17