アットウィキロゴ

むかしむかしのきょうのぼく

アーティスト DECO*27

BPM EASY BASIC ADVANCED EXPERT MASTER Re:MASTER
130 2 3 7+ 10 12 -

EXPERT MASTER Re:MASTER
譜面制作者 mai-Star 某S氏 -

EASY


BASIC

(130.0){2}1,1,
{2}8,8,
{2}2,2,
{2}7,7,
{2}1,1,
{2}2,2,
{2}3,3,
{2}4,4b,
{2}5,5,
{4}6,6,6,,
{2}7,7,
{4}8,8,8,,
{2}1,1,
{4}2,2,2,,
{2}3,3,
{4}4,4,4,,
{2}5,4,
{4}3,3,3,,
{2}4,5,
{4}6,6,6,,
{2}5,3,
{4}2,2,2,,
{2}4,6,
{4}7,7,7,,
{1}8h[2:1],
{1}1h[2:1],
{1}2h[2:1],
{4}3,3,3,,
{1}2h[2:1],
{1}1h[2:1],
{1}8h[2:1],
{4}7,7,7b,,
{4}1,8,1,,
{4}8,1,8,,
{4}1,8,1,,
{1}2h[2:1],
{4}4,5,4,,
{4}5,4,5,,
{4}4,5,4,,
{1}6h[2:1],
{1}6-2[4:3],,
{4}2,2,1/2,,
{4}1,1,1/8,,
{4}7,7,7/8,,
{4}8,8,1/8,,
{4}2,2,1/2,,
{4}1,1,1/8,,
{1}8h[2:1],
{1}7h[2:1],
{4}6,6,5/6,,
{4}4,4,4/5,,
{4}3,3,3/4,,
{4}5,5,4/5,,
{4}6,6,5/6,,
{4}4,4,4/5,,
{1}5h[1:1],,
{1}6h[1:1],,
{2}7,7,
{1}7,
{2}8,8,
{1}8,
{1}1-4[4:3],,
{1}8-5[4:3],,
{1}1-5[4:3],,
{2}6,5,
{4}4,4,5,5,
E

ADVANCED

(130.0){4},1,,1,
{4},1,,1,
{4},8,,8,
{4},8,,8,
{4},1,,2,
{4},3,,4,
{4},5,,6,
{4},7,,8b,
{4}1,1,1,,
{4}8,8,8,,
{4}1,2,1,,
{4}8,7,8,,
{4}3,4,5,6,
{4}6,5,4,3/4,
{4}7,8,1,2,
{4}2,1,8,7/8,
{2}7b/8b,1/2,
{4}5/6,5/6,5/6,,
{2}1/2,7/8,
{4}3/4,3/4,3/4,,
{2}6h[4:1],3h[4:1],
{2}5h[4:1],4h[4:1],
{4}6,7,8,1,
{4}2,3-6[4:1],,,
{4}5,5,4/6,,
{4}4,4,3/5,,
{4}4,5,3/6,1/8,
{4}1,8,1,8,
{4}2,3,3/4,,
{4}7,6,5/6,,
{2}3/4,5/6,
{4}3/4,5/6,3/4,5b/6b,
{4}5,5,5,5,
{4}3,3,3,3,
{4}1,1,1,1,
{4}7,7p2[4:1],,,
{4}3,4,5,6,
{4}2,1,8,7,
{2}2h[4:1],1h[4:1],
{4}1/2,3/8,4/7,5/6,
{1}6q3[2:1],,
{4}6,6,4,4,
{4}5,5,3,1b,
{4}3,3,5,5,
{4}4,4,6,8b,
{4}6,5,4,3,
{4}2,1,8,7,
{4}8,2,4,6,
{4}4h[4:1],5h[4:1],4h[4:1],5b,
{4}3,4,5,5/6,
{4}6,5,4,3/4,
{2}1/2,7/8,
{4}1/8,2/7,1/8,1/2,
{2}7/8,5/6,
{4}5,3,1,7,
{1}1q4[4:3],,
{4}3,3/4,,3/4,
{4},5/6,,5/6,
{4},7/8,,7/8,
{4},1/2,,1/2,
{4}2,3,4,5,
{4}1,8,7,6,
{1}5-8[8:3],
{1}1-4[8:3],
{1}8v6[8:3],
{1}4v2[8:3],
{4}1,3,5,7,
{4}8,6,4,2,
{1}8b,
E

EXPERT

(130.0){8}2,,7,,1/8,,2,3,
{8}4,,8,8,,7,6,5,
{8}7,,2,,1/8,,7,6,
{8}5,,1,1,,2,3,4,
{8}3,3,3,,2/4,,1,8,
{8}1,,7,6,,4,5,4,
{8}6,6,6,,5/7,,8,1,
{8}8,,2,3,,5,4,5,
{8}3h[4:1],,4h[4:1],,5h[4:1],,6,6,
{4}6h[4:1],5h[4:1],4h[4:1],3,
{8}2h[4:1],,4h[4:1],,5h[4:1],,7,5,
{4}7h[4:1],6h[4:1],5h[4:1],4,
{8}1h[4:1],,3h[4:1],,5h[4:1],,8,7,
{4}8h[4:1],6h[4:1],4h[4:1],2,
{4}1h[4:3],3,7h[4:1],,
{2}1q6[4:1],7q4[4:1],
{8}2,,4,5,4,,7,,
{8}3,,4,4,,6,6,,
{8}7,,5,4,5,,2,,
{8}6,,5,5,,4,4,,
{8}2,,8,8,1/7,,8,,
{8}1,,4,3/5,,6,5/7,,
{8}7,,1,1,2/8,,1,,
{8}8,,5,4/6,,3,2/4,,
{4}1^3[8:1],6q3[16:3],,,
{4}8^6[8:1],3p6[16:3],,,
{4}7-3[8:1],1-5[8:1],4-8[8:1],,
{2}2^7[8:1],6q3[8:1],
{4}4-1[8:1],5-8[8:1],,,
{4}2-5[8:1],7-4[8:1],,,
{4}6/8,6/8,1/3,1/3,
{16}2,,,2,,,2,,,,8b,,8b,,,,
{8}2,8,2,8,2,6,2,6,
{8}4,6,4,6,2,4,2,4,
{8}2,6,4,5,3,6,4,5,
{2}5q2[8:1],4p7[8:1],
{8}1/2,,5,6,4h[4:1],,7,8,
{8}6h[4:1],,4,5,3h[4:1],,7,7,
{8}8,1,2,3,,8,1,7,
{8}2,6,3,5h[8:5],,,,,
{16}6,,,6,,,6,,,,,,6,,,6q3[16:5],{1},
{8}1,,8,,1,1,3,3,
{8}5,5,7,7,,1b,1b,,
{8}8,,1,,8,8,6,6,
{8}4,4,2,2,,8b,8b,,
{8}3,,6,,2,2,2,1,
{8}1,1,8,8,,1,5,3,
{2}7v4[8:1],2v5[8:1],
{4}1-5[8:1],8-4[8:1],2-5[8:1],,
{8}4/6,,3/5,,2,2,4,4,
{8}6,6,8,8,,4,5,,
{8}1/2,,7/8,,3,6,,4h[4:1],
{8},5,5,2,2^7[8:1],2,6^1[8:1],,
{4},,1/5,4/8,
{8}2/6,3/7,,7-4[4:1],,,,,
{8}3,,4,,6,5,6,,
{8}2,4,3,,7,5,6,,
{8}2,2,1,1,8,8,7,,
{8}3,1,2,,6,8,7,,
{8}3,3,2/4,3,3,3,2/4,,
{8}6,5,4/7,,3,4,2/5,,
{8}3h[8:3],,,4h[8:3],,,5h[8:3],,
{8},6h[8:3],,,5h[4:1],,4b,,
{8}2/4,3,2/4,3,4,3,2/5,,
{8}3/4,3/4,3/4,,5/6,5/6,5/6,,
{8}5/7,6,5/7,6,5,6,4/7,,
{8}1/2,1/2,1/2,,7/8,7/8,7/8,,
{8}1/8,1/8,2/7,2/7,3/6,3/6,4/5,,
{8}1/2,3/8,4/7,,7/8,1/6,2/5,,
{8}2,2,6,6,2,,8,4,
{8}8,,1,5,,3-7[8:3],3,,,,,
E

MASTER

(130.0){8}1,2,,5,6,,8,1,
{8}2,,6,5,,3,4,3,
{8}8,7,,4,3,,1,8,
{8}7,,3,4,,6,5,6,
{8}1/8,2,,5,4/6,,8,1,
{8}2h[4:1],,4,4h[4:1],,5,6,5,
{8}1/8,7,,4,3/5,,1,8,
{8}7h[4:1],,5,5h[4:1],,4,3,4,
{8}1^6[8:1],,3,4,5^2[8:1],,6,7,
{4}8-3[8:1],2-6[8:1],7-4[8:1],1,
{8}8^3[8:1],,6,5,4^7[8:1],,3,2,
{4}1-6[8:1],7-3[8:1],2-5[8:1],8,
{8}1^6[8:1],,3,4,5^2[8:1],,6,7,
{4}8-3[8:1],2-6[8:1],7-4[8:1],1,
{8}8^3[8:1],,6,5,4^7[8:1],,3,2,
{4}1-6[8:1],7-3[8:1],2-5[8:1],8b,
{4}2h[4:1],4,6h[4:1],5,
{8}3/7,3,2/6,6,4/8,,4/5,,
{4}1h[4:1]/3h[4:1],,1/3,4/8,
{8}3/7,7,2/6,2,4h[4:1]/8h[4:1],,,,
{2}5h[4:1]/2^7[8:1],4h[4:1]/6q3[8:1],
{8}1/2,3,7/8,6,2/5,,4/7,,
{2}1^4[8:1]/5^8[8:1],1^6[8:1]/5^2[8:1],
{4}2-5[8:1],7p4[4:1],,,
{8}3/7,,6q4[8:1],,,,,4,
{8}1/5,8,6q4[8:1],,3b,,,1,
{8}4/8,5,2/6,8,3/7,,1/5,,
{2}2-6[8:1]/8-4[8:1],1-5[8:1]/7-3[8:1],
{4}1/3,4/5,6/8,3/7,
{4}4h[4:1]/5h[4:1],,4/5,4/5,
{4}8/6h[4:1],8,1/3h[4:1],1,
{4}1h[8:1]/8h[8:1],4h[8:1]/5h[8:1],1h[8:1]/8h[8:1],4h[8:1]/5h[8:1],
{8}2,1,3,8,5,6,4,7,
{8}4,4,2,2,8,8,6,6,
{8}8,7,1,6,3,4,2,5,
{4}1h[4:1],3,5h[4:1],7b,
{8}1h[4:1],8,7,6,5h[4:1],4,3,2,
{8}1h[4:1],2,3,4,3/5,,5-7[8:1],,
{4}1b,4-2[8:1],8,7h[4:1],
{4}8h[4:1],1>8[8:3],,,
{16}3,4,3,,4/5,,6,5,{2}6q2[8:3],{1},
{8}1^4[8:1],6,7,8,1^6[8:1],4,3,2,
{8}1-6[8:1],1,7p3[8:1],7,,5,6,7,
{8}8^5[8:1],3,2,1,8^3[8:1],5,6,7,
{8}8-3[8:1],8,2q6[8:1],2,,4,3,2,
{8}1^4[8:1],6,7,8,1^6[8:1],4,3,2,
{8}1-6[8:1],1,7p3[8:1],7,,5,6,7,
{2}4q8[8:1]/8^5[8:1],1^4[8:1]/5p1[8:1],
{4}7h[4:1],2q5[4:1],,7b,
{8}2^5[8:1],1,8,7,6^3[8:1],7,8,1,
{8}2p5[8:1],2,6p1[8:1],6,,2,1,8,
{8}7^4[8:1],8,1,2,3^6[8:1],2,1,8,
{4}7^4[8:1],,2^8[8:1],2b/7^2[8:1],
{8}7b,,,8,7,6,5,4,
{8}3,2h[4:1],,1,2,3,4>6[2:3],5h[8:13],{1},,
{8}1/5,2,4,5,3/7,,8,1,
{8}2/4,,6,5/7,,4,3/5,,
{8}4/8,7,5,4,2/6,,1,8,
{8}5/7,,3,2/4,,5,4/6,,
{8}5h[8:3],,7,7,,5,3h[8:3],,
{8}1,1,,3,7h[4:1],,8b,,
{8}1^6[8:1],2,3,4,5^2[8:1],,6,7,
{8}8-3[8:1],,2-6[8:1],2,7-4[8:1],7,1,1,
{8}8^3[8:1],7,6,5,4^7[8:1],,3,2,
{8}1-6[8:1],,7-3[8:1],7,2-5[8:1],2,8,8,
{8}3/7,8,2,3,1/5,,4,6,
{8}7h[4:1],,5,5h[4:1],,3,4,3,
{8}8,7,5,4,3,,1,8,
{8}7,,3,4,,6,5,5,
E

Re:MASTER


名前:
コメント:

タグ:

+ タグ編集
  • タグ:
最終更新:2026年10月01日 21:18