EASY
BASIC
(222.0){1},,
{1}1,
{1}1,
{1}8,
{1}8,
{1}1h[1:1],,
{1}8h[1:1],,
{1}1,
{1}1,
{1}2,
{1}2,
{2}3,3,
{1}3,
{1}4h[1:1],,
{1}5h[1:1],,
{2}4,5,
{1}4/5,
{2}5,5,
{1}5,
{2}6,6,
{1}6,
{2}7,7,
{1}7,
{2}8,8,
{1}1/8,
{2}1,1,
{1}1,
{2}2,2,
{1}2,
{2}3,3,
{2}4,4,
{2}5,5,
{1}4b/5b,
{2}4,4,
{1}4/5,
{2}6,6,
{1}5/6,
{2}7,7,
{2}8,8,
{2}1,1,
{1}1/8,
{1}8-5[4:3],,
{1}1-4[4:3],,
{1}8h[1:1],,
{2}1,1,
{1}1b/8b,
{4}8,8,8,,
{4}7,7,7,,
{4}6,6,6,,
{1}5/6,
{4}4,4,4,,
{4}5,5,5,,
{2}4/5,4/5,
{1}3b/6b,
{4}4,4,4,,
{4}3,3,3,,
{4}2,2,2,,
{1}1/2,
{4}8,8,8,,
{4}1,1,1,,
{1}1h[1:1]/8h[1:1],,
{1}1-5[4:3],,
{1}8-4[4:3],,
{2}1,1,
{1}1,
{2}2,2,
{1}1/2,
{2}3,3,
{2}4,4,
{2}5,5,
{1}4/5,
{2}5,5,
{2}4,4,
{1}4h[2:1]/5h[2:1],
{1}3b/6b,,
{4}4,4,4,,
{4}3,3,3,,
{4}2,2,2,,
{1}1/8,
{1}8h[2:1],
{1}1h[2:1],
{2}8,1,
{1}1/8,
{4}8,8,8,,
{4}7,7,7,,
{4}6,6,6,,
{4}5,5,5,,
{1}4h[1:1],,
{1}5h[1:1],,
{1}4,
{1}3,
{1}2,
{1}1-5[4:3],,
E
ADVANCED
(222.0){1},,
{1}7-2[4:5],,
{1}3-6[4:5],,
{1}7-4[4:5],,
{1}2-5[4:5],,
{4}6,6,5,,
{4}3,3,4,,
{4}6,6,5,5,
{4}4,4,4/5,,
{4}3,3,4,,
{4}6,6,5,,
{4}3,3,2,2,
{4}1,8,2/7,,
{1}2>6[4:5],,
{1}7<3[4:5],,
{2}3h[1:1],4,
{2}4,5,
{2}6h[2:1],5,
{1}5/6,
{2}6h[1:1],5,
{2}5,4,
{2}3,3/4,
{1}2/5,
{2}3h[1:1],4,
{2}4,4/5,
{2}6h[1:1],5,
{2}5,4/5,
{1}3h[1:1],
{1}2h[1:1],
{2}1,1,
{1}2/8,
{4}3,3,3,,
{2}4/5,4/5,
{4}6,6,6,,
{2}4/5,4/5,
{4}3,3,3,,
{4}4,4,4,,
{4}5,5,5,,
{1}3/6,
{2}3,3,
{1}2/4,
{2}6,6,
{1}5/7,
{4}7,7,7,,
{4}8,8,8,,
{4}1,1,8,8,
{1}2b/7b,
{4}7,8,1,2,
{2}3h[2:1],4,
{4}6,6,5,4,
{4}3,3,2/4,,
{4}2,1,7/8,,
{4}7,8,1/2,,
{4}2,1,8,7,
{2}7/8,1/6,
{4}2,1,8,7,
{2}6h[2:1],5,
{4}3,3,4,5,
{4}6,6,5/7,,
{2}7h[2:1],8,
{2}2h[2:1],1,
{4}2,3,4,5,
{1}3b/6b,
{1}1-6[4:3]/2-5[4:3],
{2},4/7,
{4}5,5,{2}4^1[4:3],{1},
{1}7-4[4:3]/8-3[4:3],
{2},2/5,
{4}4,4,{2}5^8[4:3],{1},
{4}1,1,2,2,
{4}3,3,3/4,,
{4}5,5,6,6,
{4}7,7,7/8,,
{4}8,1,2/8,,
{4}1,8,1/7,,
{4}7,8,1,1,
{4}8,8,1/8,,
{1}2b/7b,
{4}2,2,1/2,,
{4}7,7,7/8,,
{4}2,2,1,1,
{4}8,8,1/7,,
{4}8,7,6,5,
{4}4,3,1/2,,
{4}2,3,4,5,
{4}6,7,1/8,,
{1}7b/2b>6[4:5],,
{1}7<3[4:5],,
{1}3h[1:1],
{1}4h[1:1],
{1}5h[1:1],
{2}6,5/6,
{1}6h[1:1],
{1}5h[1:1],
{1}4h[1:1],
{1}3^6[4:3],,
E
EXPERT
(222.0){8},,,,,,,5-1[8:3],{1},
{1}2h[1:1],
{1}3h[1:1],
{1}4h[1:1],
{2}5,4/5,
{1}6h[1:1],
{1}5h[1:1],
{1}4h[1:1],
{1}3^6[2:1],
{4}6,5/6,4,4/5,
{4}6h[4:1],5h[4:1],4h[4:1],3,
{4}3,2/4,5,4/6,
{4}3h[4:1],4,2b/5b,,
{4}3h[4:1],4,6h[4:1],5,
{4}2h[4:1],3,7h[4:1],6,
{4}4/7,6,5,4,
{8}3/5,,4/6,,5,5,{4}4>5[2:3],{1},,
{4}4/5,4/5,3/6,3/6,
{8}4/5,4-1[8:3]/5-8[8:3],,,,,,,
{4}5/6,6,6,6,
{8}5/6,,4,4,5,,4/6,,
{4}5/6,6,6,6,
{4}5/6,4/7,,4/5,
{4}3/4,3,3,3,
{8}3/4,,5,5,4,,3/5,,
{4}3/4,3,3,3p6[2:1]/4pp6[2:1],{1},
{8}5/6,,7,,5/6,,4,4,
{4}5,5/7,4/6,3/5,
{8}3/4,,2,,3/4,,5,5,
{4}4,2/4,3/5,4/6,
{4}6,5/6,3,3/4,
{4}6,5/7,3,2/4,
{1}5pp5[4:3]*qq5[4:3],
{2},3b/7b,
{8}4/5,,7,7<2[2:1],,,,,
{4},,1,1,
{8}2,,3,,4,4-1[4:1],,,
{4},6,5,4,
{8}4/5,,3b/6b,,1,1>6[2:1],,,
{4},,7,7,
{8}3/6,,2/7,,1/8,1-4[4:1]/8-5[4:1],,,
{4},,3/4,5,
{4}6h[2:1],,5,4,
{4}3h[2:1],,4,5,
{4}6h[2:1],,5,4,
{4}3/6,,1/8,2/7,
{4}5/6,4/6,5/6,4/6,
{4}3/4,3/5,3/4,4^1[8:3]/5^8[8:3],
{8},,,,,,1/8,1/8<3[8:5],{1},
{8}1/2,,2/5,2/5,,4/7,4/7,,
{2}5/6-8[8:1],1/2-4[8:1],
{8}5/6,,7/8,7/8,,1^6[4:1]/2^5[4:1],,,
{4},,7,6,
{8}2/5,,3,3,,2/4,,5h[8:3]/7h[8:3],
{4},,1/8,2/7,
{16}2h[16:3],,,3h[16:3],,,4,,,,,,4/5,,,,
{8}6,6,5,5,,5/6,4b/7b,,
{8}7/8,,4/7,4/7,,2/5,2/5,,
{2}4/3-1[8:1],8/7-5[8:1],
{8}3/4,,1/2,1/2,,7^4[4:1]/8^3[4:1],,,
{4},,2,3,
{8}4/7,,7/8,7/8,7/8,,1/6,,
{8}2/5,,1/2,1/2,1/2,,3/8,,
{4}4h[2:1]/6h[2:1],,,3V51[2:1]/7V51[2:1],
{4},,,2b/8b,
{8}4/5,,3/5,3/5,,4/6,4/6,,
{4}6/5h[2:1],8,6h[2:1],8,
{8}5,,2/4,2/4,,1/8<4[8:3],,,
{4},,4/5,3/6,
{4}5/7h[2:1],6,5,3/6,
{4}4/2h[2:1],3,4,3/6,
{16}7h[16:3],,,6h[16:3],,,5,,,,,,4/5,,,,
{8}3,3,4,4,,3/4,2b/5b,,
{8}4/5,,4/6,4/6,,3/5,3/5,,
{4}3/4h[2:1],1,3h[2:1],1,
{8}4,,5/7,5/7,,8/1>5[8:3],,,
{4},,4/7,3/6,
{8}2/5,,1/2,1/2,1/2,,3/8,,
{8}4/7,,7/8,7/8,7/8,,1/6,,
{1}3h[4:3]/5h[4:3],
{1}2bqq3[4:5]/6bqq7[4:5],,
{4}3,2/4,6,5/7,
{4}3h[4:1],4h[4:1],5h[4:1],6,
{4}7,6/8,2,1/3,
{4}6h[4:1],5,4b/7b,,
{4}3h[4:1],4,6h[4:1],5,
{4}2h[4:1],1,7h[4:1],8,
{4}1/8,2/7,3/6,4/5,
{8}4/6,,3/5,,4,4,{4}5<4[2:3],{1},,
{4}4/5,3/6,2/7,1/8,
{6}2h[4:1]/7h[4:1],,,1/8,1/8,1/8,
{1}7b/2b^5[4:5],
{4},,,6,
{8}5/6,,,4/5,,,{4}3/4^6[2:1],{1},
{8}6,,6,6h[8:5],,,,,
{8}4,,4,4h[8:5],,,,,
{8}5,,5,5h[8:5],,,,,
{8}4,,4,,6,6-4[8:1],,4,,
E
MASTER
(222.0){8},,,,,,,3h[4:1]/6q3[2:1],{1},
{4}5/4h[4:7],6,,6,
{4}5,6,,5h[4:9],
{8}4,,3,3,,,3,,
{8}4,,3,,,,3,3,
{4}3h[4:3],6,,5,
{8}4/6,,5,5,4,4,6,6,
{8}3,3,7,7,2,2,8,8,
{4}1-5[4:1],7>4[8:3],,,
{8}2,,3/4,,2,2,5,4,
{8}3/5,,4/6,,7,7,4,5,
{16}3/6,,,,2/7,,,,6h[16:3],,,5,,,4/7,,
{8}4/7,,1/8,,3,4,2b/5b,,
{12}1/6,2,3,7,6,5,2,3,4,8,7,6,45,3,2,6,7,8,2,3,4,5/7,,,
{4}6-3[8:1],3,2-7[8:1],7,
{8}6,6,3,3,5,4,{4}4>5[1:1]/5<4[1:1],{1},
{4},,4/5,2/7,
{8}3,3,4,2,6,6,5,7,
{8}4/7,7/4-8[4:1],,,,,5,,
{4}3/5-7[4:1],3,3,3/7,
{4}3/7-4[4:1],3,3,3/4,
{4}3/4-6[4:1],3,3,3^6[4:1]/6-3[4:1],
{4},,1/8,3/6,
{4}4/7,2/5,{12}3,4,3,4,,,
{4}5h[4:1]/2-5[4:1],,6,5/6,
{8}4/7,,3/5,3/5,,4/6,4/6-1[4:1],,
{8}3,,2,,1b/2b,,3,4,
{8}2/5,,6,5,4/7,,6/3-5[8:1],,
{8}7-3[8:1],,2,,2/4,,6,5,
{8}4/7,,3,4,2/5,,3/6-4[8:1],,
{4}2-6[8:1],7,5/7,4/6,
{8}3h[4:1]/5h[4:1],,,2/6,,7,7/8,,
{8}4h[4:1]/6h[4:1],,,3/7,,2,1/2h[4:1],,
{8}4h[4:1],,5h[4:1],,6h[4:1],,3,3/6,
{8},4/5,4/5,,2b/7b,,,,
{8}4/6,,8b,,1/7,1/7<3[8:3],,2h[8:5],
{4},,1,3,
{8}4/5,,3/6,,2/8,8/2>6[8:3],,7h[8:5],
{4},,8,5/6,
{8}3/4,,1b,,2/4,2/4,,3,
{8},5/7,5/7,,6h[4:1],,3h[4:1],,
{8}4,,1/2,,7/8,7/8p4[8:3]*q4[8:3],,,
{4},,2/5,3/4<8[2:1],
{4}2,3,4,6/5>1[2:1],
{4}7,6,5,3/4<8[2:1],
{4}2,3,4-8[4:1],8^3[4:1]*^5[4:1],
{4},,4,2/7,
{8}6,6,5,7h[4:1],,8,1/8,,
{8}2,2,1,3h[4:1],,4,4qq4[2:1]/5^8[2:1],,
{4},,,1/8,
{8}2b/7b,2b/7b,,,4/5,,1/8,2,
{8}3/7^4[8:1],,1,1-5[8:1],,8,8>4[4:1],,
{4}4<8[4:1],8,1w5[8:1],,
{8}2b/7b,,5b/6b,4b/7b^2[8:1],,3bp6[8:3],,5,
{4},8,4/7,2/5,
{8}3/8-5[8:1],,4,4-8[8:1],,6>7[8:3]*p7[8:3],,,
{4},,5/2^5[8:1],7,
{16}7h[16:3],,,6h[16:3],,,5,,,,2/5,,2/5,,1,,
{8}8,4/7^4[8:1],,2h[4:1],,,1/2,,
{16}1,8,1,,2b/7b,,,,3/5,,2/6,,7/1<5[4:1],,,,
{8}5>1[4:1],,1,,8-4[8:1],,1,2,
{8}3,4,5,6b/2b^7[8:1],,6b<3[8:3],,5b,
{2},4-1[8:1]/5-8[8:1],
{8}2b/7b,,5/6,6,6/8,6,2/6,,
{8}4/8,,1/2,2,2/4,2,2h[4:3]/5^8[4:1],,
{8},,,,8,,4,5,
{8}3/6,,2/7,2/7,,4/5,4/5,,
{4}2b-4[4:1],4-6[4:1],7,8,
{4}7-5[4:1],5-3[4:1],2,1,
{8}7/8,,5/6,6/5-1[8:1],,8,,2h[4:1]/7h[4:1],
{4},2/7,3/4,5/6,
{4}7^5[4:1],5^3[4:1],2,1,
{4}2^4[4:1],4^6[4:1],7,8,
{16}1h[16:3],,,2h[16:3],,,3,,,,2/4,,2/4,,,,
{8}5/7,5/7,,1h[4:1]/8h[4:1],,,2b/7b,,
{8}1-5[8:1],1,7,7,6^1[8:1],6,3,3,
{8}2-6[8:1],2,8,8,7^2[8:1],7,4,4,
{8}3h[4:1],,4,2/5,,7h[4:1]/4>7[8:3],,,
{4},,5/6,2/4,
{4}7-5[8:1],2-8[8:1],4,3/7,
{4}4v1[4:1]/6v1[4:1],,,8h[4:9]/1pp1[2:1],
{4},,,1h[4:5],{1},,
{16}3/6,,3,,7,,6,,2/5,,3,4,3,,2/5,,
{8}5/2h[4:1],,4,3,4/7h[4:1],,5,6,
{16}2/5,,2,,1,,8,,7h[16:3],,,8,,,1/6,,
{8}1/6-1[8:1],,3,,3,4,1b/6b,,
{12}3/8,7,6,2,3,4,7,6,5,1,2,3,45,
6,7,3,2,1,7,6,5,2/4,,,
{8}3^6[8:1],3,6,,7^2[8:1],7,2,,
{8}3,3,4,1,7,6,{4}5/4>5[1:1],{1},
{4},,1/8,3/6,
{8}1,1,4,3,8,8,5,6,
{16}1,7,1,7,2,8,2,8,1b,,,6b/7b,,,4b/5b,,
{1}5b/4bqq3[8:7],
{4},,,4/6,
{8}3h[4:1]/5h[4:1],,,3/5^8[8:7],,,,,
{8},,,,,,4,4,
{1}5/4qq2[8:7],
{4},,,4/5,
{8}3,3,5,5,4,4,6,6,
{8}5,5,4,4,3/5,5/3-5[8:1],,,,
E
Re:MASTER
最終更新:2026年10月01日 21:19