アットウィキロゴ

しんでしまうとはなさけない!

アーティスト ワンダフル☆オポチュニティ!

BPM EASY BASIC ADVANCED EXPERT MASTER Re:MASTER
174 2 6 8 10 12+ -

EXPERT MASTER Re:MASTER
譜面制作者 しろいろ rioN -

EASY


BASIC

(174.0){1},,,,
{2}4,4,
{2}5,5,
{2}4,4,
{4}4/5,4/5,4/5,,
{2}4,4,
{4}3,3,3,,
{2}2,2,
{4}1,1,1,,
{2}8,8,
{4}7,7,7,,
{2}6,6,
{4}5,5,4/5,,
{1}4/5,
{1}5/6,
{1}3/4,
{4}4,5,4,,
{1}4/5,
{1}3/4,
{1}5/6,
{4}5,4,5b,,
{4}5,5,5,,
{4}6,6,6,,
{4}7,7,7,,
{1}8h[2:1],
{4}1,1,1,,
{4}2,2,2,,
{4}3,3,3,,
{1}4h[2:1],
{2}3/4,3/4,
{4}1/2,1/2,1/2,,
{1}1-5[4:3],,
{2}5/6,5/6,
{4}7/8,7/8,7/8,,
{1}8-4[4:3],,
{2}4/5,3/4,
{4}1/2,1/2,1/2,,
{1}1-5[4:3],,
{2}4/5,5/6,
{4}7/8,7/8,7/8,,
{1}8-4[4:3],,
{1}4h[1:1],,
{1}5h[1:1],,
{4}4,4,3,3,
{4}2,2,1/8,,
{4}8,8,7,7,
{4}6,6,4/5,,
{4}5,5,6,6,
{4}7,7,1/8,,
{4}1,1,2,2,
{4}3,3,4b/5b,,
{4}5,5,4,4,
{4}3,3,3/4,,
{4}4,4,5,5,
{4}6,6,5/6,,
{4}7,7,8,8,
{4}1,1,1/8,,
{4}2,2,1,1,
{4}1/8,1/8,1b/8b,,
{4}1,1,2,2,
{4}3,4,3,,
{4}5,5,6,6,
{4}7,8,7,,
{4}8,8,7,7,
{4}6,5,6,,
{4}4,4,3,3,
{4}2,1,2,,
{4}1,1,2,2,
{4}3,3,4,4,
{4}5,5,6,6,
{4}7,7,1b/8b,,
{4}8,8,7,7,
{4}6,6,5,5,
{4}4,4,3,3,
{4}2,2,1b/8b,
E

ADVANCED

(174.0){1},,,,,,,
{4}4,5,4,3b/6b,
{4}3,4,3,,
{4}6,5,6,,
{4}3,4,3/4,,
{4}6,5,5/6,,
{4}2,3,4,5,
{4}5,4,3/6,,
{4}7,6,5,4,
{4}4,5,3/6,,
{4}1,2,3/4,,
{4}8,7,5/6,,
{4}4,3,1/2,,
{4}5,6,7/8,,
{4}4,3,2/4,,
{4}5,6,5/7,,
{4}6,7,6/8,,
{4}4,3,2b/4b,,
{4}3,4,3/4,3/4,
{4}6,5,4/7,,
{4}6,5,5/6,5/6,
{4}3,4,2/5,,
{4}2,1,1/2,1/2,
{4}7,8,7/8,,
{4}8,1,1/8,8<1[4:3],{1},
{2}2h[2:1],3h[2:1],
{2}4h[2:1],5,
{2}7h[2:1],6h[2:1],
{2}5h[2:1],4,
{4}1,1,2,2,
{4}3,3,2/4,,
{4}8,8,7,7,
{4}6,6,5/7,,
{2}7h[2:1],6h[2:1],
{2}5h[2:1],4b,
{2}2h[2:1],3h[2:1],
{2}4h[2:1],5b,
{4}5,5,4,4,
{4}5,4,4/5,,
{1}4^1[2:1]/5^8[2:1],
{1}1^4[2:1]/8^5[2:1],
{4}3,4,2/5,,
{4}6,5,4/7,,
{4}2,1,3/8,,
{4}7,8,1/6,,
{4}7,8,7,8,
{4}1/6,1/6,2/5,,
{4}2,1,2,1,
{4}3/8,3/8,4/7,,
{4}7,8,7,8,
{4}1/6,1/6,2/5,,
{4}2,1,2,1,
{4}3/8,3/8,4/7,,
{4}2,1/2,3,3/4,
{4}5/6,5/6,4/7,,
{4}7,7/8,6,5/6,
{4}3/4,3/4,2/5,,
{4}3,3/4,2,1/2,
{4}7/8,7/8,1/6,,
{4}7/8,7/8,1/2,1^6[2:1]/2v5[2:1],{1},
{4}6,5/6,3,3/4,
{4}6,5/6,4/7,4/7,
{4}2,1/2,7,7/8,
{4}1/2,3/8,4/7,,
{4}3,3/4,6,5/6,
{4}3,3/4,2/5,2/5,
{4}7,7/8,2,1^6[2:1]/2^5[2:1],{1},
{4}6,5/6,3,3/4,
{4}6,5/6,4/7,4/7,
{4}8,1,1/8,2/7,
{1}2^4[4:1]/7^5[4:1],
{4}3,3/4,6,5/6,
{4}2,1/2,7,7/8,
{4}6,5,3,4,
{2}4-2[4:1]/5-7[4:1],,
E

EXPERT

(174.0){2}6h[2:1],5h[2:1],
{4}4,3,2/5,,
{2}3h[2:1],4h[2:1],
{4}5,6,4/7,,
{2}6h[2:1],5h[2:1],
{4}4,3,2/5,,
{2}3h[2:1],4,
{4}5/6,3/4,4/5,2b/7b,
{8}5/6,,4/5,,3/4,3/4,,,
{8}2,1,2,,6,5,6,,
{8}3/4,,4/5,,5/6,5/6,,,
{8}7,8,7,,3,4,3,,
{8}4/5,,3/6,,1/2,1/2,,,
{8}3,5,3,,7,1,7,,
{8}4/5,,3/6,,7/8,7/8,,,
{8}2,1,2,,3/8,,,,
{8}7h[8:3]/8h[8:3],,,,,1/2,1/2,,
{8}7/8,,,2,1,2,1,2,
{8}1-5[8:1],,,,,3,4,3,
{1}4q7[2:1],
{4}7/8,7-3[4:1]/8-4[4:1],,,
{2}3h[4:1]/4h[4:1],7b/8b,
{4}3,2/4,6,5/7,
{4}1b,5b,3b,7b,
{8}4/5,,3/4,,2,1,2,,
{8}4/5,,5/6,,7,8,7,,
{8}3/4,,5/6,,7,8,7,8,
{2}7-4[8:1],8-3[8:1],
{8}3/4,,2/5,,7,1,7,,
{4}4/5,4/7,2/8,1/7,
{8}4/6,,3/5,,7,1,7,1h[8:3],
{4},8b,2b,6b,
{4}5/4h[4:1],3,6h[4:1],7,
{4}2h[4:1],1,7/8,1/6,
{4}4/5h[4:1],6,3h[4:1],2,
{4}7h[4:1],8,1/2,3/8,
{4}4/5,3/4,5/6,1/2,
{4}7/8,1/8,4/5,2/7,
{4}1-5[8:1]/8-6[8:1],,7/8,1/2,
{4}1-3[8:1]/8-4[8:1],,1/2,7/8,
{4}1/8h[4:1],7b,2h[4:1],3b,
{4}6h[4:1],5b,3b/4b,2b/5b,
{4}8/1h[4:1],2,7h[4:1],6,
{4}3h[4:1],4,5/6,4/7,
{4}1/8,7/8,1/2,5/6,
{4}3/4,4/5,1/8,3/6,
{2}7-4[8:1]/8-3[8:1],1-6[8:1]/2-5[8:1],
{2}7^4[8:1],2^5[8:1],
{4}6h[4:1],5h[4:1],4h[4:1],3,
{4}3h[4:1],4h[4:1],5h[4:1],6,
{4}5h[4:1],4h[4:1],3h[4:1],2,
{4}1/8,1/8,2-4[8:1]/7-5[8:1],,
{8}3,4,3,,6,5,6,,
{2}6-3[8:1],2-5[8:1],
{8}8,4,5,2,6,5,6,,
{4}1/2,8/7-3[8:1],,1/2,
{8}6,5,6,,3,4,3,,
{2}3-8[8:1],7-4[8:1],
{8}2,5,4,7,3,4,3,4,
{8}2,1,2,1,3/8,,1/7,,
{8}6,5,6,,3,4,3,,
{2}3v6[8:1],7v4[8:1],
{8}1,5,4,7,3,4,3,,
{4}7/8,1/2q6[8:1],,7/8,
{8}3,4,3,,6,5,6,,
{2}3v1[8:1],7v5[8:1],
{8}4,5,3,6,2/7,2/7,2/7,,
{8}1b/8b,1b/8b,2b/7b,6b/3b>6[4:1],,,,,
{8}7,8,7,8,6,3,4,3,
{2}2-4[8:1]/6-8[8:1],3-1[8:1]/7-5[8:1],
{8}6,5,6,5,7,4,5,2,
{4}1/3,8/6^3[8:1],,1/2,
{8}7,8,7,8,6,3,4,2,
{2}3-1[8:1]/7-5[8:1],2-4[8:1]/6-8[8:1],
{8}3,4,3,4,2,5,4,7,
{2}1^4[8:1]/8^5[8:1],2/7,
{8}1,6,8,7,4,5,2,1,
{2}3-7[8:1]*-8[8:1],6-1[8:1]*-2[8:1],
{8}1,6,8,7,2,5,4,7,
{4}6/8,1/3^6[8:1],,7/8,
{8}2,1,2,1,2,5,4,5,
{2}3-8[8:1]/4-7[8:1],5-2[8:1]/6-1[8:1],
{8}7,8,7,8,7,4,5,3,
{16}4/5,,,3/6,,,2/7,,2-6[8:1]/7-3[8:1],,,,,,,
E

MASTER

(174.0){8}3h[8:3],,,4,2h[8:3],,,5,
{4}7/8,1/2,3/4,5/6,
{4}1/7h[4:1],6,8/2h[4:1],3,
{16}3h[4:1]/6h[4:1],,,,,,1,8,1,,2/7,,3/6,,,,
{8}6h[8:3],,,5,7h[8:3],,,4,
{4}1/2,7/8,5/6,3/4,
{16}1h[4:1]/8h[4:1],,,,,,2,7,2,,3/6,,4/5,,,,
{4}1/3,6/8,4/5,2b/7b,
{8}8^5[8:1],,2^5[8:1],,8,8h[4:1],,1h[4:1],
{8},2,3,4,5,6,7,8,
{8}1^4[8:1],,7^4[8:1],,1,1h[4:1],,8h[4:1],
{8},7,6,5,4,3,2,1,
{8}7^2[8:1],,3p6[8:1],,5,5h[4:1],,4h[4:1],
{8},3,4,5,6,5/7,4/8,1/3,
{8}2^7[8:1],,6q3[8:1],,4,4h[4:1],,5h[4:1],
{8},6,5,4,3,2/4,1/5,6/8,
{16}7b,,3,4,3,,3,,,,2,,2,,,,
{16}6b,,3,4,3,,3,,2,,2,,1,,1,,
{16}5b,,3,4,3,,1,,,,5,,6,,7,,
{8}1/8,2,3,4/5,3/6,2/7,1/8,7,
{16}2,,6,5,6,,6,,,,8,,8,,,,
{16}3,,6,5,6,,8z4[4:1],,1b,,1b,,3,,,,
{16}2,,6,5,6,,8,,1,,1/8,,2/7,,3/6,,
{4}5b-1[8:1],3b-7[8:1],6b-1[8:1],8b,
{8}3h[8:1],4,6h[8:1],5,3h[8:1],4,6h[8:1],5,
{8}2h[8:1],4,7h[8:1],5,2,1,8,7,
{8}6,5,4,3,2,1,8,7,
{4}6-2[8:1],5-1[8:1],4-8[8:1],3,
{8}6h[8:1],5,3h[8:1],4,6h[8:1],5,3h[8:1],4,
{8}7h[8:1],5,2h[8:1],4,1-4[8:1]/8-5[8:1],,1/8,,
{8}3,4,5,6,7,8,1,2/7,
{4},1-3[8:1]/8-4[8:1],1-5[8:1]/8-6[8:1],1/8,
{16}1q5[8:1],,,7,,,7,,8p4[8:1],,,2,,,2,,
{16}1q5[8:1],,,7,,,7,,8w4[8:1],,,,,,,,
{16},,1/8,,2/7,,1/8,,2h[16:3],,,3h[16:3],,,4,,
{16}7h[16:3],,,6h[16:3],,,5,,3/6,,,,1/8,,,,
{8}3/6,4/5,3,4,5,6,5,4,
{8}3/6,,4/7,6,5,6,5,,
{8}3/5,4,4/6,5,2/4,3,5/7,6,
{8},2/7,2h[8:1]/7h[8:1],,8-5[8:1],1-4[8:1],8,1,
{16}7p3[8:1],,,8,,,1b,,2q6[8:1],,,1,,,8b,,
{16}7p3[8:1],,,8,,,1b,,1w5[8:1],,,,,,,,
{16},,1/8,,2/7,,1/8,,7h[16:3],,,6h[16:3],,,5,,
{16}2h[16:3],,,3h[16:3],,,4,,3/6,,,,1/8,,,,
{8}3/6,4/5,6,5,4,3,4,5,
{8}3/6,,2/5,3,4,3,4,,
{8}4/6,5,3/5,4,5/7,6,2/4,3,
{2}1v3[8:1]/5v7[8:1],4v2[8:1]/8v6[8:1],
{4}1h[8:1]/8h[8:1],2h[8:1]/8h[8:1],1h[8:1]/8h[8:1],1h[8:1]/7h[8:1],
{4}1h[8:1]/8h[8:1],1h[8:1]/2h[8:1],1h[8:1]/8h[8:1],7h[8:1]/8h[8:1],
{4}1h[8:1]/8h[8:1],2h[8:1]/3h[8:1],1h[8:1]/8h[8:1],6h[8:1]/7h[8:1],
{16}1h[8:1]/3h[8:1],,,,6h[8:1]/8h[8:1],,,,2/7,,1,8,1,,,,
{8}8,7,6,5,3/4,2,5/6,7,
{4}2^5[8:1],6^1[8:1],2<6[8:1],,
{8}5,2,7,4,6,5/7,3,2/4,
{4}2/4^7[8:1],3qq7[4:1],,5,
{8}1,2,3,4,5/6,7,3/4,2,
{4}7^4[8:1],3^8[8:1],7>3[8:1],,
{8}4,7,2,5,3,2/4,6,5/7,
{4}7/5^2[8:1],6pp2[4:1],,4,
{2}5^2[8:1]/6p1[8:1],3q8[8:1]/4^7[8:1],
{8}1,2/5,8,4/7,1,3/4,8,5/6,
{2}4^1[8:1]*pp6[8:1],5qq3[8:1]*^8[8:1],
{4}1-3[8:1]/8-4[8:1],1-5[8:1]/8-6[8:1],1/8,,
{2}3^8[8:1]/7q4[8:1],2p5[8:1]/6^1[8:1],
{8}4,3/8,5,1/6,4,2/8,5,1/7,
{8}8,1,2,3/6,1,8,7,3/6,
{8}4b/5b,4b-8[8:1]/5b-1[8:1],3b/6b,4b/5b,,2b/7b,2b/7b,,
{16}5/6,,3,4,3,,6,5,6,,3,4,2,,6,5,
{16}7,,2,1,2,,7,8,7,,3,4,3,,2/5,,
{16}3/4,,6,5,7,,3,4,2,,6,5,6,,3/8,,
{8}7^4[8:1],7,3qq8[4:1],3,,,6,,
{16}3/4,,6,5,6,,3,4,3,,6,5,7,,3,4,
{16}2,,7,8,7,,2,1,2,,6,5,6,,4/7,,
{16}5/6,,3,4,2,,6,5,7,,3,4,3,,1/6,,
{8}2^4[8:1],7^5[8:1],2qq7[4:1],,,,,,
{16}3/4,,6,5,7,,2,1,2,,6,5,7,,3,4,
{16}3,,8,1,8,,2/7,,4/5,,4/5,,2/7,,2/7,,
{16}5/6,,2,1,2,,7,8,7,,3,4,3,,1/6,,
{8}2^5[8:1],2,6pp1[4:1],6,,,3,,
{16}5/6,,3,4,2,,7,8,7,,3,4,2,,6,5,
{16}6,,2,1,2,,5,4,5,,1,8,1,,2/7,,
{16}5/6,,3,4,2,,7,8,7,,2,1,3,,7,,
{16}6/8,,,1/3,,,4/5,,2b/7b,
E

Re:MASTER


名前:
コメント:

タグ:

+ タグ編集
  • タグ:
最終更新:2026年10月03日 22:16