EASY
BASIC
(215.0){1},,,,,
{2}1,1,
{1}1,
{2}8,8,
{1}8,
{2}1,1,
{2}2,2,
{2}3,3,
{1}4/5,
{2}5,5,
{2}6,6,
{2}7,7,
{1}1b/8b,
{2}8,8,
{2}7,7,
{2}6,6,
{2}5,5,
{1}4h[2:1],
{1}5h[2:1],
{2}4,4,
{1}4/5,
{2}4,4,
{2}3,3,
{2}2,2,
{2}1,1,
{1}8h[2:1],
{1}1h[2:1],
{1}1/8,
{2}1/8,1/8,
{2}1,1,
{2}2,2,
{1}3h[1:1],,
{2}4,4,
{2}5,5,
{2}4/5,4/5,
{1}3/6,
{1}7h[2:1],
{1}8h[2:1],
{1}1h[2:1],
{1}1-4[4:5]/8-5[4:5],,,
{1}4h[8:11]/5h[8:11],,
{4}5,5,5,,
{4}6,6,6,,
{4}7,7,7,,
{4}8,8,8,,
{2}1,1,
{2}2,2,
{1}2-6[4:5],,
{2},7,
{2}7,7,
{2}1/8,1/8,
{1}2/7,
{4}3,3,3,,
{1}4/5,
{2}4/5,4/5,
{1}3/6,
{1}7-4[4:5],,,
{1}2,
{1}2-5[4:5],,,
{1}7,
{1}8-4[4:5],,,
{1}1,
{1}1h[2:1]/8h[2:1],
{1}1h[2:1]/2h[2:1],
{1}1h[2:1]/8h[2:1],
{1}7h[2:1]/8h[2:1],
{1}1-4[4:5]/8-5[4:5],,,
{4}4,4,5,5b,{1},
{4}4,4,4,,
{4}3,3,3,,
{4}2,2,2,,
{4}1,1,1/8,,
{2}8,8,
{2}7,7,
{1}7-3[4:5],,
{2},4,
{2}4,4,
{2}4/5,4/5,
{1}3/6,
{4}7,7,7,,
{1}1-4[4:5]/8-5[4:5],,
{2},1b/8b,
{4}8,8,8,,
{4}7,7,7,,
{4}6,6,6,,
{4}5,5,4/5,,
{2}4,4,
{2}3,3,
{2}2,2,
{1}1h[2:1],
{4}1,1,1,,
{4}8,8,8,,
{2}7,7,
{1}5/6,
{2}4/5,4-1[4:5]/5-8[4:5],{1},,
{2}8b,8b,
{2}1b/8b,1,
{2}2,2,
{2}3,3,
{1}4/5,
{4}6,6,6,,
{4}7,7,7,,
{4}8-4[2:3],,,{1},,
E
ADVANCED
(215.0){1},
{2}3,3,
{4}4,4,4,,
{2}6,6,
{4}5,5,5,,
{2}2,2,
{4}1,1,1,,
{2}7,7,
{1}1h[2:1]/8h[2:1],
{2}2,1,
{4}2,2,1,,
{2}7,8,
{4}7,7,8,,
{2}3,4,
{4}3,3,4,,
{2}6h[2:1],5h[2:1],
{2}4h[2:1],3b,
{2}5,5,
{4}6,6,6,,
{2}4,4,
{4}3,3,3,,
{2}3/4,4/5,
{2}5/6,4/5,
{1}4qq1[4:5],,
{2}8,8,
{4}7,7,7,,
{2}1,1,
{4}2,2,2,,
{2}1/2,1/8,
{2}7/8,1/8,
{1}8qq5[4:5],,
{2}3,3/4,
{4}3,3,3/4,,
{2}6,5/6,
{4}6,6,5/6,,
{2}3,2/4,
{4}3,3,2/4,,
{2}6,5/7,
{4}6,6,5/7,,
{2}7h[2:1],8h[2:1],
{2}1h[2:1],2,
{2}3h[2:1],4h[2:1],
{2}5h[2:1],6,
{2}7/8,7/8,
{2}1/2,1/2,
{1}1pp4[4:5]/8qq5[4:5],,
{4}4,4,3/5,,
{4}2,1,8,,
{4}8,8,1/7,,
{4}6,5,4,,
{4}6,6,5/6,,
{4}3,3,3/4,,
{2}4/5,3/6,
{4}2,1,8,,
{4}7,7,6/8,,
{4}2,2,1/3,,
{2}8h[2:1],1h[2:1],
{2}8,2/7,
{2}1/2,7/8,
{4}1/8,1/8,1/8,,
{1}1pp4[4:5]/8qq5[4:5],,
{1}4h[1:1],
{1}5h[1:1],
{1}6h[1:1],
{1}7,
{1}5h[1:1],
{1}4h[1:1],
{1}3h[1:1],
{1}2,
{1}2h[1:1],
{1}1h[1:1],
{1}8h[1:1],
{1}7h[1:1],
{2}6,5/7,
{2}3,2/4,
{2}4/5,3/6,
{2}2/7,1/8,
{1}2h[2:3]/7h[2:3],,
{1}1pp4[2:3]/8qq5[2:3],,,
{4}3,3,2/4,,
{4}1,8,7,,
{4}7,7,6/8,,
{4}5,4,3,,
{4}2,2,1/2,,
{4}7,7,7/8,,
{2}1/8,2/7,
{4}3,4,5,6,
{4}7,7,6/8,,
{4}2,2,1/3,,
{2}4h[2:1],5h[2:1],
{2}4,3/6,
{2}3/4,5/6,
{4}4/5,4/5,4/5,,
{2}5b/6b,3b/4b,
{2}1b/2b,7b/8b,
{4}2,2,1/3,,
{4}7,7,6/8,,
{4}3,3,2/4,,
{4}6,6,5/7,,
{4}7,8,7/8,,
{4}2,1,1/2,,
{2}7/8,1/2,
{4}3,4,5,6,
{4}7,7,6/8,,
{4}2,2,1/3,,
{2}8h[2:1],1h[2:1],
{2}8,2/7,
{2}1/2,7/8,
{1}1>8[4:5],,
{2}1h[2:1],8h[2:1],
{2}1,2,
{4}1,2,3/8,,
{2}8,7,
{4}8,7,1/6,,
{2}5h[2:1],4h[2:1],
{2}3h[2:1],2,
{1}1b/8b,
{4},,,2b/7b,
E
EXPERT
(215.0){1},,,,,
{1}5h[4:3]/6h[4:3],
{4}5,5,5,,
{1}3h[16:15]/7h[16:15],
{4},,,4/5,
{4}4/7,6,2/5,3,
{4}4/7,6,2/5,3,
{4}4/7,6,2/5,1,
{4}1/8,2/7,4/5,,
{4}6,4/5,6,4/5,
{4}3,4/5,3,4/5,
{4}3/6,2/7,1/8,5^2[2:1]/6^1[2:1],{1},
{4}5/7,3,2/4,6,
{4}5/7,3,2/4,6,
{4}5/7,3,2/4,6,
{1}7^4[2:1]/8^3[2:1],
{2}3h[2:1],1h[2:1],
{2}8h[2:1],6,
{4}3/6,,8,6-3[8:3]/7-2[8:3],{1},
{4}2/5,6,5,3^8[2:1]/4^7[2:1],{1},
{4}3/4,4/5,5/6,4/5,
{4}3/4,4/5,5/6,6,
{2}1h[4:1]/5h[4:1],4h[4:1]/8h[4:1],
{2}2h[4:1]/6h[4:1],4^7[4:3]/8^3[4:3],{1},
{4}4/5,4/5,2/7,,
{4}7h[4:1],5,2h[4:1],4,
{4}7h[4:1],5,2h[4:1],4,
{4}7h[4:1],6,2h[4:1],3,
{4}7h[4:1],6,2h[4:1],3,
{4}4/6,3/7,2/8,1,
{4}1/7,2/6,3/5,4,
{4}5/6,4/5,3/4,4/5,
{4}5/6,4/5,3/6,,
{2}4/2h[2:1],4,
{2}5/7h[2:1],5,
{2}4/2h[2:1],4,
{4}5/7,4,3/8,,
{4}3/8,7,3/6,4,
{4}3/8,7,3/6,4,
{4}3/8h[4:5],3,2,2,
{16}1h[4:1],,,,,,,1/8,,,,,,,,,
{4}1/8,7,7,8h[16:11]/2>7[16:7],{1},
{4}1/8,2,2,1h[16:11]/7<2[16:7],{1},
{4}4,3,2/4,3,
{4}3/5,6,4/5,3,
{4}5,6,5/7,6,
{1}6^3[8:3],
{4}1/6,,5/7,4,
{4}4/6,5,3/5,2,
{4}2/4,5,1/6,2,
{4}1/6,1/6,3/7,,
{4}3/5,4/6,3/5,4^1[2:1]*^7[2:1],{1},
{4}4/6,3,3/5,6,
{4}4/6,3,3/5,6,
{2}5/6h[2:1],3,
{2}5/6h[2:1],3,
{2}5/6h[2:1],2,
{2}5/6h[2:1],2,
{1}6/5>1[4:3],
{2},5/6,
{2}1,2/6,
{2}3,4/6,
{2}5/6h[2:1],3,
{2}5/6h[2:1],3,
{2}5/6h[2:1],2,
{2}5/6h[2:1],2,
{4}3/5,5,4/6,2,
{4}4/6,6,3/5,2,
{4}3/5,5,4/6,2,
{4}4/6,6,3/5,2,
{4}5/4h[4:3],6,5,6,
{4}5/3h[4:3],6,5,6,
{4}5/2h[4:3],6,5,6,
{1}1h[4:3]/5^8[2:1],
{4}4/5,4/5,2/8,,
{4}1/8,6,7,8h[16:11]/2>7[16:7],{1},
{4}1/8,3,2,1h[16:11]/7<2[16:7],{1},
{4}5,3,2/5,4,
{4}3/5,6,4/6,4,
{4}5,6,4/7,6,
{1}6^3[8:3],
{4}2/6,,5/7,4,
{4}4/6,5,3/5,2,
{4}2/4,5,2/6,1,
{4}2/6,2/6,2/8,,
{4}3/5,4/6,3/5,4^1[2:1]*^7[2:1],{1},
{4}2/4,5,3/6,4,
{4}5/7,3,2/7,,
{4}1/8,6,7,8h[16:11]/2>7[16:7],{1},
{4}1/8,3,2,1h[16:11]/7<2[16:7],{1},
{4}4/6,3,2/5,4,
{4}3/6,5,4/6,4,
{4}3/5,6,4/7^2[2:1],,
{2},4h[4:1]/5h[4:1],
{4}1/6,,2/4,5,
{4}3/5,4,4/6,7,
{4}5/7,4,3/7,8,
{4}3/7,3/7,1/7,,
{4}4/6,3/5,{2}4q1[2:3]/5^8[2:3],{1},,
{2}3b/6b,1b/8b,
{1}4b^1[4:7]/5b^8[4:7],,,
{4}4/5,4/5,4/5,,
{4}3/7,6,7,3,
{4}2/6,3,2,8<1[1:1],{1},
{4},,,1b/7b,
E
MASTER
(215.0){1},
{12}4/7h[4:7],,,4,,,5,,5,,,5,
{12},,5,,,4,4,,,4,,,
{12}5/2h[12:11],,,5,,,4,,4,,,5,
{12},,5,4,,6,,,4,5,,,
{12}1/6h[4:7],,,1,,,8,,8,,,8,
{12},,8,,,1,1,,,1,,,
{12}8/3h[3:2],,,8,,,1,,1,,,2b/7b,
{12},,,,,,,,1,8,,,
{12}2^5[6:1],,8,,,7p3[6:1],,,2,,,1q5[6:1],
{12},,7,,,8^5[6:1],,,1,,,2,
{12}2,,4,,,4h[4:1],,,5,,,5,
{12}7h[4:1],,,8,,8,,,1,8,,,
{12}7^4[6:1],,1,,,2q6[6:1],,,7,,,8p4[6:1],
{12},,2,,,1^4[6:1],,,7,,,8,
{4}8,1,2/6,3/7,
{12}4/8,,4/8,,,1b/5b,,,,,,,
{4}5/7,4,2/4,5,
{4}5/7,4,2/4,5,
{4}4/7,3,2/5,6,
{4}5/7,6/8,1/7,2/8,
{2}3^8[4:1],6q3[4:1],
{2}4p5[16:5],6v4[4:1],
{12}3q6[3:2],,,,,,,,8,,,8h[3:1],
{12},,,1,,1,,,,1/6,,,
{4}3/4,7,5/6,2,
{4}3/4,7,5/6,2,
{4}3/5,8,4/6,1,
{4}3/5,2/6,3/7,4/8,
{2}1h[4:1]/5h[4:1],4h[4:1]/7h[4:1],
{12}1h[4:1]/6h[4:1],,,,,,4h[4:1]/8h[4:1],,,,,1V35[12:7]/5V71[12:7],{1},
{12}6h[4:1],,,4,,5,,,3/6,,,,
{4}4/6h[4:1],1,5/3h[4:1],8,
{4}4/6h[4:1],1,5/3h[4:1],8,
{4}5/7h[4:1],1,4/2h[4:1],8,
{4}5/7h[4:1],1,4/2h[4:1],8,
{4}5/7h[4:1],8h[4:1],1h[4:1],2,
{4}3h[4:1],1h[4:1],8h[4:1],6,
{12}6h[4:1],,,5,,5/6,,,5/6,,,5qq2[12:7]/6pp1[12:7],{1},
{4}4h[2:1],5,6h[2:1],5,
{4}2h[2:1],4,8h[2:1],6,
{12}1h[4:1],,,2,,,1/8,,1/8,,,1h[3:1],
{4},2h[4:1],3h[4:1],4h[4:1],
{12}5,,,5,,4/6,,,5,3,,3,
{12}4,,,4,,3/5,,,4,6,,6,
{12}5,,5,4,,4,3,,3,2,,2,
{12}1,,1/8,,,2b/7b,,,8,1,,,
{4}1>5[4:1],7,6<2[4:1],4,
{12}5,,,6,,5/7,,,1,8,,,
{4}8<4[4:1],2,3>7[4:1],5,
{12}4,,,3,,2/4,,,1,8,,,
{4}8-5[4:1],5-2[4:1],2-7[4:1],7-4[4:1],
{4}4-1[4:1],1-6[4:1],6-3[4:1],3-8[4:1],
{4}8-5[4:1],5v2[4:1],2<4[2:1],3h[2:1],
{4},,3,4,
{12}5h[4:1],,,6,,,5,,4,5,,3h[6:5],
{4},4,2,4-7[6:1],
{4}3,5-1[6:1],6,4>5[2:1],
{4}1,,,1/8,
{12}4/6,,,3/5,,,4,,5,,,3/6,
{12},,,4/5,,,4,,,5,,4,
{12}3/5,,,3/5,,,,,4/6,,,5,
{12}4,,,,,3/5,,,,2,,,
{4}2-6[4:3],,,8,
{4}8-4[4:3],,,3,
{12}3-7[4:3],,,,,,5,,,,,5-1[6:5],
{4},,,4,
{12}4>8[4:3],,,7,,,6,,,5,,5<1[6:5],
{4},2,3,4,
{12}4-8[4:3],,,,,,,,7,7,,7p4[6:5],
{4},,,1,
{4}1>5[4:3],,,8,
{4}8<4[4:3],,,2,
{12}2qq5[1:1],,,,,,6,,,,,6h[12:7],
{12},,,,,,,,6,5,,,
{12}6-1[6:1],,,4,,4,,,3,4,,,
{12}3-8[6:1],,,5,,5,,,5,4,,,
{12}5-1[6:1],,,3,,3,,,2,8,,8,
{12}1,,,2/8,,,3/7,,,4qq5[12:7]/6pp5[12:7],,4/6,{1},
{12}4,,4,5,,5,4,,3/5,3qq4[2:1]/5pp4[2:1],,3/5,
{12},,,,,,,,5,4,,4,
{12}6h[4:1],,,5,,6,5,,7h[4:1],,,{24}1,2,
{6}3,{24}8,7,{6}6,{24}2,3,{6}4,{24}7,6,{12}5,,3,
{4}6<2[4:1],4,3<7[4:1],8,
{12}8h[4:1],,,1,,1-5[6:1],,,1,,,,
{4}3>7[4:1],5,6>2[4:1],1,
{12}1h[4:1],,,8,,8-4[6:1],,,8,,,,
{4}1-4[4:1],4-7[4:1],7-2[4:1],2-5[4:1],
{4}5-8[4:1],8-3[4:1],3-6[4:1],6-1[4:1],
{4}1-4[4:1],4v7[4:1],7>5[2:1],6h[2:1],
{4},,6,5,
{12}4h[4:1],,,3,,,4,,5,4,,6h[6:5],
{4},5,7,5-2[6:1],
{4}6,4-8[6:1],2,5<4[2:1],
{4}8,,,1/8,
{12}3/5,,,4/6,,,5,,4,,,3/6,
{12},,,1/8,,,2/7h[4:1],,,8,,1h[4:1],
{12},,8,8,,7h[4:1],,,1,1,,3h[4:1],
{12},,8,8,,2/6,,,1,8/2-5[8:1],,,
{4}1-6[8:1],3-8[8:1],4-7[8:1],2q5[12:5],
{12}8h[12:5],,,,,,,,8,1/7-4[8:1],,,
{4}8-3[8:1],6-1[8:1],5-2[8:1],7p4[12:5],
{12}1h[12:5],,,,,,,,1,2/8,,,
{4}8-4[8:1],8^3[8:1],8^5[8:1],8,
{4}1-5[8:1],1^6[8:1],1^4[8:1],1,
{4}5-8[8:1],5-2[8:1],5<4[12:5],5,
{12},,,1,,,2/6,,3/7,,4/8,,
{12}1b/5b,,,2/7,,,3/5,,4,5,,4/6h[6:5],
{4},5,7,5^2[6:1],
{4}7,5^8[6:1],1,5>6[2:1],
{4}8,,,3/5,
{12}5/7,,,2/4,,,8,,1,,,2h[12:19]/7h[12:19],{1},,
{2}1b/8b,2b/7b,
{1}3bqq5[4:13]/6bpp4[4:13],,,,
{12}1h[4:1],,,8h[12:5],,,,,1,7,,2h[4:1],
{12},,1,3,,6h[4:1],,,5,7,,4,
{12},,3/5,,4,{12}5,6,,6,4,,4,
{12}3,,3,5,,5-1[6:1],,,,7b,,
E
Re:MASTER
最終更新:2026年10月03日 22:16