アットウィキロゴ

カラフル×メロディ

アーティスト ちーむMOER

BPM EASY BASIC ADVANCED EXPERT MASTER Re:MASTER
185 2 5 8+ 11 12+ -

EXPERT MASTER Re:MASTER
譜面制作者 華火職人 はっぴー -

EASY


BASIC

(185.0){1},
{2}4,4,
{2}3,3/4,
{2}5,5,
{2}6,5/6,
{2}4,4,
{2}3,3,
{2}2,2,
{2}1,1b/8b,
{1}1-4[4:3],,
{1}5-8[4:3],,
{2}8,8,
{2}1,1,
{1}1h[1:1]/8h[1:1],,
{1}8-5[4:3],,
{1}4-1[4:3],,
{2}1,1,
{2}8,8,
{1}1h[1:1]/8h[1:1],,
{2}1,1,
{4}2,2,2,,
{2}3,3,
{4}4,4,4,,
{2}5,5,
{4}6,6,6,,
{2}7,7,
{4}8,1,8,,
{2}8,8,
{4}7,7,7,,
{2}6,6,
{4}5,5,5,,
{2}4,4,
{4}3,3,3,,
{2}2,2,
{4}1,8,1/8,,
{4}2,2,2,,
{4}3,3,3,,
{4}4,4,4,,
{4}4,5,4/5,,
{4}6,6,6,,
{4}7,7,7,,
{4}8,8,8,,
{4}1/8,1/8,1b/8b,,
{4}7,7,7,,
{4}6,6,6,,
{4}5,5,5,,
{4}5,4,4/5,,
{4}3,3,3,,
{4}2,2,2,,
{4}1,1,1,,
{4}1/8,1/8,1b/8b,,
{1}1-4[4:3],,
{1}8-5[4:3],,
{1}4-1[4:3],,
{1}1h[8:7]/8h[8:7],,
{2}8,8,
{2}7,7/8,
{2}1,1,
{2}2,1/2,
{2}8,8,
{2}7,7,
{2}6,6,
{2}5,4b/5b,
{2}4,4,
{2}3,3/4,
{2}5,5,
{2}6,5/6,
{2}4,4,
{2}3,3,
{2}2,2,
{2}1,1/8,
{16}1h[16:43]/8h[16:43],,,,,,,,,,,{1},,,
E

ADVANCED

(185.0){1},
{4}3,4,3/4,,
{4}6,5,5/6,,
{4}3,4,6,5,
{4}4/5,4/5,3/6,,
{4}7,8,7/8,,
{4}2,1,1/2,,
{4}7,8,2,1,
{4}1/8,1/8,2/7,,
{2}6h[2:1],5,
{4}5,5,4/5,,
{2}3h[2:1],4,
{4}4,4,4/5,,
{2}6h[2:1],5,
{4}5,5,4/5,,
{2}3h[2:1],4,
{4}4,5,3/6,,
{2}2h[2:1],1,
{4}8,7,7/8,,
{2}7h[2:1],8,
{4}1,2,1/2,,
{2}2h[2:1],1,
{4}8,7,7/8,,
{2}7h[2:1],8,
{4}1/8,1/8,2/7,,
{4}6,6,5/6,,
{4}5,4,3/4,,
{4}3,3,3/4,,
{4}4,5,5/6,,
{4}6,6,5/6,,
{4}3,3,3/4,,
{4}3,4,6,5,
{4}4,5,3/6,,
{4}2,2,1/2,,
{4}1,8,7/8,,
{4}7,7,7/8,,
{4}8,1,1/2,,
{4}2,2,1/2,,
{4}7,7,7/8,,
{1}1h[2:1]/8h[2:1],
{4}1/8,1/8,2/7,,
{4}3,4,5,6,
{4}7,7,7/8,,
{4}6,5,4,3,
{4}2,2,1/2,,
{1}1-4[2:1]/8-5[2:1],
{4}5,4,4/5,,
{4}5h[8:3]/6h[8:3],,,3h[8:3]/4h[8:3],
{2},4/5,
{4}6,5,4,3,
{4}2,2,1/2,,
{4}3,4,5,6,
{4}7,7,7/8,,
{1}1-4[2:1]/8-5[2:1],
{4}4,5,4/5,,
{4}3,2,1,8,
{2}1b/8b,2/7,
{1}6-1[2:1],
{2}2,1/2,
{1}2-5[2:1],
{2}6,5/6,
{1}4-1[2:1]/5-8[2:1],
{4}1,8,1/8,1/8,
{1}1pp4[8:9]/8qq5[8:9],,
{4}3,4,3/4,,
{4}6,5,5/6,,
{4}3,4,6,5,
{4}4/5,4/5,3/6,,
{4}7,8,7/8,,
{4}2,1,1/2,,
{4}7,8,2,1,
{4}1/8,1/8,2/7,,
{1}2h[2:1]/7h[2:1],
{4}3,4,4/5,,
{4}6,6,5/7,,
{4}6,5,4/5,,
{4}3,3,4,4,
{4}5,5,5/6,,
{4}7,8,1,2,
{4}1/8,1/8,2b/7b,,
{8}1h[8:21]/8h[8:21],,,,,{1},,,
E

EXPERT

(185.0){1},
{8}1/8,1h[8:3]/8h[8:3],,,,,,3h[8:3],
{4},4,3/4,2/5,
{8}6,,4/5,,3,,4/5,4h[4:1]/5h[4:1],
{8},,,3/6,,3/6,,,
{4}6,4/7,3,2/5,
{4}6,4/7,3,2/5,
{8}7,7,,2,2,,1/8,8/1-5[4:1],
{2},3b/7b,
{4}3/5,2,4/6,7,
{8}3/5,,2,,6,5,6,,
{4}5/6,7,3/4,2,
{8}5/6,,7,,3,4,3,,
{4}5/2h[4:7],4,3,1,
{4}8,7,6,5,
{8}3h[4:1]/4h[4:1],,,3/4,,5/6,,7b/2bp5[8:3],
{4},,,4/5,
{8}2/4,,3,,5/7,,6,6h[8:3],
{8},,5,,4/7,4/7,,,
{8}3h[8:3],,4,4,,2/7,,5/4-8[4:1],
{4},,2/6,4/7p2[8:3],
{4}2,,,3/6,
{4}4/5,7,4/5,2>6[8:3],
{8}7,,,,,8,,1h[8:3]/8h[8:3],
{2},2b/7b,
{4}4/3h[1:1],4,5,5,
{8}4,,2/5,,4,5,4,,
{4}5/6h[1:1],5,4,4,
{8}5,,4/7,,5,4,5,,
{4}5/2h[4:7],4,3,1,
{4}8,7,6,5,
{8}3h[4:1]/4h[4:1],,,3/4,,5/6,,1/8<4[8:3],
{4},,,4/5,
{8}5/6h[4:3],,4,,3,,2,2h[8:3],
{8},,1,,4/7,4/7,,,
{8}4h[4:1]/5h[4:1],,,4/5,,3/6,,1/8-4[4:1],
{2},2/6,
{4}7h[4:1],5,2h[4:1],4,
{8}5/7,5/7,,,2/4,2/4,,,
{8}4h[4:1]/5h[4:1],,,4/5,,1/8,,2b/7b,
{4},,3/4,5/6<3[2:1],
{4}3,,,4/5,
{4}2/4,4/5,5/7,8<3[8:3],
{8}3,,,1,1,,,,
{4}1/8,3/4,1/8,6/5>8[2:1],
{8}8,,,,,,1,1,
{1}8qq3[16:9],
{8}5b,5b,,1,1,,2/7,2/7,
{8},1/8,1/8,,5/6,,4/3>6[2:1],,
{4}6,,,4/5,
{4}5/7,4/5,2/4,1>6[8:3],
{8}6,,,8,8,,,,
{4}1/8,5/6,1/8,3/4<1[2:1],
{8}1,,,,,,8,8,
{1}1pp5[16:9]*qq5[16:9],
{4}3/4,5/6,7^4[2:1]/8^3[2:1],,
{4},,2/7,4/5,
{1}1^4[2:1]/8q5[2:1],
{4}6h[4:3],3,4,5>1[2:1],{1},
{4}3h[4:3],6,5,4<8[2:1],{1},
{4}6,5/7,3,2bp6[4:1]/7bq3[4:1],
{8},,,4/5,,4/5,,3/6,
{8},4/5,,2b/7b,,,,,
{8}3/8,8/3h[8:11],,,1,,2,,
{4}4,5,6,2/7,
{8}3,,1/8,,6,,7/8,7h[4:1]/8h[4:1],
{8},,,1/6,,1/6,,,
{4}6,4/7,3,2/5,
{8}6,,4/7,,3,4,3,,
{4}7,1/6,2,3/8,
{1}2V41[2:1]/7V58[2:1],
{2}1h[4:1]/2h[4:1],2b/1b<3[16:9],
{2},1/2,
{2}7h[4:1]/8h[4:1],7b-4[4:1]/8b-3[4:1],
{8},,,2/5,,2/5,,,
{4}5,1/7,4,2/8,
{4}5,1/7,3b/6b,,
{8}2,2,,7,7,,1/8,1/8-4[4:1],
{8},,,,2b/6b,2bqq7[4:9]/6bqq3[4:9],,,{1},,
{8},,,,,1b/6b,
E

MASTER

(185.0){8}6,,6,,4,5,3/6,,
{8}2/7,2/7,,6,5,4<8[4:1],3,2h[8:3],
{8},,8,,8,1,1/7,,
{8}2/8,2/8,3,4-1[8:1],5,6h[4:1],,1h[4:1],
{8},4-7[8:1],,1-5[8:1],,8,,7,
{8}5/6h[4:1],,5,4/7,,5/2q6[8:1],,8h[4:1],
{8},1p8[8:3],,,,,,,
{8}7,6/8,,2,1/3,,6,5/7,
{8},3,4/2q6[4:1],,7h[4:1],,,,
{4}6,5/7,3,4/2h[4:1],
{4}4h[4:1],5h[4:1],4q8[4:1],3,
{4}3,2/4,6,5/7h[4:1],
{4}5h[4:1],4h[4:1],5p1[4:1],6,
{4}8^5[4:1],5^2[4:1],2^7[4:1],7^4[4:1],
{4}4^1[4:1],1,6,1^4[8:1]/8^5[8:1],
{8},,2/7,2/7,,3/6pp3[8:5],,1h[8:5],
{4},,,3/4^7[8:1],
{8}2,,6/5^2[8:1],,8,,2/7,2/7,
{4},2^5[4:1]/6^1[4:1],,,
{8}8h[4:1],,1,1,,3^8[4:1]/7^4[4:1],,,
{4},1/5,8V62[4:1],2<4[2:1],
{4}3h[2:1],,,2h[4:1],
{4}4h[4:1],5h[4:1],7h[4:1],1>7[2:1],
{8}8h[2:1],,,,,8,1,7p3[4:1],
{4},,1/8,3/6,
{4}5/7,4/5,2/4,4/5,
{8}7/5^2[8:1],,8^5[8:1],,1,1,1/5,,
{4}2/4,4/5,5/7,4/5,
{8}2/4^7[8:1],,1^4[8:1],,8,8,4/8,,
{4}2-5[8:1],7-4[8:1],3-8[8:1],6-1[8:1],
{4}2h[4:1],3<8[4:1],1,1-4[8:1],
{8}8h[4:1],,5,4/7,,2/5pp2[8:5],,1h[8:5],
{4},,,3,
{8}2/4,,6,,5/7,,1/8,2/7,
{4},4/5h[4:1],1V37[4:1],7>5[8:3],
{8}6h[8:3],,,,,4^1[4:1]/5^8[4:1],,,
{4},,3/6,4/5,
{8}7,7,5,5,4,4,2,2,
{8}3/5,3/5,,,4/6,4/6,5^8[8:1],,
{8}3,3,4,1/5,,4/8,,2/7,
{8},4/5,4/5,,3,4,5>7[2:1],6,
{4}6h[2:1],,,1/7-2[8:1],
{4}3-6[8:1],5,5qq1[2:1]/7qq8[2:1],,
{8},,,2/7,2/7,,4/5,,
{4}8-5[4:1],5-1[4:1],1-4[4:1],4>5[2:1],
{8}1,,,,,,5-8[8:1],4,
{8}3h[4:1],,8,8-4[8:1],,1,1,,
{8}8b,1b-5[8:1],,6,6,,4,6,
{8},1/8,2/7,3/6,4/5^8[8:1],,4pp2[2:1],,
{4}8h[2:1],,,8/2-7[8:1],
{4}6-3[8:1],4,2pp1[2:1]/4pp8[2:1],,
{8},,,2/7,2/7,,4/5,,
{4}1-4[4:1],4-8[4:1],8-5[4:1],5<4[2:1],
{8}8,,,,,,4,6,
{8}7p3[4:1],,2,2,2,,2^4[8:1]/6^4[8:1],,
{8},,3^5[8:1]/7^5[8:1],,,,2/8,1h[8:3]/7h[8:3],
{4},,1/8,2/7,
{8}6/5>1[8:3],,,,,8,8,,
{4}7/1^4[4:1],6,5,4,
{8}3/4<8[8:3],,,,,1,1,,
{4}2/8^5[4:1],3,4,5,
{8}4/7,,2/5,,3/8,4,4,5,
{4}4/5,2/6,3/7,1^4[8:1]/8^5[8:1],
{8},,2/7,7/2-5[8:1],,6-1[8:1],,3,
{8},1/8,1/8,2b/7b,,,4/5,,
{8}2/7,2/7,,3,4,5>1[4:1],6,7h[8:3],
{8},,1,,1,8,2/8,,
{8}1/7,1/7,6,5-8[8:1],4,3h[4:1],,8h[4:1],
{8},5-2[8:1],,8-4[8:1],,1,,2,
{8}4/3h[4:1],,7,,5,4,3,5/2h[4:1],
{8},3^6[4:1],,1,,1,2/8,,
{8}3,4^1[8:1],5,6,,5^8[8:1],4,3,
{8},4,5,6^3[8:1],,2h[8:3],,1,
{8}1,,3/4q8[8:1],,1q5[8:1],,8,8h[8:3],
{8},1,1^4[8:1],,5^8[8:1],,4,,
{8}2/7,,4,5^2[8:1],6,7,,3/7,
{8},2-5[8:1]/6-1[8:1],,,,4/8,,2,
{8}2^5[8:1],,6,7p3[8:1],,1>6[8:3],,7h[8:3],
{8},,,1/8,,2/7,2/7,,
{8}3/4,2/5,,5/6,4/7,,1/8,2/7,
{8},5,4/6,3/7,2/8,1,1,,
{1}4/8h[1:2],,
{16},,,,4,5,3,4,,,3/8,
E

Re:MASTER


名前:
コメント:

タグ:

+ タグ編集
  • タグ:
最終更新:2026年10月03日 22:16