アットウィキロゴ

はやくそれになりたい!

アーティスト キノシタ feat. 音街ウナ

BPM EASY BASIC ADVANCED EXPERT MASTER Re:MASTER
185 3 6 8+ 10+ 11+ 13

EXPERT MASTER Re:MASTER
譜面制作者 華火職人 緑風 犬三郎 玉子豆腐

EASY


BASIC

(185.0){1},
{4}1,1,1,,
{4}8,8,8,,
{1}1h[8:7]/8h[8:7],,
{2}1,1,
{4}2,2,2,,
{2}3,3,
{4}4,5,4,,
{2}5,5,
{4}6,6,6,,
{2}7,7,
{2}1/8,1/8,
{1}1h[2:1]/8h[2:1],
{4}1/8,1/8,2/7,,
{1}1h[2:1]/8h[2:1],
{4}1,8,1,,
{4}2,2,2,,
{4}3,3,3/4,,
{4}5,5,5,,
{4}6,6,6,,
{4}7,7,7,,
{4}8,8,1/8,,
{1}1h[2:1]/8h[2:1],
{4}8,1,8,,
{4}7,7,7,,
{4}6,6,5/6,,
{4}4,4,4,,
{4}3,3,3,,
{4}2,2,2,,
{4}1,1,1b/8b,,
{1}1-4[4:3],,
{1}8-5[4:3],,
{4}1,1,1,,
{4}2,2,2,,
{1}3h[1:1]/4h[1:1],,
{1}4,
{1}4,
{1}5,
{1}5,
{1}3h[1:1]/6h[1:1],,
{2}3/6,3/6,
{4}4/5,4/5,3b/6b,,
{4}3/4,3/4,3/4,,
{4}5/6,5/6,5/6,,
{4}4,4,3,3,
{1}2h[2:1],
{4}1,1,1,,
{4}8,8,8,,
{4}7,7,6,6,
{4}4/5,4/5,3/6,,
{4}5/6,5/6,5/6,,
{4}3/4,3/4,3/4,,
{4}5,5,6,6,
{1}7h[2:1],
{4}8,8,8,,
{4}1,1,1,,
{4}2,2,3,3,
{4}4/5,4/5,3/6,,
{4}4,4,4,,
{4}5,5,5,,
{1}4-1[4:3],,
{1}8h[2:1],
{2}7,7,
{2}6,6,
{4}5,4,5,,
{1}4h[2:1],
{2}3,3,
{2}2,2,
{4}1,8,1,,
{1}1-5[4:3],,
{1}8-4[4:3],,
{1}2-5[4:3],,
{1}1/8,,
{2}8,8,
{1}8,
{2}7,7,
{1}7,
{2}6,6,
{1}6,
{2}5,5,
{4}4/5,4/5,3b/6b,,
{4}3/4,3/4,3/4,,
{4}5/6,5/6,5/6,,
{4}4,4,3,3,
{4}2,2,1/8,,
{4}1,1,1,,
{4}8,8,8,,
{4}7,7,6,6,
{4}4/5,4/5,3/6,,
{4}5/6,5/6,5/6,,
{4}3/4,3/4,3/4,,
{4}5,5,6,6,
{4}7,7,1/8,,
{4}8,8,8,,
{4}1,1,1,,
{4}2,2,3,3,
{4}4/5,4/5,3/6,,
{4}5,5,5,,
{4}4,4,4,,
{4}4/5,4/5,4h[8:7]/5h[8:7],,
{4},,,3b/6b,
E

ADVANCED

(185.0){1},
{4}3,3,3/4,4/5,
{4}6,6,5/6,4/5,
{1}3b/6b,
{4}4/5,3/6,2/7,1b/8b,
{4}2,1,1/2,,
{4}7,8,7/8,,
{4}6,7,8,1,
{4}1/8,1/8,2b/7b,,
{4}6,5,5/6,,
{4}3,4,3/4,,
{4}5,6,7,8,
{4}1,2,3,4,
{2}4h[4:1]/5h[4:1],3h[4:1]/6h[4:1],
{4}4/5,4/5,3b/6b,,
{2}3h[2:1],4,
{4}3,4,3/4,,
{4}2,1,8,7,
{4}6,5,5/6,,
{4}6,6,5/7,,
{4}3,3,2/4,,
{4}2,1,8,7,
{4}1/8,1/8,2/7,2b/7b,
{2}6h[2:1],5,
{4}6,5,5/6,,
{4}7,8,1,2,
{4}3,4,3/4,,
{4}3,3,2/4,,
{4}6,6,5/7,,
{4}7,8,1,2,
{4}1/8,2/7,3/6,4b/5b,
{2}3h[2:1],4,
{4}3,4,5,,
{2}6h[2:1],5,
{4}6,5,4,,
{4}3,4,4/5,,
{4}6,5,4/5,,
{2}4h[4:1]/5h[4:1],3b/6b,
{1}4-1[2:1]/5-8[2:1],
{1}2h[1:1],
{1}1h[1:1],
{1}8h[1:1],
{2}7h[2:1],8,
{4}6,6,5/6,,
{4}3,3,3/4,,
{1}3b/6b,
{1}4-1[2:1]/5-8[2:1],
{4}2,1,1/2,1/8,
{4}7,8,7/8,,
{4}7,8,7/8,1/8,
{4}2,1,1/2,,
{1}2<6[2:1],
{4}5,4,4/5,3/6,
{4}2,1,8,7,
{4}1/8,2/7,3b/6b,,
{4}6,5,5/6,4/5,
{4}3,4,3/4,,
{4}3,4,3/4,4/5,
{4}6,5,5/6,,
{1}6>2[2:1],
{4}1,8,1/8,2/7,
{4}6,5,4,3,
{4}4/5,3/6,2b/7b,,
{4}7,7,7/8,1/8,
{4}2,2,1/2,1/8,
{1}2b/7b,
{4}1/8,1/8,2b/7b,,
{4}3,2,1,8,
{4}7,8,7/8,,
{4}6,7,8,1,
{4}2,1,1/2,,
{1}1-6[2:1]/2-5[2:1],
{1}7-4[2:1]/8-3[2:1],
{4}3,4,6,5,
{4}4/5,4/5,3b/6b,,
{4}2,1,8,7,
{4}6,5,4/5,,
{4}6,5,4,3,
{4}2,1,1/8,,
{2}2h[2:1],1,
{2}7h[2:1],8,
{1}1-4[2:1]/8-5[2:1],
{4}4/5,4/5,3b/6b,,
{1}3h[1:1],
{1}4h[1:1],
{1}5h[1:1],
{2}6h[2:1],5,
{1}4h[4:3]/5h[4:3],
{4}5/6,3/4,4/5,,
{1}3b/6b,
{4}2,1,8,1b/8b,
{4}2,1/2,7,7/8,
{4}2,1,3/8,,
{4}7,7/8,2,1/2,
{4}7,8,1/6,,
{1}2<6[2:1],
{4}5,4,4/5,3/6,
{4}2,1,8,7,
{4}1/8,2/7,3b/6b,,
{4}6,5/6,3,3/4,
{4}6,5,4/7,,
{4}3,3/4,6,5/6,
{4}3,4,2/5,,
{1}6>2[2:1],
{4}1,8,1/8,2/7,
{4}6,5,4,3,
{4}4/5,3/6,2b/7b,,
{4}7,7,7/8,1/8,
{4}2,2,1/2,1/8,
{1}2b/7b,
{4}1h[2:1]/8h[2:1],,,1b/8b,
E

EXPERT

(185.0){1},
{4}3/4,2/6,1/8,1/8,
{4}5/6,3/7,1/8,1/8,
{8}3b/6b,,,,,,,2>7[8:3],
{4},,,8b,
{4}2,5/6,7,3/4,
{4}1,5/6,8,3/4,
{4}6,7/8,3,1/2,
{4}4/5,3/6p2[4:1],,,
{4}2,5/6,7,3/4,
{4}2,1/7,6,2/8,
{4}1h[4:1],2h[4:1],3h[4:1],4h[4:1],
{4}5h[4:1],6h[4:1],7h[4:1],8,
{1}1v3[4:1]/8v6[4:1],
{4}5/6,3/4,2b/7b,,
{8}5h[2:1]/7h[2:1],,,,,,,3h[4:1]/4h[4:1],
{4},3/4,1/6,8b,
{4}6,5/7,3,2/4,
{1}8/1V75[16:5],
{4}6h[4:1],5,3h[4:1],4,
{4}1h[2:1]/2^5[4:1],,,2/7,
{8}3,,7/8,,6,,1/2,1h[8:3]/2h[8:3],
{4},,4/5,2/7,
{8}2h[2:1]/4h[2:1],,,,,,,5h[4:1]/6h[4:1],
{4},5/6,3/8,1b,
{4}3,2/4,6,5/7,
{1}1/8V24[16:5],
{4}3h[4:1],4,6h[4:1],5,
{4}3h[2:1]/4^7[4:1],,,1/6,
{8}5,,1/2,,4,,2/7,2/7,
{8},5b,4b,5b,4b,,2b/7b,,
{8}6h[2:1],,,5,5,,4/7,,
{8}3h[2:1],,,4,4,,2/5,,
{8}6h[2:1],,,5,5,,4/7^2[4:1],,
{4},,4,2/7,
{4}3,2/4,6,5/7,
{4}3,2/8,6,1/7,
{1}2V48[8:3]/7V51[8:3],
{1}6/5pp1[8:5],
{1}7h[1:1],
{1}5h[1:1],
{1}4h[1:1],
{4}2q7[16:5],,,8b,
{1}1pp3[4:1]/8qq6[4:1],
{1}3V52[2:1]/8V61[2:1],
{8}3b/8b,,,,,,,4-1[16:3]/5-8[16:3],
{4},,2b/7b,6,
{8}3/4,,1/8,,5/6,,1/8,1p4[4:1]/8^5[4:1],
{4},,3,2/7,
{8}5/6,,1/8,,3/4,,1/8,1^4[4:1]/8q5[4:1],
{4},,6,2b/7b,
{4}1h[4:1],3,8h[4:1],6,
{4}2/4,5/7,1/8,7b,
{8}1,1,7,7,3,3,5,5,
{8},3/4,,1/8,1/8,,3b,,
{8}5/6,,1/8,,3/4,,1/8,1^4[4:1]/8q5[4:1],
{4},,6,2/7,
{8}3/4,,1/8,,5/6,,1/8,1p4[4:1]/8^5[4:1],
{4},,3,2b/7b,
{1}2p7[2:1],
{4}2/4,5/7,1/8,5b^2[4:1]/6b^1[4:1],
{8},,,,3/8,,,5h[4:1],
{8},4,,1/8,1/8,,3b/6b,,
{4}5/6,3/7,1/8,1/8,
{4}3/4,2/6,1/8,1/8,
{8}3b/6b,,,,,,,7<2[8:3],
{4},,,1b,
{2}8-4[16:3],1-5[16:3],
{8}6,,7,,8,1,8,,
{8}7,5,7,,2,4,2,,
{1}5w1[16:7],
{4}2h[4:1],4h[4:1],5h[4:1],7,
{4}7h[4:1],5h[4:1],4h[4:1],2,
{4}5/6,4/7,3/4,2/5V72[8:3],
{1}4b,
{4}3,2/4,6,5/7,
{2}2q7[4:1],6q3[4:1],
{1}1s5[8:3],
{1}1-5[16:5]/8q4[16:5],
{2}2h[2:1],4h[2:1],
{2}5h[2:1],7h[2:1],
{8}2b,,,,,,,4-1[16:3]/5-8[16:3],
{4},,2b/7b,4/5,
{2}3h[2:3],4,
{2}5,6,
{4}6h[2:3],,5,5,
{2}4,3,
{4}3,2/4,6,5/7,
{4}2/4,5/7,1/8,2,
{8}3b/7b,,,,,,3,3,
{8},5/6,,1/8,1/8,,3b/6b,,
{8}4/5,,1/2,,4/5,,7/8,7q4[4:1]/8^3[4:1],
{4},,5,2/7,
{8}4/5,,7/8,,4/5,,1/2,1^6[4:1]/2p5[4:1],
{4},,4,2b/7b,
{4}1h[4:1],3,8h[4:1],6,
{4}2/4,5/7,1/8,2b,
{8}8,8,2,2,6,6,4,4,
{8},5/6,,1/8,1/8,,4b/5b,,
{8}3/5,,7/8,,4/6,,1/2,1q6[4:1]/2^5[4:1],
{4},,7,1/8,
{8}4/6,,1/2,,3/5,,7/8,7^4[4:1]/8p3[4:1],
{4},,2,3b/7b,
{1}3V14[16:7]/6V85[16:7],
{4}2/4,5/7,1/8,5b^2[4:1]/6b^1[4:1],
{8},,,,3/8,,,6h[4:1],
{8},3,,1/8,1/8,,3b/6b,,
{4}7/8,2/6,4/5,4/5,
{4}1/2,3/7,4/5,4/5,
{8}2b/7b,,,,,,,1h[8:3]/8h[8:3],
{4},,4-1[4:1],6b,,
E

MASTER

(185.0){8}2,,2,,1,1,8b,,
{4}4-1[8:1],5-8[8:1],1,1/8,
{4}4-1[8:1],5-8[8:1],1,1/8,
{4}1,2,3qq5[8:5],4,
{4},,,2/7,
{4}6-3[8:1],2-5[8:1],8-4[8:1],3-8[8:1],
{4}7-4[8:1],3>6[4:1],5,5,
{4}3-6[8:1],7-4[8:1],1-5[8:1],6-1[8:1],
{4}2-5[8:1],6<3[4:1],4,4,
{4}6-3[8:1],2-5[8:1],8-4[8:1],3-8[8:1],
{4}7-4[8:1],3>6[4:1],5,5,
{4}7h[4:1],5h[4:1],4h[4:1],2,
{4}2h[4:1],4h[4:1],5h[4:1],7,
{2}1h[4:1]/8h[4:1],1h[4:1]/8h[4:1],
{4}2/7,2/7,2/7,,
{8}6h[2:1]/5>1[4:1],,,,,,7,7h[4:1],
{8},8,8,,1/6,,4/5,,
{4}6/2^5[8:1],8,3/7^4[8:1],1,
{4}6/2^5[8:1],8,1/7,3/4,
{8}7^4[4:1],,,3,3^8[4:1],,,6,
{4}6,3/8,4/7,5/6,
{4}3/7^4[8:1],1,6/2^5[8:1],8,
{4}3/7^4[8:1],1,2/8,5/6,
{8}3h[2:1]/4<8[4:1],,,,,,2,2h[4:1],
{8},1,1,,3/8,,4/5,,
{4}7/3^8[8:1],5,2/6^1[8:1],4,
{4}7/3^8[8:1],5,4/6,3/4,
{8}2^5[4:1],,,7,7,,1^4[4:1]/8^5[4:1],,
{4},,2/7,4/5,
{8}6-1[8:1],,2-5[8:1],,8-4[8:1],,1,1,
{8},2/7,2/7,2/7,2/7,,1b,,
{8}6^3[4:1],,,1,1,,2/5,,
{8}3^6[4:1],,,8,8,,4/7,,
{8}6^3[4:1],,,1,1,,3>6[8:3],,
{4}5,,8,1/8,
{2}3-1[8:1]/4-8[8:1],5-1[8:1]/6-8[8:1],
{2}3-1[8:1]/4-8[8:1],5-1[8:1]/6-8[8:1],
{8}1h[4:1]/8h[4:1],,,2/7,2/7,,4>6[4:3],,
{4}5,5,5,5,
{4}7/5p8[4:1],7,6,6,
{4}2/4q1[4:1],2,3,3,
{4}7/5p8[4:1],7,6,6,
{4}3h[4:1]/4h[4:1],,5/6h[4:1],5,
{4}3-1[8:1],6-8[8:1],4-1[8:1],5-8[8:1],
{4}3-1[8:1],6-8[8:1],4,4/5,
{8}2h[4:3]/7h[4:3],,,,,,,1/8,
{8},1^4[4:1]/8^5[4:1],,,,,2/7,,
{8}1-6[8:1]/2-5[8:1],,,,3/8,,3/4,3-8[8:1]/4-7[8:1],
{8},,,1/6,,8,8,,
{8}7-4[8:1]/8-3[8:1],,,,1/6,,3/8,3/8,
{8},4/5,4/5,3/6,2/7,,8b,,
{4}4/3-8[8:1],5,5/6-1[8:1],4,
{4}1/8,4/5,2/7,1,
{8}7-2[8:1],7,3-6[8:1],3,5<4[2:1],5,4,,
{4},,2/7,1b,
{8}7-4[8:1]/8-3[8:1],,,,1,1,6,5-2[8:1]/6-1[8:1],
{8},,,3/8,,8,8,,
{8}1-6[8:1]/2-5[8:1],,,,8,8,3,3-8[8:1]/4-7[8:1],
{8},,,1/6,,8,8,,
{4}5/6-1[8:1],4,4/3-8[8:1],5,
{4}1/8,4/5,2/7,8<2[2:1],
{8}2,,,1,1,,4/5,4/5,
{8},2/7,2/7,,1/8,,3/6,,
{4}3/4-1[8:1],3,6/5-8[8:1],6,
{4}3/4-1[8:1],2,6/5-8[8:1],7,
{4}1,2,3qq6[4:3],4,
{4},,,8b,
{8}2-6[8:1],2,8-5[8:1],8,4-1[8:1],4,7-3[8:1],7,
{8}1-5[8:1],1,7,7,8,8,1s5[8:3],1,
{4}8,,6,7/4>6[4:3],
{4}5,5,5,5,
{8}8-5[8:1],8,1-4[8:1],1,6-3[8:1],6,2-7[8:1],2,
{8}6-1[8:1],6,2-5[8:1],2,7-4[8:1],7,3,,
{16}2/5,,,,1/8,,1/8,,1/8,,,2/7,,,3/6,,
{8}3/6<3[2:1],,,,4,4,4,,
{4}6/2-5[8:1],6,3/7-4[8:1],3,
{4}6/2-5[8:1],8,3/7-4[8:1],1,
{4}5/3>6[2:1],5,5,5,
{4}4/6<3[2:1],4,4,4,
{16}3h[16:3],,,4h[16:3],,,5,,6h[16:3],,,5h[16:3],,,4,,
{16}3h[16:3],,,4h[16:3],,,5,,6/3-6[8:1],,,,7,,,,
{8}8h[8:7],,,,,,,1,
{8},2/7,2/7,2/7,2/7,,,,
{2}5/6<3[4:5],5,
{2}4,4,
{2}4/3>6[4:5],4,
{4}5,,5,5,
{4}5,5,4,4,
{4}4/5,1/8,2/7,5p4[8:5],
{8}4,,,,,,,4/5,
{8},4/5,,2/7,2/7,,8b,,
{8}1-6[8:1]/2-5[8:1],,,,3/8,,3/4,3-8[8:1]/4-7[8:1],
{8},,,1/6,,8,8,,
{8}7-4[8:1]/8-3[8:1],,,,1/6,,3/8,3/8,
{8},4/5,4/5,3/6,2/7,,8b,,
{4}4/3-8[8:1],5,5/6-1[8:1],4,
{4}1/8,4/5,2/7,1/8,
{8}2-7[8:1],2,6-3[8:1],6,1,,4/5,4/5,
{8},1/8,,2/7,2/7-3[8:1],,1,,
{8}6-1[8:1],6,2-5[8:1],2,8,8,7,7,
{8},7/8,1/6,2/5,,4/5,4/5,,
{8}3-8[8:1],3,7-4[8:1],7,1,1,2,2,
{8},1/2,3/8,4/7,,4/5,4/5,,
{4}8/1^4[8:1],5,1/8^5[8:1],4-8[8:1],
{4}6-2[8:1],3-8[8:1],5,3/6<3[2:1],
{8}3,,,4,4,,4/5,4^1[4:1]/5^8[4:1],
{4},,2/7,2/7,
{8}4/6,,3/5,,4/6,4/6h[4:1],,8h[4:1],
{8},1h[4:1],,3,3,,4/5s1[8:5],,
{8},,,,,,,1/8,
{8},1/8,2/7,3/6,,,2b/7b,
E

Re:MASTER

(185.0){16}3,,,,3,,,,3,4,3,4,2b,,,,
{4}1-3[8:1]/6-4[8:1],1/6,7/8,1/6,
{8}2h[8:1],1h[8:1],2V47[8:3]*V48[8:3],1,,,,,
{8}1h[4:1],,2h[4:1],,3h[4:1],,4qq8[2:1],4,
{4},,,8b,
{4}6^1[8:1],3^8[8:1],7^4[8:1],3,
{16}1,,1,,2/5,,3/4,,2,1,2,,3/8,,,,
{16}2/8,,1,,2/8,,1,,3,4,3,,2/5,,3/4,,
{8},3/4,5,6,6-3[8:1]/7-3[8:1],,,,
{4}3^8[8:1],6^1[8:1],2^5[8:1],6,
{8}8,8,4/7,5/6,1,1,1,8,
{12}2,,2,5,,5,4,,4,7,,7,
{12}2,,2,4,,4,5,,5,7,,,
{2}1h[4:1]/8h[4:1],3b/6b,
{12}1/8,,8,1,,8,1h[4:1],,,8b,,,
{8}5h[4:1]/6h[4:1],,,,4/7,,2,5/2V48[16:5],
{8},4,5,6,7,,1/6,,
{4}5/6b-1[8:1],4,4/3b-8[8:1],5bpp1[2:1],
{8}3,,2,3,4,,1/2,,
{4}6/5h[4:1],8,3/4h[4:1],1,
{8}6/5w1[4:1],,,,,,1,1,
{8}7,8,6,5,,2/8,,4/6,
{8},5,1-4[8:1]/5-8[8:1],,,,2/6,,
{8}3h[4:1]/4h[4:1],,,,2/5,,7,4/7V51[16:5],
{8},5,4,3,2,,3/8,,
{4}4/3^8[8:1],5,5/6^1[8:1],4qq8[2:1],
{8},,7,6,5,,7/8,,
{4}3/4h[4:1],1,6/5h[4:1],8b^3[4:1],
{4}3^6[4:1],6,1,1/8,
{8}7,5,2,4,5,4,5,3/6,
{8},2/7,2-5[8:1]/7-4[8:1],2/7,2/7,,2b/7b,,
{8}3/5q3[8:3],,,4,4,,1,,
{8}6/4p6[8:3],,,5,5,,8,,
{8}2/4q1[8:3],,,3,3,,2w6[8:3],,
{4},,,1/2,
{8}2/4^7[16:3],,,8,8,,1/6,,
{8}7/5^2[16:3],,,1,1,,3/8,,
{8}5/3^8[16:3],,,7,7,,{4}6/1>7[8:5]*q8[8:5],{1},
{2}7h[2:1],6h[2:1],
{2}5h[2:1],4h[2:1],
{2}3h[2:1],2V48[2:1],
{4}7V51[16:7],,,2b,
{2}3h[4:1]/6h[4:1],1h[2:1]/8h[2:1],
{8},,3/6,,2/7,2V41[8:5]/7V58[8:5],,,
{8},,,,,,,2-4[8:1]/7-5[8:1],
{8},2/7,,1/8,,1b,8b-4[8:1],8b,
{8}2bV41[8:3]/8bV61[8:3],,2b/8b,,,,7^4[8:1],7,
{8},2,1,3/8,,8,1-5[8:1],1,
{8}1bV38[8:3]/7bV58[8:3],,1b/7b,,,,2^5[8:1],2,
{8},6,7,8,3v4[8:1]/8v7[8:1],,3/8,,
{8}2h[4:1],,4,4,3,,1/7-5[8:1],,
{4}7/8-4[8:1],8/1-3[8:1],1/3,1/8,
{8}7h[4:1],6,5,4,4h[4:1],5,6,3-8[8:1]/7-4[8:1],
{8},3/7,,2/5,2/5,,8/1b-5[8:1],,
{8}1bV38[8:3]/7bV58[8:3],,1b/7b,,,,2^5[8:1],2,
{8},7,8,1/6,,1,8-4[8:1],8,
{8}2bV41[8:3]/8bV61[8:3],,2b/8b,,,,7^4[8:1],7,
{8},3,2,1,7-5[8:1]/8-4[8:1],,,,
{8}2h[4:1],,4,4,3,,1/8-4[8:1],,
{4}8/1-5[8:1],1/6^3[8:1],6,1/2,
{8}8/3h[4:1],,1,8,7h[4:1],,8,1/6,
{8},1/2,3/8,4/7,5/6,,3/7,,
{4}1-3[8:1]/6-4[8:1],1/6,7/8,1/6,
{8}2h[8:1],1h[8:1],2V47[8:3]*V48[8:3],1,,,,,
{8}1h[4:1],,2h[4:1],,3h[4:1],,4qq8[2:1],4,
{4},,,8b,
{2}3/1^6[8:1],6/8^3[8:1],
{8}5/7^4[8:1],,,2,3,4,5,6,
{16}7,8,7,8,7,,1,,2/8,,,,{4}1s5[4:3]/7pp3[4:3],{1},
{2}7/5^2[8:1],2/4^7[8:1],
{4}2h[4:1],4h[4:1],6h[4:1],8,
{8}1h[4:1]/8h[4:1],,,1/8,2/7,,4V62[2:1]/8V62[2:1],,
{4},,,4/8,
{2}6/8^3[8:1],3/1^6[8:1],
{8}2,3,4,5/7,,5,4,3,
{16}2,1,2,1,2,,,,7q5[4:1]/8-2[4:1],,,,,,,,
{4},1q5[4:1]/7-2[4:1],,,
{6}3h[6:1],4h[6:1],2,7h[6:1],5h[6:1],8,
{6}3h[6:1],1h[6:1],2,2^5[8:1]/8^5[8:1],,,
{8},,,,,,,5p2[2:1]/6pp1[2:1],{1},
{1}6^1[16:7],
{1}3^8[16:7],
{1}6<2[2:1],
{1}3>7[2:1],
{4}6,7,1/8,2/3,
{4}4h[8:1]/5h[8:1],4h[8:1]/5h[8:1],2/7,7/2>7[8:3],
{8},,,,,,2qq5[2:1]/7pp4[2:1],2/7,
{4},,,1-5[8:1],
{8}1bV37[8:3]/6bV48[8:3],,1b/6b,,,,2^5[8:1],2,
{8},7,8,1/6,,2,8-4[8:1],8,
{8}3bV51[8:3]/8bV62[8:3],,3b/8b,,,,7^4[8:1],7,
{8},3,2,1,1v2[8:1]/6v5[8:1],,1/6,,
{8}7h[4:1],,4,4,5/6,,8/2-5[8:1],,
{4}2/1-5[8:1],1/8-5[8:1],6/8,1/8,
{8}2h[4:1],3,4,5,5h[4:1],4,3,2-5[8:1]/6-1[8:1],
{8},2/6,,4/7,4/7,,1-3[8:1]*-7[8:1],,
{8}1-5[8:1],,1-4[8:1]*-6[8:1],,1,,7^4[8:1],7,
{8},2,2,3/8,,1,8-2[8:1]*-6[8:1],8,
{8}8-4[8:1],,8-3[8:1]*-5[8:1],,8,,2^5[8:1],2,
{8},6,7,8,1q5[8:1]/2^4[8:1],,,,
{8}6h[4:1],,3,3,4/5,,1-5[8:1]/8-6[8:1],,
{4}1-3[8:1]/8-4[8:1],1-5[8:1]/8-6[8:1],1/8,2/7<2[8:3],
{8},,,1,1,,2/8,2/8,
{8},1/8,2/7,3/6,4-1[8:1]/5-8[8:1],,4/5,,
{16}2/7,,,,2h[4:1]/7h[4:1],,,,,,2h[16:3]/7h[16:3],,,,,2h[8:1]/7h[8:1],
{16},,,2h[16:5]/7h[16:5],,,,,,,,,1pp5[8:5]/5pp1[8:5],,,,
{8},,,,,,,1h[8:5]/8<2[8:3],
{4},,,3b/7b,
E

名前:
コメント:

タグ:

+ タグ編集
  • タグ:
最終更新:2026年10月03日 22:17