アットウィキロゴ

Sage

アーティスト かめりあ

BPM BASIC ADVANCED EXPERT MASTER Re:MASTER
145 6 8 12+ 14 -

EXPERT MASTER Re:MASTER
譜面制作者 翠楼屋 ロシェ@ペンギン -

BASIC


ADVANCED


EXPERT


MASTER

(145)
{8},E5,C,E1,,{2},{8}E4,C,E8,,{2},{8}E6,C,E2,,{2},{8}E5,C,E1,{2},
{8}4,E5,4/C,E1,4,,4,,4,E4,4/C,E8,4,,4,,4,E6,4/C,E2,4,,4,,4,B5,
4>8[4:1]/B6,B7,{2}4x/8x-4[16:1]*-6[16:1],
{16}1hx[4:1]/6hx[4:1],,,,,37,,2h[8:1]/4h[8:1],,,3h[8:1]/8h[8:1],,,2,1,8,7,6,,
{8}E8,C,E4,{16}4h[16:3]/6h[16:3],,,,2h[8:1]/5h[8:1],,,4hx[4:1]/8hx[4:1],,,,,56,,
2h[8:1]/4h[8:1],,,38,,,5,6,4,,{32}8,7,6,5,4,,{16}E7,E6,E5,E4,,
3h[8:1]/7h[8:1],,,2h[16:3]/5h[16:3],,,,3hx[4:1]/8hx[4:1],,,,,26,,
5h[8:1]/7h[8:1],,,1h[8:1]/6h[8:1],,,24,,57,,1h[16:6]/8,,E2,E3,E4,E5,E6,,
3h[16:3]/5h[16:3],,,,4h[8:1]/7h[8:1],,,1hx[4:1]/5hx[4:1],,,,,34,,5h[8:1]/7h[8:1],,,{4}16,
{1}1b<4[8:13]/2hx[8:27],,{8},{4}4,5,6,7,8,1,{16},7,8,7,{64}8b,1x,2x,3x,4x,,,,

{16},,17,,3,3,5,2h[16:5],,1,,7,7V51[8:1],,1,1,,,2,2,8,8,3h[16:3],7h[8:1],,,1,24,,,8,57,,,
16,,5,5,3,4h[8:1],,3,4V61[16:3],,2-5[16:1],{4},{16},8,8,5,,7,7,4,,6V84[16:3],6,3,,2,2,,,
1,,2,2,4,3,5,4h[16:3],,7,7h[4:1],,{32}E5,E4,E3,E2,{16}E1,,7,8,6,1,5,2,4,3,8,57,,,1,24,,,
48,,7,7,5,6,4,5h[16:3],,3,3q5[8:3],,7q1[4:1],,,,{2},{32}E1,B8,B7,E7,E5,B4,B3,E3,{4}1b,
{16}3/5h[8:1],,1,,3,4,1,4,3,,18,,46,,18,,3,7,2,6,1,5,8,4,1-4[8:1],3,{8}1-6[8:1],,,
{16}2h[8:1],,8,,6,5,8,5,6,,18,,35,,18,1h[8:1],,8,7,6,{32}E1,E2,E3,E4,{16}E5,7,,38,,18,{4}2b/7b,
{8}2V83[8:3]/6,5,{2}4-7[8:1],{16}4h[16:11]/8,,7,{8}7,6,3,6,{32}5,,3-7[8:1],2,1,8,7,6,,,{4}3hx[4:1],
{8}8,17,26,{16}5,2,5,3,5,4,5,,1b/7b,,6,6,5,5,4,4,3,3,2,2,1,1,8,8,7,7,
{32}6,5,4,3,2,1,8,7,6,5,4,3,2,1,8h[8:1],,,,4,5,6,7,8,1,

{1}2x-6[8:27]/5b,{8},,,B4,C,B8,{2},{8},E5,C,E1,{2},{8},B5,C,B1,,
{16}3x/8x,,,5x/6x,,,{8}8h[4:3],E6,C,E2,,,,{8}1h[4:3]/7,,E4,C,E8,,,,
2/8h[8:31],,,{24}E6,E5,E4,E3,,,{4},{24}E5,E4,E3,E2,,,{4},{24}E4,E3,E2,E1,,,{4},
{24}7,6,5,4x,,,{4},{24}6,5,4,3x,,,{4},{24}5,4,3,2x,,,{4},{24}4,3,2,1x,,,{8},,5,
{24}7,6,7,6,7,6,7,6,7,6,7,6,7,6,7,6,7,6,7,6,7,6,7,6,7,6,7,6,7,6,7,6,7,6,7,6,7,6,7,{16},4,5,,

3b/6b,,2,2,8x<4[8:1],,1,1,8x,1,,1,3,1,8,1,4,1,8,1h[8:1],,3,1,4,2,5,3,6,{32}1,2,3,,5,,5,,1,8,7,6,5,4,3,2,
{16}1x>5[8:1]/8x,,8,8,1x,8,,8,6,8,1,8,5,8,1,8h[16:3],,6,{8}6-1[8:1],48,36,2-4[8:1],4-7[8:1],1,1,
{16}8x<4[8:1],,1,1,8x,1,,1,3,1,8,1,4,1,8,1h[8:1],,3,1,4,2,5,3,6,{32}1,2,3,,{16}5,5,,47,,18,
{4}2/7-3[16:1]*-4[16:1],{16}7x,,,{8}28,37,4/6^1[8:1],57,{4}6x^3[8:1],6x<5[16:5],6b/Cf,{16},,,{24}1,2,3,
{16}8x<4[8:1],,1,1,8x,1,,1,3,2,8,1,4,2,8,1h[8:1],,3,1,4,2,5,3,6,{32}1,2,3,,5,,5,,1,8,7,6,5,4,3,2,
{16}1x>5[8:1]/8x,,8,8,1x,8,,86,,1,1,3,,8,8,6,,1,{8}1h[8:3],3,5,7V51[16:3],2-4[16:1],,,
{16}8x<4[8:1],,1,1,8x,1,,1,3,2,8,1,4,2,8,1h[8:1],,3,1,4,2,5,3,6,{32}1,2,3,,{16}5,5,,47,,18,27,,,
{48}E3,B3,B4,{16}E5/1x,,,{8}78,56,34,12,{16}78,,6,5,47,,3,4,52,,6,5,48,,1,1,1,{4}1w5[8:1],1b,
{16}46,,35,3h[4:1]/5,,8,,8,3,1,3,8,3,7,3,6h[8:1],,2,7,4,8,1,{2}2b<5[8:11]/7b>4[8:11],,,{8},,,

{16}E7,C,E3,,,,1,2,,56,,34,,7,5,6,,2,4,3,{32},E8,E7,E6,E5,E4,E3,E2,E1,E8,E7,E6,E5,E4,E3,E2,,,{4}8x/6x,
{16}1x/3x,,,48,,5,6V84[16:3],8,7,,16,,2,2,,4,3,,25,{12},8/B3,8/B4,8/B5,,2/B7,2/B6,2h[12:5]/B5,,
{24}1,8,7,6,5,4,{16}3x,,28,,7,1,7,2,7,3,7h[8:1],,{32}4,5,6,7,8,1,2,3,{24}6,5,6,5,6,5,6,5,6,5,6,5,
{8}6h[4:1],{32},E5,E6,E7,E8,E1,E2,E3,{16}E4,,18,,5,3,1,2,4,3h[16:3],,6,6,,17,,56,{8}5/6h[4:3],E4,B1,E5,B8,
{16}E6,,,1,2,3,4,58,,27,,1,4,2,7,5,6,4,7,B2,B7,B3,B6,{1}4hx[1:1],{8},
{32}8,7,6,5,1,8,7,6,2,1,8,7,3,2,1,8,4,3,2,1,{4}8x/5b,

{8}1x/6x,{24}E4,B4,B5,{16}E6,1,,3/7h[16:5],,,{24}E2,B2,B3,{16}E4,7,6,5,4,3,2,1,
{32}E5,E6,E7,E8,E1,E2,E3,E4,{16}1x,,,56,,17,,38,,2,3,4,
{32}8h[1280:1],B8,,,4h[1280:1],B4,,,6h[1280:1],B6,,,2h[1280:1],B2,,,7h[1280:1],B7,,,
{24}1,8,1,8,1,8,1,8,1,8,1,8,1,8,1,7,6,5,1,2,3,8,7,6,{4}1b/5hx[4:1],
{24}E4,E5,E6,E7,E8,E1,E2,E3,E4,E5,E6,E7,E8,E1,E2,{16}2x/6x,7,8,1,2,3,4,5,6,
{32}7,E5,B4,B3,,,,,,,,,,,E6,B5,B4,E4,E8,B8,B1,E2,{1}6x>7[4:7],,,,E

Re:MASTER


  • 追加しました。修正等ありましたらよろしくお願いします。 -- けもがみ (2022-07-04 05:24:06)
  • EXノーツ、ノーツの開始位置、SLIDEの速度の修正を行いました。 -- けもがみ (2026-02-17 08:18:00)
名前:
コメント:

タグ:

+ タグ編集
  • タグ:
最終更新:2026年04月11日 19:17