アットウィキロゴ

あの世行きのバスに乗ってさらば。

BPM BASIC ADVANCED EXPERT MASTER Re:MASTER
240 3 7+ 10+ 13 -

EXPERT MASTER Re:MASTER
譜面制作者 翠楼屋 すきやき奉行 -

BASIC


ADVANCED


EXPERT


MASTER

(240){2}36,36,
36,36,
36,3h[2:1]/6,
C1,{12}2x,3x,4x,7x,6x,5x,
1x,2x,3x,8x,7x,6x,1x,2x,3x,8x,7x,6x,2x,3x,4x,7x,6x,5x,2x,3x,4x,7x,6x,5x,
{8}2xh[8:3],,4,4h[8:3],,5,5h[4:1],,
7,7,6,6-2[8:1],,,1,,
8,,75,,4,4,5,5,
3h[8:3],,5,6h[8:3],,4,4,,
8x,8x,{16}E2,B2,B3,,E8,B7,B6,,{8}E1/B1/B8,,
{1}C1,
{4}35,3,4,5,
{8}54,,3,3,4,,4,,
{4}35,3,4,5,
3h[4:1]/5h[4:1],,4h[4:1]/5h[4:1],,
{4}64,6,5,4,
{8}45,,6,6,5,,5,,
{4}64,6,5,4,
{1}4/6q2[4:1],
{4}3h[4:1],4h[4:1],3h[4:1],2h[4:1],
3,43,45,{8}6,6,{4}5h[4:1],6h[4:1],7h[4:1],6h[4:1],
5,45,4,43,
2q6[4:1],,8x,,
7,5,{8}45,5<3[8:7]/4>6[8:7],,45,
{1},{4}4xh[4:1]/2xh[4:1],,4xh[4:1]/2xh[4:1],,
4h[4:1]/3,,4h[4:1]/1,2,
4h[4:1]/3,,4h[4:1]/3,2,
4h[4:1]/5,6,4h[4:1]/3,2,
4h[4:1]/1,,5h[4:1]/3,4,
5h[4:1]/6,7,5h[4:1],8,
5h[4:1],1,58,5hx[4:3]/8x>6[2:1],
{1},
{4}6,57,3,24,
5,5,5/B4/B3,5,
6,6,6/B5/B4,6,
7,7,7/B6/B5,7,
8z4[2:1],8,1,2,
3,3,3/B4/B5,3,
2,2,2/B3/B4,2,
1-4[16:5],6,7,8-5[16:5],
3,2,1h[2:1],4,
5,{8}6,46,,7,75,,46,,3,53,,2,42,,
{4}1x-5[8:1],6x,8x-4[8:1],3x,
{2}1b/6b,{4},54,
1-6[8:1]/2-5[8:1],1b/2b,8-3[8:1]/7-4[8:1],8b/7b,
26,{8}7,7,5-1[8:1],5,8-4[8:1],,3-7[8:1],,6,6>3[8:1],,8w4[8:1],,8b,
,,2x/6x,,7,7,5,5,
8h[4:1],,4,6,1h[4:1],,5,3,
7xh[8:3],,8,8,,12,12,,
{4}5b/6b,7b/8b,3b/4b,1b<6[8:1]/2b>5[8:1],
1b/2b,,12,54,
8-3[8:1]/7-4[8:1],8b/7b,1-6[8:1]/2-5[8:1],1b/2b,
73,{8}2,2,4-8[8:1],4,1-5[8:1],,6-2[8:1],,3,3<6[8:1],,1w5[8:1],,1b,
,,7x/3x,,2,2,4,,
5b/3b,7b/Cf1,{4},,,
{8}4b/6b,2b/Cf8,{4},,,
36,,36,,
6h[4:2],5,4,,
3,3,5,5,
6,6,4,4,
3,5h[4:1],3,4,
6,4h[4:1],6,5,
42,4/2p4[2:1],,,
,,5,5,
6h[1:1],5,4,3,
3h[1:1],4,5,6,
5h[1:1],4,3,2,
1,2,34,,
{12}8x,7x,6x,5x,,,
1x,2x,3x,4x,,,
{4}5xh[2:1]/6,,6,7,
{12}8x,7x,6x,5x,,,
{4}3h[4:1],2h[4:1],1,8h[4:1],7h[4:1],6,
4>1[2:1]/5,,,8<4[4:2],,,,,
52,25,47,47,
{1}63,
{2}5xh[2:7]/B4,B3,
B4,B3,
B2,B1,B2,Ch[2:7],
5,6,5,6,7,8,7,6,
4h[4:13]/5h[4:1],6h[4:1],5h[4:1],6h[4:1],7h[4:1],8h[4:1],7h[4:1],{4}8,8,
{12}1x,2x,3x,4x,,,{4}6,6,
{8}4,4,5,5,4,,63,,
2b/4b,,7b/5b,,4x/3x,2,5x/6x,7,
{2}1x/8x,{4},72,
4-7[8:1]/3-8[8:1],4b/3b,5-2[8:1]/6-1[8:1],5b/6b,
73,{8}2,2,4-8[8:1],4,1-5[8:1],,6-2[8:1],,3,3<6[8:1],,1w5[8:1],,1b,
,,7x/3x,,2,2,5,5,
1h[4:1],,4,2,8h[4:1],,5,7,
1h[8:3],,3,3,,82,82,,
{4}5b/6b,7b/8b,3b/4b,1b<6[8:1]/2b>5[8:1],
2b/1b,,34,18,
5-2[8:1]/6-1[8:1],5b/6b,4-7[8:1]/3-8[8:1],4b/3b,
26,{8}7,7,4-8[8:1],4,1-5[8:1],,3-7[8:1],,6,6>3[8:1],,8w4[8:1],,8b,
,,2x/6x,,7,7,4,,
3b/5b,1b/Cf8,{4},,,
{8}6b/4b,8b/Cf1,{4},,,
,,E5,,C1,,E1,,
4-1[8:1]/5,8x-4[8:1],2x-6[8:1],7x-3[8:1],
1x-6[8:1],4x-7[8:1],8x-4[8:1],6x-2[8:1],
1x>5[8:2],5x<1[8:2],1xw5[8:2],,
,7x/3x,16,38,
{8}4b/6b,1b>4[4:1]*b<6[4:1]/Cf1,{4},,,
{8}5b/3b,8b>3[4:1]*b<5[4:1]/Cf1,{4},,{8},,45,,,,
{2}36,36,
36,36,
36,3h[2:1]/6,
{4}C1,{8}7,7,1,1,8,,
7x/5x,6,4x/2x,3,8x/5x,6,4x/1x,3,
45,,87,7-3[8:2]/8,,1w5[8:33],
{1},,,,,E

Re:MASTER

名前:
コメント:

タグ:

+ タグ編集
  • タグ:
最終更新:2022年07月05日 00:55