アットウィキロゴ

キラメキ居残り大戦争

アーティスト 森羅万象

BPM BASIC ADVANCED EXPERT MASTER Re:MASTER
212 4 7 10+ 13 -

EXPERT MASTER Re:MASTER
譜面制作者 サファ太 はっぴー -

BASIC


ADVANCED


EXPERT


MASTER

(212){4}4-1[4:2]/5,5,5,5,
1x/5,5,{8}5,4,35,,
{4}5-8[4:2]/4,4,4,4,4>5[8:3],C1f,,,
1b/8b,
5b/4b,2b/7b,,
{8}3-8[8:1],3,6-1[8:1],6,2-6[8:1],2,7-3[8:1],7,
1-5[8:1],1,8,8,2,2,5<1[4:1],,
{4}1>5[4:1],5<1[4:1],1>5[4:1],5,
1hx[4:1],5x,3x/7x,6x/2x,
3-5[8:1],8,2-4[8:1]/4,8,
6-4[8:1],1,75,3,
1h[4:1],4,{8}26,2V46[8:1]/6V82[8:1],{4},
,1x-5[8:1]/8x-4[8:1],1x/8x,27,
6-1[8:1]/1,6x/5x,{8}4,4,5,,
{4}3-8[8:1]/8,3x/4x,{8}5,5,4,,
{4}6-1[8:1]/1,6x/5x,{8}4,4,5,,
{4}3-8[8:1]/8,3x/4x,6,75,
2<7[8:1],2x/4x,{8}5,5,4,4,
{4}7>2[8:1],7x/5x,{8}4,4,5,5,
{4}2<7[8:1],2x/4x,{8}5,5,4,4,
{4}7<1[8:3],7x/1b,,,
{8}E7,B6,C1,B3,E3,,{24}8x,7x,6x,5x,,,
{4}2hx[4:7],5,5,5,8-4[8:1],,1-5[8:1],,
7-2[8:1]/3h[4:5],,1,1,7-1[8:1],,{8}3,30g ,4,,
5x,5x,6hx[8:17],,{4}1,1,
4,4,2,3,
{8}1,1-3[8:1],,,,54,5-1[8:1]/4-8[8:1],,
4b/5b,,2x/7x,,{16}1,8,1,,{4}36,
{16}2,,2,,3,4,3,,{8}52,52,16,,
7,7,{16}1,8,1,,{8}2-5[8:1]/7-4[8:1],27,,,
3,3-1[8:1],,4,4-8[8:1],,3,3pp1[8:3],
,6x,,7x,,8,8,,
{16}7,,7,,6,5,6,,{8}47,47,83,,
2,2,{16}8,1,8,,{8}7-4[8:1]/2-5[8:1],72,,,
16,1h[8:1]/6h[8:1],,83,8h[8:1]/3h[8:1],,16,16,,
5,5,5,4,4,6,6,
7h[4:1]/5h[4:1],,,6h[4:1]/4h[4:1],,,5h[1:2]/3,,
{4}1h[4:7],,,,,,,,
3-6[4:5],,,,
E2,E1,E8,,
1w5[4:3],,,,
,,46,4/6<1[4:1],
3h[4:3],,4,5-8[4:1],
4h[4:3],,5,6pp5[2:1],
2,2,2,1b,
{8}43,4-8[8:1]/3-1[8:1],,,,2x/6x,2x/6x,,
56,5-1[8:1]/6-8[8:1],,,,7x/3x,7x-3[8:1]/3x,,
{4}1b/7x,,,8b/2b,
{8}1x-5[8:1],7x-3[8:1],1x,7x,,2,63,7,
8b-4[8:1],2b-6[8:1],8b,2b,
,7,{4}6/1>5[4:1],
5<1[4:1],1,6,3-8[8:1],
6-3[8:1],2-5[8:1],7-2[8:1],4b,
3-5[8:1],31,2-4[8:1]/4,12,
6-4[8:1],68,75,2,
1s5[8:3],{8}6x,6x,6x,6x,6x,,
{4}53,2b/6b,{8}5,5,{4}6-3[8:1]/4,
6/1b,2b-6[8:1],8b/2,8b,
E3/B1,E5/E4,B8/E7,E5/E6,
3<5[8:1],7p3[8:1],{8}2x,2xqq5[8:5],,8b,,
7x,,6x,6x,,73,,
8,8,2,2,6,6h[4:1],,5-1[8:1],
,8,8-4[8:1],,1,,6-3[8:1]/2-7[8:1],,
2b/6b,,1b/5b,,2,2,4,53,
,7,7,5,5,4,63,,
1-5[8:1]/2-4[8:1],,1x/2x,,7,7,5,64,
,E6/B5,E4/B3,E8/B7,B1/E2,E6/B6,E4/B4,,
{4}2-5[8:1],6-1[8:1],3-8[8:1],{8}7,7h[4:1],
,4,4,6,6,3,5,,
3>8[8:1]/8h[4:1],,,,6,,3V14[8:3]/8,8v7[4:1]/3
,,,,,6x,,5x/3x,,
6x,1x,8x,2x,5x,4x,6x,3x,
7h[4:3],,5,5,4,4,4,,
6h[4:1],,8h[4:1],,1,1,3,3h[4:1],
,5,5,,E8/B7/C1f/B3/E4,,2xpp4[8:1]/8xqq6[8:1],,
2x/8x,,7x/3h[4:1],,6,2,1-4[8:1]/5-8[8:1],,
1x/5x,,7xh[4:1]/3x,,5,7,8-5[8:1]/4-1[8:1],,
8x/4x,,2x/6x,2/6,,7v2[8:1]/3v6[8:1],73,C1f,{1},
8b-4[4:11],,E3,E2,
1-5[4:11],{4}6,6,6,,E7,,B7,,E8,,8b,4-1[4:5],
5,5,5,5,
5,5,{8}1,1,6,6,
3,3,5,5h[4:1],,4pp1[4:2],,7b,
,,,8x,8x,8x,8x,,
2-5[8:1]/7-4[8:1],,2x/7x,,36,3v1[8:1]/6v8[8:1],,C1f,
,,1b-5[8:1]/8b-4[8:1],,1b/8b,,7b/2b,,
1x>4[8:1],5x<8[8:1],1x,5x,,3,46,7,
8b-4[8:1],2b-6[8:1],8b,2b,
,7,{4}6/1>5[4:1],
5<1[4:1],1,6,3-8[8:1],
6-3[8:1],2-5[8:1],7<4[8:1],3b,
{8}2,2h[8:1],4,4h[8:1],5,5h[8:1],7,7h[8:1],
2,,3-8[8:1]/6-1[8:1],,3b/6b,,7x/2x,,
5h[8:1],4h[8:1],6h[8:1],3h[8:1],5h[8:1],4h[8:1],6,6,
73,73,7>1[8:1]/3<5[8:1],,,,4x/8x,,
3-7[8:1],3,5,5,6-2[8:1],6,4,4,
3-8[8:1],3,5,5,6-1[8:1],6,4,4,
2-5[8:1],2,6,6,7pp4[4:2],7,1x,1x,
,2x,,3x,,4x,4x,,
1>4[4:1],,4v1[4:1],,5,5,,8-5[8:1],
,1,1,,2>5[8:1]/4-7[8:1],,2x/4x,,
8<5[4:1],,5v8[4:1],,4,4,,1-4[8:1],
,8,8,,7<4[8:1]/5-2[8:1],,7x/5x,,
1,1,8,8,4,53,,6>3[8:1],
,2,2<7[8:1],,5-8[8:1],,1,,
2h[1:1],,8x,8x,8x,8x,8x,8x,
{4}7b-3[8:1],1-5[8:1]/7,8x/1,2b/6b,
{1},,E

Re:MASTER


名前:
コメント:

タグ:

+ タグ編集
  • タグ:
最終更新:2026年04月05日 01:16