EASY
BASIC
(200.0){1}1,
{1}1,
{1}8,
{1}8,
{2}1,1,
{1}1,
{2}8,8,
{1}8,
{2}1,1,
{1}1,
{2}8,8,
{1}1b/8b,
{1}2h[2:1],
{2}2,2,
{1}3h[2:1],
{2}3,3,
{1}4h[2:1],
{2}4,4,
{1}5h[2:1],
{4}5,5,5,,
{1}6h[2:1],
{2}6,6,
{1}7h[2:1],
{2}7,7,
{1}8h[2:1],
{2}8,8,
{1}1h[2:1],
{4}1,1,1,,
{2}8,8,
{4}8,8,8,,
{2}7,7,
{4}7,7,7,,
{2}6,6,
{4}6,6,6,,
{2}5,5,
{4}5,5,5,,
{4}4,4,3,,
{4}2,2,1,,
{1}1-5[4:3],,
{4}5,5,6,,
{4}7,7,8,,
{2}1b/8b,1b/8b,
{1}2b/7b,
{4}8,8,7,,
{4}6,6,5,,
{1}5-1[4:3],,
{4}1,1,2,,
{4}3,3,4,,
{1}4h[1:1]/5h[1:1],
{2},4/5,
{4}2,2,3,3,
{4}4,4,5,,
{4}4/5,4/5,4/5,,
{2}3/6,4/5,
{4}7,7,6,6,
{4}5,5,4,,
{4}4/5,4/5,4/5,,
{2}3/6,4/5,
{4}6,6,7,7,
{4}8,8,1,,
{4}1/8,1/8,1/8,,
{2}2/7,2/7,
{4}3,3,2,2,
{4}1,1,8,,
{1}1-4[4:3]/8-5[4:3],,
{4}8,8,8,,
{4}1,1,1,,
{4}8,8,8,,
{4}1,1,1,,
{4}7,8,7,,
{4}2,1,2,,
{4}7,8,7,,
{4}2,1,2,,
{4}1,1,2,,
{4}3,3,4,,
{1}4-8[4:3],,
{4}8,8,7,,
{4}6,6,5,,
{2}4b/5b,4b/5b,
{1}3b/6b,
{4}5,5,6,,
{4}7,7,8,,
{1}8-4[4:3],,
{4}4,4,3,,
{4}2,2,1,,
{1}1h[1:1]/8h[1:1],
{2},1/8,
{4}1,1,2,2,
{4}3,3,4,,
{4}5/6,5/6,5/6,,
{2}4/7,1/8,
{4}8,8,7,7,
{4}6,6,5,,
{4}3/4,3/4,3/4,,
{2}2/5,3/4,
{4}5,5,6,6,
{4}7,7,8,,
{4}1/2,1/2,1/2,,
{2}3/4,5/6,
{4}4,4,3,3,
{4}2,2,1,,
{1}1-4[4:3]/8-5[4:3],,
{4}2,1,2,,
{4}7,8,7,,
{4}2,1,2,,
{4}7,8,7,,
{4}2,8,1,,
{4}7,1,8,,
{4}2,8,1,,
{4}7,1,8,,
{4}2h[4:5]/7h[4:5],{1},,
E
ADVANCED
(200.0){1},,,,
{4}1,1,2,2,
{4}3,3,3/4,,
{4}8,8,7,7,
{4}6,6,5/6,,
{4}4,4,3,3,
{4}2,2,1/2,,
{4}5,5,6,6,
{4}7,7,7/8,,
{2}3h[2:1],4h[2:1],
{2}5h[2:1],6,
{2}6h[2:1],5h[2:1],
{2}4h[2:1],3,
{2}2h[2:1],1h[2:1],
{2}8h[2:1],7,
{2}7h[2:1],8h[2:1],
{2}1h[2:1],2,
{2}2h[2:1],3h[2:1],
{2}4h[2:1],5,
{2}6h[2:1],7h[2:1],
{2}8h[2:1],1,
{2}7h[2:1],6h[2:1],
{2}5h[2:1],4,
{2}3h[2:1],2h[2:1],
{2}1h[2:1],8,
{4}3,4,3,4,
{1}3-8[4:1],
{4}7,8,7,8,
{1}7-4[4:1],
{4}6,5,6,5,
{1}6-1[4:1],
{4}2,1,2,1,
{1}2-5[4:1],
{4}3,4,3,3/4,
{4}6,5,6,5/6,
{4}2,1,2,1,
{4}7/8,7/8,7/8,,
{4}6,5,6,5/6,
{4}3,4,3,3/4,
{4}7,8,7,8,
{4}1/2,1/2,1/2,,
{4}2,1,2,1/2,
{4}7,8,7,7/8,
{4}3,4,3,4,
{4}5/6,5/6,5/6,,
{4}7,8,7,7/8,
{4}2,1,2,1/2,
{4}6,5,6,5,
{4}3/4,3/4,3b/4b,,
{4}4,4,3,3,
{4}1/2,1/2,1/2,,
{4}5,5,6,6,
{4}7/8,7/8,7/8,,
{4}1,1,2,2,
{4}3/4,3/4,3/4,,
{4}8,8,7,7,
{4}5/6,5/6,5/6,,
{4}4,4,3,3,
{4}2,2,1/3,,
{4}5,5,6,6,
{4}7,7,6/8,,
{4}1,1,2,2,
{4}3,3,2/4,,
{4}8,8,7,7,
{4}6,6,5b/7b,,
{4}8,8,7,7,
{4}6,6,5/7,,
{4}1,1,2,2,
{4}3,3,2/4,,
{4}5,5,6,6,
{4}7,7,6/8,,
{4}4,4,3,3,
{4}2,2,1b/3b,,
{4}1,2,3,4,
{4}5,6,7,8,
{4}8,7,6,5,
{4}4,3,1/2,,
{4}8,7,6,5,
{4}4,3,2,1,
{4}1,2,3,4,
{4}5,6,7/8,,
{4}4,3,2,1,
{4}8,7,6,5,
{4}5,6,7,8,
{4}1b/3b,,4,4,
{4}5,6,7,8,
{4}1,2,3,4,
{4}4,3,2,1,
{4}8,7,5/6,,
{4}6,5,7,8,
{4}7/8,7/8,1/6,,
{4}3,4,2,1,
{4}1/2,1/2,3/8,,
{4}7,8,6,5,
{4}5/6,5/6,4/7,,
{4}2,1,3,4,
{4}3/4,3/4,2/5,,
{4}6,5/6,6,5/6,
{4}7,7/8,1/6,,
{4}3,3/4,3,3/4,
{4}2,1/2,3/8,,
{4}7,7/8,7,7/8,
{4}6,5/6,4/7,,
{4}2,1/2,2,1/2,
{4}3,3/4,2b/5b,,
{4}1,1,2,2,
{4}3/4,2/5,1/6,,
{4}8,8,7,7,
{4}5/6,4/7,3/8,,
{4}4,4,3,3,
{4}1/2,3/8,4/7,,
{4}5,5,6,6,
{4}7/8,1/6,2/5,{2}3/4-8[4:5],{1},,
E
EXPERT
(200.0){4}3,4,3h[4:1],,
{4}6,5,6h[4:1],,
{4}3,4,3h[4:1],,
{4}6,5,6h[4:1],,
{4}3,4,2/5,2/5,
{4}6,5,4/7,4/7,
{4}3,4,2/5,2/5,
{4}6,5,4/7,4/7,
{4}3,4,2/5,1/6,
{4}6,5,4/7,3/8,
{4}3,4,2/5,1/6,
{4}6,5,4/7,3/8,
{4}2h[4:1],3,4,5,
{4}7h[4:1],6,5,4,
{4}2h[4:1],3,4,5,
{1}6<3[2:1],
{4}2h[4:1],4,5,6,
{4}7h[4:1],5,4,3,
{1}1s5[2:1],
{4}6,3,1/8,,
{4}3h[4:1],4,2,8,
{4}6h[4:1],5,7,1,
{4}3,4,6,5,
{4}1-4[4:1]/8-5[4:1],,,4/5,
{4}6h[4:1],5,7,1/8,
{4}3h[4:1],4,2,1/8,
{4}2,4,7,5,
{4}3/6,2/7,1b/8b,,
{4}3h[4:1],4,6h[4:1],5,
{4}2h[4:1],4,7h[4:1],5,
{4}1h[4:1],3,8h[4:1],6,
{4}2/7,1/3,6/8,,
{4}2h[4:1],1,7h[4:1],8,
{4}3h[4:1],1,6h[4:1],8,
{4}4h[4:1],2,5h[4:1],7,
{4}4/5,1/3,6/8,,
{2}1-6[8:1]/2-5[8:1],7-4[8:1]/8-3[8:1],
{4}1/2,3/7,7/8,2/6,
{1}4v2[4:1]/8v6[4:1],
{8}5/7,,2/4,,7,8,1/6,,
{4}3/4,8,5/6,1,
{4}4/5,2/7h[4:1],6h[4:1],5h[4:1],
{2}4^1[4:1],8^5[4:1],
{1}4>5[2:1],
{2}7-4[8:1]/8-3[8:1],1-6[8:1]/2-5[8:1],
{4}7/8,2/6,1/2,3/7,
{1}1v3[4:1]/5v7[4:1],
{8}2/4,,5/7,,2,1,3/8,,
{4}8h[4:1],7h[4:1],6h[4:1],5h[4:1],
{4}4h[4:1],3h[4:1],2h[4:1],1>8[2:1],{1},
{4}3/6,1/8,4/7h[4:1],5-1[4:1],
{4},,5/2h[4:1],4-8[4:1],
{4},,5/7,4/2h[1:1],
{4}5,6,7,8,
{4}1/2,,8/3h[4:1],1-5[4:1],
{4},,1/6h[4:1],8-4[4:1],
{4},,1/3,5/7h[1:1],
{4}6,8,1,2,
{4}3/7,,8/6h[4:1],5,
{4}1/2,,1/3h[4:1],4,
{4}7/8,,4/3h[4:1],1,
{4}5/6h[4:1],8,4/5,3/6,
{1}2h[2:1]/7h[2:1],
{4}2,3,4,5,
{4}6,7,1/8,1pp4[4:3]/8qq5[4:3],{1},
{4}3/4,5/6,4/5,2b/7b,
{8}3,4,3,,8,,8,,
{8}6,5,6,,1,,1,,
{8}3,4,2,,8,,8,,
{8}6,5,7,,1,,1,,
{8}3,4,2,,7,,7/8,,
{8}6,5,7,,2,,1/2,,
{8}3,4,2,,7,,7/8,,
{8}6,5,7,,1/8,,,,
{2}1-4[8:1]/7-4[8:1],2-5[8:1]/8-5[8:1],
{4}4/6,1/4,3/5,5/8,
{1}2v4[4:1]/6v8[4:1],
{8}5/7,,2/4,,8,1,2/7,,
{8}1h[4:1]/8h[4:1],,,2/7,2h[4:1]/7h[4:1],,,,
{4}5b/7b,2b/4b,6b/8b,1b/3b,
{2}4h[4:1]/5h[4:1],2h[4:1]/7h[4:1],
{4}5/6,3/4,1b/8b,,
{2}2^5[8:1]/8^5[8:1],1^4[8:1]/7^4[8:1],
{4}3/5,5/8,4/6,1/4,
{8}3v1[4:1]/7v5[4:1],,,,,,2/7,2b/7b,
{4},,4/5,2/7,
{4}1h[4:1],2h[4:1],3h[4:1],4h[4:1],
{4}5h[4:1],6h[4:1],7h[4:1],8<1[2:1],{1},
{4}3/6,1/8,6/2h[4:1],5-1[4:1],
{4}4,,3/7h[4:1],4-8[4:1],
{4}5,,2/4,5/7h[1:1],
{4}4,3,2,1,
{4}7/8,,2/6h[4:1],1-5[4:1],
{4}8,,7/3h[4:1],8-4[4:1],
{4}1,,6/8,4/2h[1:1],
{4}3,1,8,7,
{4}2/6,,1/3h[4:1],4,
{4}7/8,,8/6h[4:1],5,
{4}1/2,,5/6h[4:1],8,
{4}4/3h[4:1],1,4/5,3/6,
{1}2h[2:1]/7h[2:1],
{4}6,7,8,1,
{4}2,3,4/5,4qq1[4:3]/5pp8[4:3],{1},
{4}7/8,1/2,4/5,2b/7b,
{8}6,5,6,5,7,,7,,
{8}3,4,3,4,2,,2,,
{8}6,5,6,4,8,,8,,
{8}3,4,3,5,1,,1,,
{8}6,5,6,4,7,,1/8,,
{8}3,4,3,5,2,,1/8,,
{8}6,5,7,4,8,,1/2,,
{8}3,4,2,5,1,,7/8,,
{8}4,5,4,5,4,,3/6,,
{4},2b/6b,
E
MASTER
(200.0){1},,,
{16},,,,,,,,,,,,4,5,4,5,
{8}4,4,6,6,7/8,,2/5,,
{8}5,5,3,3,1/2,,4/7,,
{8}4,4,6,6,7/8,,2/5,,
{8}5,5,3,3,1/2,,4/7,,
{8}5,5,2,2,3/4,,1/6,,
{8}4,4,7,7,5/6,,3/8,,
{8}5,5,2,2,3/4,,1/6,,
{8}4,4,7,7,5/6,,3/8,,
{4}5/6h[4:7],5,4,4,
{4}5,5,4,4,
{4}4/3h[4:7],4,5,5,
{4}4,4,5,5,
{4}5/6h[4:3],4,5,4,
{4}6/5s1[2:1],6,6,6,
{4}4/3h[1:1],5,4,5,
{4}4,3/4,2/5,5/6,
{8}4,4,6,3,5,5,3,6,
{8}4,4,6,3,5,5,3,6,
{8}3,3,5,2,6,6,4,7,
{8}3,3,5,2,6,6,4b,,
{8}3/5,4,2,5,4/6,5,7,4,
{8}3/5,4,2,5,4/6,5,7,4,
{8}3/5,6,5,7,4/6,3,4,2,
{4}3/5,4/6,2/7,4/5,
{8}1,1h[4:1],,7-4[8:1],8,7,,2-5[8:1],
{8}1,2,,7-4[8:1],8,7,,3-8[8:1],
{8}4,3,,7-4[8:1],8,7,,3-8[8:1],
{8}4,3,,7-4[8:1],8,7,,2-5[8:1],
{8}1,2,,6-1[8:1],5,6,,2-5[8:1],
{8}1,2,,6-1[8:1],5,6,,3-8[8:1],
{8}4,3,,6-1[8:1],5,6,,3-8[8:1],
{8}4,3,5h[2:1],,1h[4:1],,,,
{2}4-1[8:1]/7-4[8:1],2-5[8:1]/5-8[8:1],
{4}7-4[8:1],2-5[8:1],8-4[8:1],1,
{16}2/7,,6,5,6,,2/7,,3,4,3,,2/7,,6,5,
{16}6,,2/7,,3,4,3,,2-5[8:1]/7-4[8:1],,,,2/7,,,,
{2}1-6[8:1]/6-4[8:1],3-5[8:1]/8-3[8:1],
{4}6/1-5[8:1],7-4[8:1],8-3[8:1],7,
{4}4/5-8[8:1],4,5/4-1[8:1],5,
{4}4qq1[8:3]/5pp8[8:3],,,2/7,
{2}2-5[8:1]/5-8[8:1],4-1[8:1]/7-4[8:1],
{4}2-5[8:1],7-4[8:1],1-5[8:1],8,
{16}2/7,,3,4,3,,6,5,6,,3,4,3,,6,5,
{16}6,,3,4,3,,2/7,,2-5[8:1]/7-4[8:1],,,,2/7,,,,
{4}4-8[8:1],5-7[8:1],4-2[8:1],5-1[8:1],
{4}4-8[8:1],5,1/8,2/7,
{8}3,5,1,1,6,4,8,8,
{8}3,5,1,1,4/5,,2/7,,
{4}4/8q4[8:1],6,5/1p5[8:1],3,
{4}4/8q4[8:1],6,1-5[8:1],8<4[4:1],
{4}4>8[4:1],8<4[4:1],4>8[4:1],8w4[4:1],
{4},,4/5,2/7,
{4}5/1p5[8:1],3,4/8q4[8:1],6,
{4}5/1p5[8:1],3,8-4[8:1],1>5[4:1],
{4}5<1[4:1],1>5[4:1],5<1[4:1],1w5[4:1],
{4},,4/5,2/7,
{4}4/8q4[8:1],6,5/1p5[8:1],3,
{4}4/8q4[8:1],6,5-1[8:1],4-8[8:1],
{4}6-2[8:1],3-7[8:1],5-1[8:1],4,
{8}8,8,1,1,2/7,,4/5,,
{4}6h[4:1]/8p3[8:1],,1b/2b,4b/6b,
{4}2-6[8:1]/7-3[8:1],,2/8,1/7,
{8}2,2,8,4,7,7,1,5,
{8}3,4,6,5,4-8[8:1]/5-1[8:1],,,,
{8}2,2,8,8,4-8[8:1],,5,,
{8}7,7,1,1,5-1[8:1],,4,,
{8}2,2,8,8,4-8[8:1],,5,,
{8}7,7,1,1,5-1[8:1],,4,,
{8}2,2,6,6,3-8[8:1],,4,,
{8}7,7,3,3,6-1[8:1],,5,,
{8}2,2,6,6,3-8[8:1],,4,,
{8}7,7,3,3,4/5,,1/8,,
{2}2^5[8:1]/5-1[8:1],4-8[8:1]/7^4[8:1],
{4}2-5[8:1],7-4[8:1],1-5[8:1],8,
{16}3/6,,2,1,2,,3/6,,7,8,7,,3/6,,2,1,
{16}2,,3/6,,7,8,7,,3-8[8:1]/6-1[8:1],,,,3/6,,,,
{2}3-8[8:1]/8-4[8:1],1-5[8:1]/6-1[8:1],
{4}3/8-4[8:1],2-5[8:1],1-6[8:1],2,
{4}5/4-1[8:1],5,4/5-8[8:1],4,
{8}2/7,3/6,2/7,3/6,2b/7b,,4/5,,
{2}4-8[8:1]/7^4[8:1],2^5[8:1]/5-1[8:1],
{4}7-4[8:1],2-5[8:1],8-4[8:1],1,
{16}3/6,,7,8,7,,2,1,2,,,,7b/2b>7[4:1],,2b/7b,,
{4},,2-5[8:1]/7-4[8:1],2/7,
{4}5-1[8:1],4-2[8:1],5-7[8:1],4-8[8:1],
{4}5-1[8:1],4,1/8,2/7,
{8}6,4,8,8,3,5,1,1,
{8}7,5,2,4,4/5,,2/7,,
{4}8/4q8[8:1],2,1/5p1[8:1],7,
{4}8/4q8[8:1],2,5-1[8:1],4>8[4:1],
{4}8p4[4:1],4p8[4:1],8<4[4:1],4w8[8:1],
{4},3/5,5/6,2/7,
{4}1/5p1[8:1],7,8/4q8[8:1],2,
{4}1/5p1[8:1],7,4-8[8:1],5<1[4:1],
{4}1q5[4:1],5q1[4:1],1>5[4:1],5w1[8:1],
{4},4/6,3/4,2/7,
{4}8/4q8[8:1],2,1/5p1[8:1],7,
{4}8/4q8[8:1],2,5-1[8:1],4-8[8:1],
{4}6-2[8:1],3-7[8:1],5-1[8:1],4,
{8}8,8,1,6,3,,2/7,,
{4}6h[4:1]/3q8[8:1],,1b/2b,4b/6b,
{2}7-3[8:1]/8-4[8:1],1-5[8:1]/2-6[8:1],
{8}4,4,5,2,5,5,4,7,
{8}1,8,2,4b/5b,4b/5b,,2b/7b,,
{8}2/6,3/7,2/6,3/7,2/6,,3/7,,
{8}2/6,3/7,2/6,3/7,2/6,,3/7,,
{8}2/6,3/7,2/6,3/7,2/6,,3/7,,
{8}2/6,3/7,2/6,3/7,2/6,,1b/8b,,
{8}1/5,3/7,1/5,3/7,1/5,,3/7,,
{8}1/5,3/7,1/5,3/7,1/5,,3/7,,
{8}2/6,4/8,2/6,4/8,2/6,,4/8,,
{8}2/6,4/8,2/6,4/8,2/6,,{4}3h[8:11]/7h[8:11],{1},
{4},2b/6b,
E
Re:MASTER
最終更新:2026年10月03日 08:12