アットウィキロゴ

ヘルシーエンド

アーティスト 椎名もた (ぽわぽわP)

BPM EASY BASIC ADVANCED EXPERT MASTER Re:MASTER
150 2 4 8 11 12+ -

EXPERT MASTER Re:MASTER
譜面制作者 Jack 小鳥遊さん -

EASY


BASIC

(150.0){1},,,,,,,,
{2}6,6,
{2}7,7,
{1}8-4[4:3],,
{2}3,3,
{2}2,2,
{1}1-5[4:3],,
{2}6,6,
{2}7,7,
{1}8-3[4:3],,
{2}3,3,
{2}2,2,
{1}1-6[4:3],,
{1}8h[2:1],
{1}7h[2:1],
{1}6h[2:1],
{4}5,5,5,,
{1}4h[2:1],
{1}3h[2:1],
{1}2h[2:1],
{4}1,1,1,,
{1}1b/8b,
{4}1,1,1,,
{4}2,2,2,,
{2}3,3,
{2}4,4/5,
{4}5,5,5,,
{4}6,6,6,,
{2}7,7,
{2}8,1/8,
{1}1-4[4:3],,
{1}8-5[4:3],,
{1}4-1[4:3],,
{1}5-8[4:3],,
{1}1h[1:1]/2h[1:1],,
{1}7h[1:1]/8h[1:1],,
{1}5h[1:1]/6h[1:1],,
{1}3h[1:1]/4h[1:1],,
{4}1,1,1,,
{4}2,2,2,,
{4}3,3,3,,
{4}4,4,4/5,,
{4}5,5,5,,
{4}6,6,6,,
{4}7,7,7,,
{4}8,8,1/8,,
{1}8-5[4:3],,
{1}1-4[4:3],,
{4}8,8,8,,
{4}7,7,7,,
{4}6,6,6,,
{4}5,5,4/5,,
{4}4,4,4,,
{4}3,3,3,,
{4}2,2,2,,
{4}1,1,1/8,,
{4}7,7,7/8,,
{4}2,2,1/2,,
{1}1/8,
E

ADVANCED

(150.0){1}1-4[8:3],
{1}5-8[8:3],
{1}2>7[4:3],
{4},,3/6,3/6,
{1}5-8[8:3],
{1}1-4[8:3],
{1}5<4[8:7],
{4},,2/7,2b/7b,
{4}1,2,3/8,,
{4}5,6,4/7,,
{4}4,3,2/5,,
{4}8,7,1/6,,
{4}2,3,2/4,,
{4}7,6,5/7,,
{4}2,3,1/4,,
{4}7,6,5/8,,
{4}3/4,3/4,2/5,,
{4}5/6,5/6,4/7,,
{4}1/2,1/2,3/8,,
{4}7/8,7/8,1/6,,
{4}3/4,3/4,7/8,,
{4}5/6,5/6,1/2,,
{4}7,8,1,2>6[2:1],{1},
{4}8,7,6,5,
{2}4h[4:1],1/2,
{4}1,2,3,4,
{2}5h[4:1],7/8,
{4}3,4,5,6,
{2}7h[4:1],1/2,
{2}5h[4:1]/6h[4:1],3h[4:1]/4h[4:1],
{1}2V41[4:3]/7V58[4:3],
{4},,5/6,7/8,
{4}1/2,,3/4,1/2,
{4}7/8,,4/5,6,
{4}4/5,3,4/5,6-3[4:1],
{4},,3/4,1/2,
{4}7/8,,5/6,7/8,
{4}1/2,,1/8,2,
{4}1/8,7,1/8,2-7[4:1],
{2},3-8[4:1]/4-7[4:1],
{2},5-2[4:1]/6-1[4:1],
{2},8>6[4:3],{1},
{4}2/7,1/8,7-4[4:1]/8-3[4:1],,
{2},1-6[4:1]/2-5[4:1],
{2},1<3[4:3],{1},
{4}3/6,4/5,3h[4:1],,
{2}2/4,6h[4:1],
{2}5/7,2h[4:1],
{2}1/3,7h[4:1],
{4}6/8,,1/8,2/7,
{2}6h[4:1],5/7,
{2}3h[4:1],2/4,
{2}7h[4:1],6/8,
{8}2b,,,,6,6,6,,
{8}5/7,,,,3,3,3,,
{4}2/4,,4/5,7,
{4}4/5,2,4/5,7-3[8:3],
{8},,,,2,2,2,,
{8}1/3,,,,7,7,7,,
{4}6/8,,1/8,3,
{4}1/8,6,1/8,3-7[8:3],{1},
{4}5/6,4,5/6,7,
{4}5/6,7/8,1/2,,
{4}3/4,5,3/4,2,
{4}3/4,1/2,7/8,,
{4}1/2,3,1/2,8,
{4}1/2,7/8,5/6,,
{4}7/8,6,7/8,1,
{4}7/8,1/2,3/4,,
{4}5/6,5/6,3/4,3/4,
{4}1/2,1/2,7/8,,
{4}3/4,3/4,5/6,5/6,
{1}7h[1:2]/8h[1:2],,,
{1}1b,
E

EXPERT

(150.0){2}3h[2:1],4h[2:1],
{2}5h[2:1],6h[2:1],
{1}7>5[1:1],
{4},,7,7,
{2}6h[2:1],5h[2:1],
{2}4h[2:1],3h[2:1],
{1}2<4[1:1],
{4},,2,2,
{4}3h[2:1],,4,3,
{4}5/2h[2:1],,1,2,
{2}3/8-3[8:1],5/2-5[8:1],
{2}4/7-4[8:1],6/1-6[8:1],
{4}7h[2:1],,8,7,
{4}1/6h[2:1],,5,6,
{2}4/7-4[8:1],5/2-5[8:1],
{4}3/8-3[8:1],,2,1/8^5[4:1],
{4},,7,8/1^4[4:1],
{4},,4/7,3/6,
{2}5/2-5[8:1],4/7-4[8:1],
{4}6/1-6[8:1],,7,8/1^4[4:1],
{4},,2,1/8^5[4:1],
{4},,2/5,3/6,
{2}7/4-7[8:1],2/5-2[8:1],
{1}1h[4:3]/8h[4:3],
{8}1/8,,2/4,,6,6,5/7,,
{8}1/8,,3,3,2/4,,1/3,,
{8}1/8,,5/7,,3,3,2/4,,
{8}1/8,,6,6,5/7,,6/8,,
{8}1/2,,7/8,,1,1,2/8,,
{8}4/6,,8,8,1/7,,3-1[8:1]/5-7[8:1],,
{4},4-2[8:1]/6-8[8:1],,4-1[1:1]/5-8[1:1],{1},,
{16}1b/8b,,,,4/5,,,,1/8,,,2/7,,,3/6,,
{8}3/6,,1/8,,4,4,5,5,
{2}3^8[8:1],7^4[8:1],
{16}3^8[8:1],,,,,,,,7h[16:3],,,6h[16:3],,,5,,
{16}5-8[8:1],,,,,,,,2h[16:3],,,3h[16:3],,,4,,
{8}4-1[8:1],,,,8,8,1,1,
{2}7^4[8:1],3^8[8:1],
{2}7^4[8:1],3^8[8:1],
{4}7h[2:1],5,3h[2:1],1,
{4}6h[2:1],8,2h[2:1],4,
{4}5h[2:1],7,1h[2:1],3,
{4}4h[2:1],6,8h[4:1],1,
{4}2h[2:1],4,6h[2:1],8,
{4}3h[2:1],1,7h[2:1],5,
{4}4h[2:1],2,8h[2:1],6,
{1}5<4[2:1],
{4}5,5,4,4,
{4}5,4,3,2,
{4}1,1,8,8,
{4}1,8,7,6,
{4}5,5,4,4,
{4}5,3,6,4h[4:5],
{1}5h[1:1],,
{6}1h[6:1],2h[6:1],3h[6:1],4h[6:1],5h[6:1],6h[6:1],
{6}7h[6:1],8h[6:1],1h[6:1],2h[6:1],3h[6:1],4h[6:1],
{6}5h[6:1],6h[6:1],7h[6:1],8h[6:1],1h[6:1],2h[6:1],
{6}3h[6:1],4h[6:1],5h[6:1],6-2[8:1],,,
{16}1b/8b,,,,4/5,,,,1/8,,,2/7,,,3/6,,
{8}3/6,,1/8,,2,5,4,7,
{2}1^6[8:1],8^3[8:1],
{2}1^6[8:1],8^3[8:1],
{8}4,,7/8,,6,5,3/4,,
{8}2,3,4qq7[8:3],5,,,,,
{8}8,,1/2,,3,4,5/6,,
{8}7,6,5pp2[8:3],4,,,,,
{8}3h[8:1],4h[8:1],2h[8:1],5h[8:1],1h[8:1],6h[8:1],8>6[4:3],7h[8:7],{1},
{8}6h[8:1],5h[8:1],7h[8:1],4h[8:1],8h[8:1],3h[8:1],1<3[4:3],2h[8:7],{1},
{8}2h[8:1],1h[8:1],3h[8:1],8h[8:1],4h[8:1],7h[8:1],5>7[4:3],6h[8:7],{1},
{8}7h[8:1],8h[8:1],6h[8:1],1h[8:1],5h[8:1],2h[8:1],4<2[4:3],3h[8:17],{1},
{4}4,5,6,7,
{4}7h[4:3],8,1,2,
{1}4/5,
E

MASTER

(150.0){8}2,,,6,5,4,5,6,
{16},,7,,7,,1,,8,,,2,2,,{8}1s5[8:7],{1},
{8},,,3,4,5,4,3,
{8},2,2,6,5,4,5,6,
{16},,7,,,,1,1,8,,,7,,,{8}6>7[4:5],{1},
{8},,,,5-1[8:1],,,7,
{16}7-3[8:1],,,,,,2,,2h[16:3],,,3h[16:3],,,4-8[8:1],,
{16},,,,,,7,,7h[16:3],,,6h[16:3],,,5,,
{4}2-5[8:1],5,2-6[8:1],6,
{8}2-7[8:1],,7,,2-6[8:1],,6,7,
{16}6-2[8:1],,,,,,7,,7h[16:3],,,6h[16:3],,,5-1[8:1],,
{16},,,,,,2,,2h[16:3],,,3h[16:3],,,4,,
{4}7-4[8:1],4,7-3[8:1],3,
{8}7-2[8:1],,2,1,1,2,3,4-7[8:1],
{8},8,,8,8,7,6,5-2[8:1],
{16},,1,,1,,2,,3,,,4,4,,6,,
{4}3^8[8:1],8,3p7[8:1],7,
{8}3p6[8:1],,6,8,8,7,6,5-8[8:1],
{8},1,1,2,2,3,4,4-1[8:1],
{16},,8,,,,2,,2h[16:3],,,3h[16:3],,,4,,
{4}8^3[8:1],5,1^6[8:1],4,
{1}2h[4:3]/7h[4:3],
{4}3/4h[4:1],7,6/5h[4:1],2,
{8}4/3h[4:1],5,6,,2-6[8:1]/7-3[8:1],,,,
{2}7h[4:1]/8-4[8:1],2h[4:1]/1-5[8:1],
{8}4pp4[4:1]*qq4[4:1],,,,,2/6,2/6,,
{8}3/4h[4:1],2,1,,6/5h[4:1],7,8,,
{8}2/7,3/6,4/5,,1-5[8:1]/8-4[8:1],,,,
{8}7/8,1h[4:1]/6h[4:1],,,1/2,3h[4:1]/8h[4:1],,,
{8}1p8[8:7]/8<1[8:7],1/8,,,,,,,
{16},,,,,,,,8/6h[16:3],,,4h[16:3],,,2,,
{16}1-6[8:1]/2-5[8:1],,,,1/2,,,,2/8h[16:3],,,6h[16:3],,,4,,
{8}3-8[8:1]/4-7[8:1],,3/4,,6/1-5[8:1],,7-4[8:1],7,
{8}2-5[8:1],,8-4[8:1],8,2-6[8:1],2,5-1[8:1],5,
{16},,2,,2,,,,1/3h[16:3],,,5h[16:3],,,7,,
{16}7-4[8:1]/8-3[8:1],,,,7/8,,,,7/1h[16:3],,,3h[16:3],,,5,,
{8}5-2[8:1]/6-1[8:1],,5/6,,3/8-4[8:1],,2-5[8:1],2,
{8}7-4[8:1],,1-5[8:1],1,7-3[8:1],7,4-8[8:1],4,
{8},7,7,,2V41[4:1]/7V58[4:1],,,,
{16},,2h[16:3],,,3h[16:3],,,4h[16:3],,,5,,,6/7,,
{16},,7h[16:3],,,6h[16:3],,,5h[16:3],,,4,,,2/3,,
{16},,4h[16:3],,,1h[16:3],,,2h[16:3],,,3,,,1/4,,
{16},,5h[16:3],,,8h[16:3],,,7h[16:3],,,6,,,5/8,,
{16},,1-3[4:1],,,1-4[4:1],,,1-5[4:1],,,,,,,,
{16},,8-6[4:1],,,8-5[4:1],,,8-4[4:1],,,,,,,,
{16},,2h[16:3],,,7h[16:3],,,4h[16:3],,,1h[16:3],,,6h[16:3],,
{16},3h[16:3],,,8h[16:3],,,5h[16:3],,,1,,2,,3,,
{16}4,,5h[2:1],,,4,,4,,,4h[2:1],,,5,,5,
{16},,5h[2:1],,,4,,4,,,4h[2:1],,,5,,5,
{16},,5h[2:1],,,4,,4,,,4h[2:1],,,5,,5,
{16},,5h[2:1],,,4,,4,,,4h[2:1],,,5,,5,
{16},,6h[2:1],,,5,,5,,,3h[2:1],,,4,,4,
{16},,5h[2:1],,,4,,4,,,4h[2:1],,,5,,5,
{16},,6h[2:1],,,5,,5,,,3h[16:5],,,4,,4,
{16}3b,,,,,,,,1/8,,,2/7,,,3/6,,
{6}4h[1993:166]/5h[1993:166],3h[1993:166]/8h[1993:166],4h[1993:166]/6h[1993:166],1h[1993:166]/5h[1993:166],2h[1993:166]/3h[1993:166],7h[1993:166]/8h[1993:166],
{6}2h[1993:166]/6h[1993:166],4h[1993:166]/7h[1993:166],1h[1993:166]/3h[1993:166],5h[1993:166]/7h[1993:166],1h[1993:166]/5h[1993:166],2h[1993:166]/8h[1993:166],
{6}1h[1993:166]/3h[1993:166],5h[1993:166]/8h[1993:166],2h[1993:166]/4h[1993:166],2h[1993:166]/3h[1993:166],3h[1993:166]/8h[1993:166],1h[1993:166]/4h[1993:166],
{24}4h[1993:166]/5h[1993:166],,,,2h[1993:166]/7h[1993:166],,,,3h[1993:166]/6h[1993:166],,,,1-5[8:1]/8-4[8:1],,,3/6,,,1/8,,,,,,
{16}2b/7b,,,,,,,,1/8,,,2/7,,,3/6,,
{8}4-1[8:1]/5-8[8:1],,,,3/6-1[8:1],,4-7[8:1],4,
{8}5-1[8:1],,3-8[8:1],3,5-2[8:1],5,4>5[4:3],4,{1},
{8}2/7,,1,2,3^8[8:1],4,,,
{8}7,6,5,4^7[8:1],,1,1,,
{8}1/8,,8,7,6^1[8:1],5,,,
{8}2,3,4,5^2[8:1],,8,8,,
{8}1^4[8:1],8,7,6,5^8[8:1],4,3,2,
{4}1<5[4:1],5>1[4:1],1-4[8:1]*-6[8:1],,
{8}8^5[8:1],1,2,3,4^1[8:1],5,6,7,
{4}8>4[4:1],4<8[4:1],8-3[8:1]*-5[8:1],,
{8}2^5[8:1],1,8,7,6^1[8:1],5,4,3,
{4}2<6[4:1],6>2[4:1],2w6[8:1],,
{8}7^4[8:1],8,1,2,3^8[8:1],4,5,6<5[8:7],{1},
{16},,4h[16:3],,,5h[16:3],,,6h[16:3],,,7h[16:3],,,8,,
{16},,5h[16:3],,,4h[16:3],,,3h[16:3],,,2h[16:3],,,1h[8:1],,
{1}8b,
E

Re:MASTER


名前:
コメント:

タグ:

+ タグ編集
  • タグ:
最終更新:2026年10月03日 22:18