アットウィキロゴ

ありふれたせかいせいふく

アーティスト ピノキオピー

BPM EASY BASIC ADVANCED EXPERT MASTER Re:MASTER
150 2 5 8 9+ 13+ -

EXPERT MASTER Re:MASTER
譜面制作者 しろいろ Jack -

EASY


BASIC

(150.0){1},,,,
{2}1,1,
{2}2,2,
{2}3,3,
{1}4h[2:1],
{2}5,5,
{4}6,6,6,,
{2}7,7,
{2}8,1/8,
{2}8,8,
{4}7,7,7,,
{2}6,6,
{1}4h[2:1]/5h[2:1],
{2}4,4,
{4}3,3,3,,
{2}2,2,
{4}1,8,1,,
{2}8,8,
{4}7,7,7,,
{2}6,6,
{4}5,4,5,4b,
{2}5,5,
{4}6,6,6,,
{2}7,7,
{4}8,1,8,,
{1}1-4[4:3],,
{1}8-5[4:3],,
{4}1,1,1,,
{4}2,2,2,,
{2}3/4,3/4,
{4}4,5,4,,
{4}5,5,5,,
{4}6,6,6,,
{2}7/8,7/8,
{4}8,8,1,1,
{1}8-5[4:3],,
{1}1-4[4:3],,
{1}8-4[4:3],,
{1}1h[1:1],,
{4}1,1,2,2,
{2}3/4,3/4,
{4}5,5,6,6,
{2}7/8,7/8,
{4}8,8,7,7,
{2}5/6,5/6,
{1}4h[2:1],
{1}4h[2:1]/5h[2:1],
{2}3/4,5/6,
{4}4/5,4/5,3/6,,
{1}2h[2:1],
{1}1h[2:1],
{4}1,1,2,2,
{4}3,3,4b/5b,,
{4}5,5,6,6,
{4}7,7,1/8,,
{2}1/8,2/7,
{4}1/8,1/8,2b/7b,,
{4}8,8,7,7,
{4}6,6,4/5,4/5,
{4}4,4,3,3,
{4}2,2,1b/8b,,
{4}1,1,2,2,
{4}3,3,4/5,,
{2}4/5,3/6,
{1}4h[2:1]/5h[2:1],
{1}4-1[4:3]/5-8[4:3],,
{2},1/8,
{4}1/8,,1,8,
{2}1,8,
{2}7,6,
{2}5,4,
{2}3,2,
{2}1,{1}8-4[4:3],,
E

ADVANCED

(150.0){1},,,,
{4}1,2,3,,
{4}8,7,6,,
{4}5,4,5,4<1[4:3],{1},
{4}8,7,5/6,,
{4}1,2,3/4,,
{4}7,6,5,4/5,
{4}2,3,4/5,,
{4}7,7,7/8,,
{4}2,2,1/2,,
{4}8,1,8,1<4[4:3],{1},
{4}3,3,2,1,
{4}8,7,7/8,,
{4}6,6,7,8,
{4}1,2,1/2,,
{4}1/2,1/8,7/8,1/8,
{4}1/8,1/8,1/8,,
{4}1/8,2/7,3/6,,
{4}4/5,3/6,2b/7b,,
{4}2,3h[2:1],4,5,
{4}4/5,4/5,4/5,,
{4}6,7h[2:1],8,1,
{4}1/8,1/8,1/8,,
{2}1/2,3/4pp8[1:1],{1},
{1}1h[1:1]/8h[1:1],,
{4}1,1,2,2,
{4}1,2,1/2,1/2,
{4}8,7,7/8,7/8,
{1}7-2[4:1],
{4}1/2,8,7/8,6,
{4}5/6,5^2[4:1],,,
{4}1/2,3/8,4/7,5/6,
{4}3/6,2/7,1/8,1/8,
{1}1^4[4:3]/8^5[4:3],,
{4}6,5,5/6,4/5,
{4}5,4,4/5,3/4,
{4}1/2,1/8,1,8,
{4}1/8,7/8,8,7,
{1}6^3[2:1],
{1}2^7[2:1],
{4}5/6,4/5,3/4,4/5,
{1}6-3[4:1],
{4}3,6,4/5,4p5[4:3],{1},
{4}3/4,4/5,5/6,4/5,
{4}3h[4:1],4,6h[4:1],5,
{4}7/8,1/6,2/5,,
{4}3/4,2/5,1/6,,
{2}7/8,1/2,
{1}1^4[2:1]/8^5[2:1],
{1}4-1[2:1]/5-8[2:1],
{4}2,7,2b/7b,2b/7b,
{2}1h[4:1]/2h[4:1],7h[4:1]/8h[4:1],
{4}7/8,1/8,1/2,,
{4}3,4,5h[4:1],4,
{4}4/5,4/5,4/5,,
{4}3,6,2/7,2/7,
{4}1,8,2b/7b,,
{4}2h[4:1],1,7h[4:1],8,
{4}7,2,2/7,3/6,
{4}3h[4:1],4,6h[4:1],5,
{4}4/5,4/5,4/5,,
{4}1/2,1/8,7/8,1/8,
{4}2/7,2/7,2/7,,
{4}1/2,3/8,7/8,1/6,
{1}1/8,
{1}2b^5[4:5]/6b^1[4:5],,
{4},,8h[4:1],1,
{4}1h[4:1],8,7,2,
{4}2/7,2/7,3-7[2:1],,
{2},6-2[2:1],
{4},,2/7,2/7,
{4}1/8,1/8,1h[4:3]/8h[4:3],,
{4},,,1/8,
E

EXPERT

(150.0){4}6h[4:3],,,5,
{4}3h[4:3],,,4,
{4}5h[4:3],,,6,
{4}4h[4:1],5h[4:1],6h[4:1],7,
{2}5h[2:1],6,
{2}4h[2:1],3,
{4}3h[4:1],6h[4:1],4h[4:1],5h[4:1],
{4}3h[4:1],4h[4:1],5h[4:1],6,
{4}6,5,3/4,2,
{4}3,4,5/6,7,
{4}7,8,1/2,3,
{4}2,1,1/6,,
{4}6,5,3/4,2,
{4}3,4,5/6,7,
{4}5/6,6/7,7/8,7/1>7[4:3],{1},
{1}7V53[2:1]*V13[2:1],
{1}3q6[2:1],
{4}7/8,1/6,2/5,3/4,
{4}1/2,3/8,4/7,,
{2}7-3[4:1],2-6[4:1],
{2}7-4[4:1],2-5[4:1],
{4}6,7,7/8,1,
{4}1/2,1,2/7,1b,
{4}1/2,3/8,7/8,1/6,
{8}3/4,,2/5,,4/5,6,3,6,
{4}3/4,2/5,5/6,4/7,
{4}7/8,1/8,1/2,,
{4}5/4h[4:1],3,4/5h[4:1],6,
{4}4/3h[4:1],2,5/6h[4:1],7,
{4}8h[4:1],7h[4:1],6h[4:1],5h[4:1],
{1}4^7[2:1],
{4}8,1/2,1,7/8,
{8}5,,3/4,,6,5,6,,
{4}7,5/6,2,3/4,
{4}6,7/8,1/6,,
{1}1-4[2:1]/8p3[2:1],
{8}2/8,,1/7,,2b/8b,,,2/8,
{8}2/8,,,1/7,1/7,,,,
{4}1h[4:1],2h[4:1],3h[4:1],4,
{1}4bs8[4:5],,
{4}4h[4:1],3h[4:1],2h[4:1],1,
{1}1z5[2:1],
{4}8h[4:1],7h[4:1],6h[4:1],5,
{1}5z1[2:1],
{4}7h[4:3],,6,6,
{4}2h[4:3],,3,3,
{8}5/6,,7/8,,2,2,2,,
{1}2-7[4:1]/6-3[4:1],
{8}3/4,,1/2,,7,7,7,,
{1}4-1[4:1]/8-5[4:1],
{8}1/2,,3/4,,6,6,6,,
{1}2-7[4:1]/6-3[4:1],
{4}1/2,3/8,7/8,1/6,
{4}1/2,4/8,7/8,1/5,
{8}2,1b,,,7,8b,,2,
{1}7-2[2:1],
{4}8/7h[4:1],6,1/2h[4:1],3,
{8}2,7,1,8,2/7,2/7,2/7,,
{8}3,3,4,,6,6,5,,
{8}1,8,2,7,1b,,,,
{8}2,1,3/8,,7,8,1/6,,
{8}7,2,1,8,2/7,,,7,
{8}1/6,,,2,3/8,,,1,
{8}8,1/8,1/8,2/7,2b/7b,,,,
{8}2,1,3/8,,7,8,1/6,,
{8}1/2,,3/8,,7/8,1/6,2/5,,
{4}4/3h[4:1],6,5/6h[4:1],3,
{8}2,7,1,8,2b/7b,,,,
{4}1/2h[4:1],3,8/7h[4:1],6,
{8}1,8,7/8,1/6,2/5,,,2,
{8}3/8,,,7,1/6,,,,
{4}1/2,3/4,5/6,7/8,
{8}2h[4:1]/5h[4:1],,,,2/5,,3,3,
{8}4,,2/5,,4/7,,6,6,
{8}5,,4/7,,2/5,,3,3,
{4}4,2/5,3h[4:1],2h[4:1],
{8}1h[4:1],,8,,1,1,8,8,
{8}1,,3/8,,7,7,2,2,
{4}7,1/6,1/2,3/4,
{4}5/6,7/8,8-4[4:3],,
{4},,,1w5[1:2],{1},,,
E

MASTER

(150.0){16}3h[16:3],,,4h[16:3],,,2,,2h[4:1],,,,1,,,,
{16}7h[16:3],,,6h[16:3],,,5,,5h[4:1],,,,4,4,,,
{16}6h[16:3],,,5h[16:3],,,7,,7h[4:1],,,,8,,,,
{16}2h[16:3],,,3h[16:3],,,4,,4h[4:1],,,,5,5,4,4,
{16}8h[16:3],,,7h[16:3],,,6,,6h[4:1],,,,8,,2/7,,
{16}3h[16:3],,,2h[16:3],,,1,,1h[4:1],,,,5,4,5,,
{16}2/4,,,5/7,,,3/6,,3/6,,,,5p4[2:1],,4,,
{2},1s5[16:3],
{16}6,5,6,5,6,,4/7,,3,,2/5,,1,,3/8,,
{16}7,8,7,8,7,,1/6,,3/4,,5/6,,1/8,,,,
{16}3,4,3,4,3,,2/5,,6,,4/7,,8,,1/6,,
{16}2,1,2,1,2,,3/8,,5/6,,3/4,,1,1,8,8,
{16}2,1,2,1,2,,3/8,,4qq2[8:1]*pp6[8:1],,3/5,,,,,,
{16}7,8,7,8,7,,1/6,,5s1[16:3],,4/6,,,,,,
{16}2,1,2,1,2,,4/5,,7,8,7,8,7,,4/5,,
{16}3,6,3,6,2,7,2,7,1,8,1,8,4,5,4,5,
{16}2h[16:3],,,3,2,,1/8,,7h[16:3],,,6,7,,1/8,,
{16}4h[16:3],,,5,4,,1/8,,2/7,,,,3^8[8:1],,4,,
{8}3,,6^1[8:1],5,6,2,3>6[8:3],4,
{8}5,,,5,5-1[8:1],,8,,
{16}6h[16:3],,,7,6,,1/8,,4,5,4,5,4,,1/8,,
{16}3h[16:3],,,2,3,,1/8,,2q6[8:1]/7p3[8:1],,,,,,,,
{4}4/5v2[8:1],5/8,5/4v7[8:1],1/4,
{4}4-2[8:1]/5-1[8:1],4-8[8:1]/5-7[8:1],4/5,1b,
{16}8h[16:3],,,1,8,,2/7,,3,4,3,4,3,,2/5,,
{16}6,5,6,5,6,,4/7,,3,,1/3,,6,,6/8,,
{16}1h[16:3],,,8,1,,2/7,,4,5,3,6,4,5,2,7,
{16}4h[16:3],,,5,4,,3/6,,1/8,,4/5,,,,2/3,,
{16}2h[4:1]/3h[4:1],,,,,,6/7,,6h[4:1]/7h[4:1],,,,,,4,5,
{8}4h[8:1],2,5h[8:1],7,3h[8:1],1,6h[8:1],8,
{8}2h[8:1],3h[8:1],4h[8:1],5h[8:1],6h[8:1],7h[8:1],8h[8:1],1>8[8:3],
{16},,,,,,,,,,,,,,2^5[8:1],1,
{16}2,,6,,6,,7^4[8:1],8,7,,3,,3,,2,4,
{16}3,,1/6,,7,5,6,,3/4,,5/6,,3/8,,2^5[8:1],1,
{16}2,,6,,6,,7^4[8:1],8,7,,2,,3-8[8:1],,3,,
{16}6-1[8:1],,6,,4-8[8:1],,4,,7,,1b,,1b,,6^1[8:1],5,
{16}6,,2,,2,,3^8[8:1],4,3,,7,,7,,5,4,
{16}5,,2/8,,5/6,,3/4,,1/7,,8b,,8b,,4-1[8:1]/5-8[8:1],3/6,
{16}2/7,,,,,,2V41[16:3]/7V58[16:3],3/6,4/5,,,,,,,,
{16}2-7[12:1]/6-3[12:1],,,,2/6,,,1/8,,,4/5,,1,8,1,8,
{1}2bqq5[8:9]/7bpp4[8:9],
{2},4^1[8:1]/5^8[8:1],
{16}3h[16:3],,,4h[16:3],,,2,,6h[16:3],,,5h[16:3],,,7,,
{16}3,5,4,6,,7/8,7/8,,6,4,5,3,,1/2,1/2,,
{16}3,4,,6,5,,2,4,,7,5,,1/2,,,,
{16}6,5,,3,4,,7,5,,2,4,,7/8,,,,
{1}1q4[2:1]/6p3[2:1],
{1}3q6[2:1]/8p5[2:1],
{16}2,1,2,1,2,,3/8,,5/6,,7/8,,1/2,,3/4,,
{8}6h[4:1],8,5,7/8,3h[4:1],1,4,1/2,
{16}8,1,8,1,7,2,7,2,6,3,6,3h[16:5],,,,,
{16}6,,2/7,,4/5,,2/7,,4/5,,1,8,,,4/5,,
{16}2,1,2,1,2,1h[8:1],,8,7,8,7,,1/6,,,,
{8}3h[4:1],1,4,1/2,6h[4:1],8,5,7/8,
{8}4/2h[4:1],5,6,7/2h[4:1],8h[8:1],,2/8,5/7h[8:3],
{8}4,3,2,1h[4:1]/7h[4:1],,,1/7,,
{8}4w8[8:1],2/6,,,5w1[8:1],3/7,,,
{16}2,1,2,1,3/8,,7,8,7,8,1/6,,{983}2,,,,,,,,,,,,,,,,,,,,,,,,,,,,,,,,,,,,,,,,,{625}3,,,,,,,,,,,,,,,,,,,,,,,,,,{983}4,,,,,,,,,,,,,,,,,,,,,,,,,,,,,,,,,,,,,,,,,7,,,,,,,,,,,,,,,,,,,,,,,,,,,,,,,,,,,,,,,,,{625}6,,,,,,,,,,,,,,,,,,,,,,,,,,{983}5,,,,,,,,,,,,,,,,,,,,,,,,,,,,,,,,,,,,,,,,,
{8}1,,,,,,,3b>6[4:1]/6b<3[4:1],
{8},,,,4-8[8:1]/5-1[8:1],3/6,4/5,,
{8}3-8[8:1]/4-7[8:1],2/5,3/4,,5-2[8:1]/6-1[8:1],4/7,5/6,,
{16}3/4,,5/6,,1-5[8:1],,3/7,,1,,8b,,8b,,6,5,
{16}6,,1/8,,2/7,,3,4,3,4,3,,1/8,,6,5,
{16}6,,3/4,,8-4[8:1],,2/6,,8,,1b,,1b,,2,3,
{16}4h[4:1],,,,3,,7,6,5h[4:1],,,,6,,1/2,3/8,
{16}4/7,,7/8,1/6,2/5,,1/8,2/7,3/6,,,,1b/8b,,2/5v2[8:1],3/6,
{16}4/7,,8,,8,,7/4v7[8:1],3/6,2/5,,1,,1,,2,1,
{16}2,,4/5,,7,8,7,,4-8[8:1],,2/6,,4,,2,1,
{8}2-6[16:1],8,7-3[16:1],1,2^5[16:1],8,7^4[16:1],1,
{16}3-8[16:1],,7,,6-1[16:1],,2,,2,,8b,,8b,,7/4v7[8:1],3/6,
{16}2/5,,1,,1,,2/5v2[8:1],3/6,4/7,,8,,8,,4,5,
{16}4,,2/6,,5-1[8:1],,3/7,,5,,8b,,8b,,4-8[8:1]/5-1[8:1],3/6,
{16}2/7,,,,,,2V48[16:3]/7V51[16:3],3/6,4/5,,,,,,,,
{8}4/5,2,3,4,5,6,7<2[8:3],8,
{2}1h[2:1],8b,
{16}3,8,1,6,2,5,4,7,2,1,2,1,2,,3/8,,
{16}5/6,,3/4,,1/8,,,,6,5,6,5,6,,4/7,,
{16}3,,2/5,,1,,3/8,,7,8,7,8,7,,1/6,,
{16}3/4,,5/6,,8,8,1,1,7,8,7,8,7,,1/6,,
{16}5qq3[8:1]*pp7[8:1],,4/6,,,,,,2,1,2,1,2,,3/8,,
{16}4z8[16:3],,3/5,,,,,,7,8,7,8,7,,4/5,,
{16}2,1,2,1,2,,4/5,,2-5[16:1],,,1-6[16:1],,,8-3[16:1],,
{16},7-4[16:1],,,1,,1h[8:3],,,,,,{4}8w4[2:3],{1},,
{8},,,,,{16}1-5[16:1],,,,,,
E

Re:MASTER


名前:
コメント:

タグ:

+ タグ編集
  • タグ:
最終更新:2026年10月01日 21:19