EASY
BASIC
(160.0){1},,,,
{1}1h[1:1],,
{2}1/8,1/8,
{2}8,8,
{1}1-5[4:3],,
{1}8-4[4:3],,
{1}1-5[4:3],,
{1}8-4[4:3],,
{1}1,
{1}2,
{1}3,
{1}4,
{1}5,
{1}6,
{1}7,
{1}8,
{1}8,
{1}7/8,
{1}6,
{1}5/6,
{1}4,
{1}3/4,
{1}2,
{1}1b/2b,
{2}1,1,
{2}2,2,
{2}3,3,
{2}4,4/5,
{2}5,5,
{2}6,6,
{1}7/8,
{4}8,8,8,,
{4}1,1,1,,
{4}8,8,8,,
{4}7,7,7,,
{4}5/6,5/6,5/6,,
{4}5,5,5,,
{4}4,4,4,,
{4}3,3,3,,
{4}1/2,1/2,1/2,,
{1}1h[2:1]/2h[2:1],
{2}3,4,
{1}5h[2:1]/6h[2:1],
{2}7,8,
{4}8,8,8,,
{4}7,7,7,,
{4}6,6,6,,
{1}4h[2:1]/5h[2:1],
{1}3h[2:1]/4h[2:1],
{2}2,1,
{1}7h[2:1]/8h[2:1],
{2}6,5,
{4}5,5,5,,
{4}6,6,6,,
{4}7,7,7,,
{4}8,8,8,,
{1}7h[2:1]/8h[2:1],
{2}6,5,
{1}3h[2:1]/4h[2:1],
{2}2,1,
{4}1,1,1,,
{4}2,2,2,,
{4}3,3,3/4,,
{4}4,4,4/5,,
{4}6,6,5/6,,
{1}3h[1:1]/6h[1:1],,
{1}4-1[4:3]/5-8[4:3],,
{2}1,1,
{2}8,8,
{1}1-4[4:3]/8-5[4:3],,
{2}5,5,
{2}4,4,
{1}4-1[4:3],,
{1}5-8[4:3],,
{1}1-4[4:3],,
{1}8-5[4:3],,
{1}3h[1:2]/6h[1:2],,,
E
ADVANCED
(160.0){1},,,,,,
{4}3/6,3/6,4-1[2:1]/5-8[2:1],,
{4},,1/8,1^4[4:3]/8^5[4:3],{1},
{4}3,3,3/4,,
{4}6,6,5/6,,
{4}3,3,3/4,,
{4}2,2,1/2,,
{4}7,7,7/8,,
{4}1/8,1/8,2/7,2/7,
{4}3/6,3/6,4/5,,
{2}7h[2:1],8,
{2}6h[2:1],5,
{2}3h[2:1],4,
{2}2h[2:1],1,
{2}3h[2:1],4,
{2}6h[2:1],5,
{2}4h[2:1],5,
{4}3/6,3/6,2/7,,
{4}8,7,6,5,
{4}4,3,1/2,,
{4}1,2,3,4,
{4}5,6,7/8,,
{4}6,5/6,7,7,
{4}3,3/4,2,2,
{2}1h[2:1],8h[2:1],
{4}1,1/8,2b/7b,,
{4}3,4,5/6,,
{4}6,5,3/4,,
{4}3,2,1/8,,
{4}6,7,1/8,,
{4}6,5/6,4/7,,
{4}3,3/4,2/5,,
{1}3^6[2:1],
{4}4/5,3/6,2b/7b,,
{4}1,1,8,8,
{4}7,7,5/6,,
{4}8,8,1,1,
{4}2,2,3/4,,
{4}6,5/6,3,3/4,
{4}5,4/5,2/7,,
{2}8h[2:1],1h[2:1],
{4}8,2b/7b,,,
{1}2V46[2:1],
{4}7,8,1/6,,
{1}7V53[2:1],
{4}2,1,3/8,,
{4}2,1,2,3/8,
{4}7,8,7,1/6,
{4}2,3,4,4-1[4:1]/5-8[4:1],
{2},1/8,
{1}6V48[2:1],
{4}1,2,3,4/5,
{1}3V51[2:1],
{4}8,7,6,4/5,
{4}3,2/4,6,5/7,
{4}8,7,6,5,
{4}3/4,3/4,5/6,5v3[2:1]/6V82[2:1],{1},
{4}3/4,3/4,2,2,
{4}5/6,5/6,7,7,
{4}7/8,7/8,4/5,4/5,
{4}1/2,1/2,4/5,4/5,
{4}3,3,4,4,
{4}5,5,6,6,
{4}7,7/8,1/6,1/6,
{4}2,1/2,3/8,3/8,
{4}1,1/8,2/7,3/6,
{1}4^1[2:1]/5^8[2:1],
{4},,1/8,1pp4[2:3]/8qq5[2:3],{1},,
{4}2,2,3,4,
{4}5,6,7,8,
{4}7,7,6,5,
{4}4,3,2,1,
{4}8,8,1,1,
{4}2/7,3/6,4/5,,
{4}3,3/4,5,4,
{4}6,5/6,7,7,
{4}6,5/6,4,5,
{4}3,3/4,2,2,
{4}3,2/4,1,1,
{4}6,5/7,8,8-4[8:5],{1},
{4}4,5,6,7,
{8}8h[8:7],,,,,,,1bw5[8:7],{1},,
E
EXPERT
(160.0){8}4,4,4,,5,5,5,,
{8}4,4,4,,4/5,,4/5,,
{8}5,5,5,,4,4,4,,
{8}5,5,5,,4/5,,4/5,,
{8}3,4,3,,6,5,6,,
{8}3,4,3,,4/5,,3qq4[2:1],,
{8},,,,,,,6,
{8},6pp5[2:1],,,,,,,
{4}3,3/4,6,5/6,
{4}3,3/4,2/5,1/3,
{4}6,5/6,3,3/4,
{4}6,5/6,4/7,6/8,
{4}3,3/4,2/5,1/3,
{4}6,5/6,4/7,6/8,
{4}2,3/4,7,5/6,
{8}2/7,,1/8,1/8,1b/8b,,,,
{1}6V85[2:1],
{1}3V14[2:1],
{1}7V58[2:1],
{1}2V41[2:1],
{1}5pp2[2:1],
{1}4qq7[2:1],
{1}8V26[2:1],
{1}1V73[2:1],
{4}7h[4:1],6,2h[4:1],3,
{4}6h[4:1],5,3h[4:1],4,
{4}7h[4:1],8,2h[4:1],1,
{4}5h[4:1],4,2h[4:1],3,
{4}7h[4:1],6,3h[4:1],4,
{4}6h[4:1],5,2h[4:1],1,
{4}7h[4:1],8,4h[4:1],5,
{4}1/8,2/7,3b/6b,,
{8}7h[8:3],,,6,6,,4/5,,
{8}2h[8:3],,,3,3,,4/5,,
{8}7h[8:3],,,6,6,,4/5,,
{8}2h[8:3],,,3,3,,4/5,,
{8}7h[8:3],,,8,8,,4/5,,
{8}2h[8:3],,,1,1,,4/5,,
{4}6/7,4/5,2/3,4/5,
{4}1/8,2/7,3/6,7,
{4}6/8,2,1/3,7,
{4}6/8,2,1/3,4/5,
{4}6,5/7,3,2pp5[2:1],
{4},,,7,
{8}4/5,,3,3,4,,2/5,,
{8}3/4,,6,6,5,,4/7,,
{8}5/6,,3,3,4,,2/5,,
{4}4/5,3b/6b,,,
{8}1h[2:1]/6h[2:1],,,,,,,3/8,
{8},3h[8:5]/8h[8:5],,,,,,,
{8}2h[2:1]/5h[2:1],,,,,,,4/7,
{8},4/7,,4/7,4h[4:1]/7h[4:1],,,,
{4}5,7/8,4,1/2,
{4}8,3/4,1,5/6,
{4}3,7/8,6,1/2qq7[2:1],{1},
{8}4/5,,2b/7b,,4/5,4/5,4/5,,
{4}7h[4:1],8,2h[4:1],1,
{1}3V14[2:1]/6V85[2:1],
{4}3h[4:1],4,6h[4:1],5,
{4}4,1/2,5,7/8,
{4}6,1/2,3,7/8,
{2}2v8[4:1],7V53[4:1],
{4}2^7[4:1],,,4/5,
{8}2,2,1,2,7,7,8,7,
{8}3,3,4,3,6,6,5/6,,
{8}7,7,8,7,2,2,1,2,
{8}6,6,5,6,3,3,3/4,,
{4}7h[4:3],8,6,5,
{4}2h[4:3],1,3,4,
{8}6,6,5,,1/7,,1/7,,
{8}3,3,4,,2/8,,2/8,,
{8}6,6,5,,1/7,,1/7,,
{1}2qq7[4:3],
{4},,6,6qq3[4:3],{1},
{4}1,1,8,1/8,
{4}7,5/6,2,3/4,
{4}7,5/6,4/5,3b/6b,
{4}2,3/4,7,5/6,
{4}2,3/4,4/5,3/6,
{4}7,7/8,2,1/2,
{4}7,7/8,2,1/2,
{4}6,4/7,3,2/5,
{4}6,4/7,1/2,4/8,
{4}3,2/5,6,4/7,
{4}3,2/5,7/8,1/5,
{4}7,1/6,2,3/8,
{4}7,1/6,2,3/8,
{1}1b^4[2:1]*^6[2:1],
{4}5,6,7,8,
{8}1h[2:1],,,,8,,,2b/7b,{1},
{8}8bw4[8:11],,,,,{1},,
E
MASTER
(160.0){16}4/5,,3,4,3,,6,5,6,,3,4,3,,6,5,
{16}6,,3,4,3,,6,5,6,,4,5,4,5,4,,
{16}4/5,,3,4,2,,6,5,7,,3,4,2,,6,5,
{16}7,,3,4,2,,6,5,7,,4,5,4,5,4,,
{16}3/6,,2,4,2,,7,5,7,,2,4,2,,7,5,
{16}7,,2,4,2,,7,5,7,,4,5,4,5,4,,
{8}3/6,,3/6,,2/7,2/7,,1-4[4:1]/8-5[4:1],
{2},3b-8[8:1]/6b-1[8:1],
{8}7h[4:1],,8,,2h[4:1],,1,2,
{16},,2,1,2,,7,8,7,,1,8,1,,2,,
{8}4h[4:1],,3,3,5h[4:1],,6,6,
{8},2/7,3/6,4qq2[8:1]/5pp7[8:1],4/5,,,,
{8}1/8,1/8,,3qq1[8:1]/6pp8[8:1],3/6,,,,
{8}2/7,2/7,,4^2[8:1]/5^7[8:1],4/5,,,,
{16}1,,7,,4,5,4,,6,,8,,1,,3,,
{8}4/8,4/8,4/8,3/7,2/6,2/6,2/6V82[4:1],2,
{8},3,,3,3,4,5,2/6,
{8},3/7,,8,8,1,2V46[4:1],2,
{8}8,8,,7,7,6,5,4,
{8}3/7,2/6,,1,1,2,3q4[4:1],3,
{8}6,6,,7,7,8,1,2/6,
{8},3/7,,4,4,3,2p1[4:1],2,
{8}6,6,,5,5,6,7,1/8,
{8}3,4/5,,1/8,2/7,3/6,4/5,4/5,
{8},1,3/6,5,5,4,3,2/5,
{8},1/4,,2,2,3,4,5/7,
{8},2/4,,4,4,5,6,7,
{8}5/8,5/8,,6,6,7,8,8,
{8}3/7,1/5,,3,3,2,1,1,
{8}2/6,4/8,,5,5,4,4,5,
{16}3/6,,3/6,,2/7,,2/7,,1,1,,8,8,,1,,
{4}7<3[4:1],,,1/8,
{8}1b/8b,,2,3,4,5,6p2[4:1],,
{8}2>6[4:1],,8,1,8,,2b/7b,,
{8}2b/7b,,5/8,,3/6,5,1/4,2,
{8}3v1[4:1]/6v8[4:1],,,,,,3b/6b,3b/6b,
{4}3b/6b,1/2,2/3,3/4,
{4}5/6,6/7,7/8,1-5[8:1],
{4}8-4[8:1],2-6[8:1],7-3[8:1],2,
{8}4/5,4/5,4/5,4/5,4/5,,1^6[8:1],2,
{8}3,,8^3[8:1],7,6,,5,5,
{8}3/6-2[8:1],,4,4,6/3-7[8:1],,5,5,
{8},1,2,3,4,5,6,7,
{4}8<4[4:1],4>8[4:1],8,,
{8}5,5,3/7,,5,5,2/8,,
{8}4,4,2/6,,4,4,1/7,,
{8}1/2,1/2,3/8,4/7,5/6,5/6,4/7,3/8,
{8}1-6[8:1]/2-5[8:1],,1b/2b,,,1,8pp3[4:3],7,
{8}6,,,5,5,,4,2/5,
{16},,4,5,4,,4,,3,,4,,5qq2[4:3],,6,,
{8}7,,,8,8,,1,3/8,
{8},8,7^2[4:1],,2^7[4:1],,,,
{8},6,5,4,3,4,5,6,
{8}7,8,1,2,1,8,2/7,,
{8}3,4,5,6,7,8,1,2,
{8}3v1[4:1]/7v5[4:1],,,,,8,1qq6[4:3],2,
{8}3,,,4,4,,5,4/7,
{16},,5,4,5,,5,,6,,5,,4pp7[4:3],,3,,
{8}2,,,1,1,,8,1/6,
{16},,2,1,2,,2,,2/7,,6,5,6,,6,,
{8},4,3,2,1,8,7,6,
{8}5,7,1,3,5,7,1^3[4:1],,
{4}3^5[4:1],5^7[4:1],7^1[4:1],1s5[2:1],{1},
{8}4qq1[2:1]/8qq5[2:1],,,,,,,2/6,
{16},,7,8,7,,7,,1/6,,3,4,3,,3,,
{8}7>3[4:1],,3v5[4:1],,5b,,,8/1h[4:1],
{16},,2,,1,,8,,8,,1,8,1,,7,,
{8},1,2,3,8,7,6,4/5,
{8},6,7,1/8,2,3,4/5,,
{16}3/8,,2,1,2,,4/7,,1b/2b,,8,,1b/2b,,3,,
{16}1/6,,7,8,7,,2/5,,7b/8b,,1,,7b/8b,,6,,
{8}2/6,3/7,4/8,1/5,4/8,3/7,2/6,1/5s1[8:7],
{8}5,5h[8:7],,,,,,,{1},
{16}2b/7b,,,,6,,6,5,6,,3,,3,4,3,,
{16}7,,7,8,7,,2,,2,1,2,,1/8,,,,
{16}3/6,,,,2,,2,1,3,,7,,7,8,6,,
{16}3,,3,4,2,,6,,6,5,7,,1b,,1b,,
{16},,,,4/6,,6,5,6,,3/5,,3,4,3,,
{16}1/7,,7,8,7,,2/8,,2,1,2,,1/8,,,,
{8}7/2-5[8:1],7,6,6,3/7-4[8:1],3,2,2,
{8}1^4[4:1]/5^8[4:1],,,,,1,8pp3[4:3],7,
{8}6,,,5,5,,4,2/5,
{16},,3,4,5,,4,5,6,,8,,1qq6[4:3],,2,,
{8}3,,,4,4,,5,4/7,
{16},,6,5,4,,5,4,3,,1,,8^3[4:1],,7,,
{8}6,,,4qq1[8:9]/5pp8[8:9],{2}4/5,{1},
{8}1h[4:3]/8h[4:3],,,,,,,2/7,
{8},7,6,5,4,3,2,1,
{8}1-4[8:3]/8-5[8:3],,,,,,,3/6<3[8:7],{1},
{2}1w5[4:5],{1},,
E
Re:MASTER
最終更新:2026年10月01日 21:19