アットウィキロゴ

はじめまして地球人さん

アーティスト ピノキオピー

BPM EASY BASIC ADVANCED EXPERT MASTER Re:MASTER
175 2 5 6 10 12+ -

EXPERT MASTER Re:MASTER
譜面制作者 -

EASY


BASIC

(175.0){1},,
{2}1,1,
{1}1/8,
{4}2,2,2,,
{4}3,3,3,,
{4}4,4,4,,
{4}5,5,5,,
{1}6h[2:1],
{1}6h[2:1],
{2}7/8,7/8,
{4}8,8,1b,,
{1}8,
{1}8,
{1}6,
{1}6,
{1}4,
{1}4,
{1}2,
{1}1/2,
{2}2,2,
{2}3,3,
{2}4,4,
{2}5,5,
{2}6,6,
{2}7,7,
{8}8,,8,,8,,,1h[2:1],{1},
{1}8h[2:1],
{1}1h[2:1],
{1}7h[2:1],
{1}2h[2:1],
{4}8,8,8,,
{4}7,7,7,,
{4}6,6,6,,
{4}5,5,5,,
{1}4-1[4:3],,
{4}1,1,2,2,
{4}3,3,4,4,
{4}5,5,6,6,
{1}7h[2:1],
{4}8,8,8,,
{4}1,1,1,,
{2}1/8,1/8,
{4}1,8,1b,,
{4}8,8,7,7,
{4}6,6,5,5,
{4}4,4,3,3,
{1}2h[2:1],
{2}2/8,2/8,
{2}1/7,1/7,
{1}7h[2:1],
{1}7h[2:1],
{2}1/7,1/7,
{2}2/8,2/8,
{1}2h[2:1],
{2}3,3,
{1}4-1[4:3],,
{1}5-8[4:3],,
{4}1,1,1,,
{4}8,8,8,,
{4}2,2,2,,
{4}7,7,7,,
{1}1h[2:1],
{1}1b/8b,
E

ADVANCED

(175.0){1},,
{4}4,5,4,5,
{1}4b/5b,
{4}3,4,3,,
{4}6,5,6,,
{4}3,4,3/4,,
{4}6,5,5/6,,
{4}3,4,2/5,,
{4}6,5,4/7,,
{4}8,7,6,5,
{4}4,3,2,1,
{1}8-5[2:1],
{1}1-4[2:1],
{1}7-4[2:1],
{1}2-5[2:1],
{1}8^5[2:1],
{1}1^4[2:1],
{4}8,7,6,5,
{1}4/5,
{4}4,4,3,3,
{4}2,2,1,1,
{4}8,8,7,7,
{4}6,6,5,5,
{4}4,4,5,5,
{4}4,5,4,5,
{2}3/6,2/7,
{1}1b/8b,
{2}3h[2:1],4,
{2}6h[2:1],5,
{2}2h[2:1],1,
{2}7h[2:1],8,
{4}3h[2:1],,4,5,
{4}6h[2:1],,5,4,
{4}3h[2:1],,1,7,
{4}6h[1:2],,8,2,
{1}3h[1:1],
{2},4b/5b,
{4}3,2,1,8,
{4}7,6,4/5,,
{4}3,4,5,6,
{1}1h[2:1]/8h[2:1],
{1}1-6[2:1]/2-5[2:1],
{1}7-4[2:1]/8-3[2:1],
{4}1/8,2,1/8,7,
{4}1/8,2/7,3/6,4/5,
{4}6,7,8,1,
{4}2,3,4/5,,
{4}6,5,4,3,
{1}1h[2:1]/8h[2:1],
{1}7-4[2:1]/8-3[2:1],
{1}1-6[2:1]/2-5[2:1],
{4}1/8,7,1/8,2,
{4}1/8,2/7,3/6,4/5,
{1}4-1[2:1]/5-8[2:1],
{1}1^4[2:1]/8^5[2:1],
{2},3/4,
{2}5/6,4/5,
{4}3,2,1,8,
{4}7,6,5,4,
{4}6,7,8,1,
{4}2,3,4,5,
{4}3,4,3/4,3/4,
{4}6,5,5/6,5/6,
{4}4/5,4/5,3/6,3/6,
{4}2/7,2/7,1/8,1/8,
{1}1s5[4:7],,,
E

EXPERT

(175.0){2}6h[2:1],3h[2:1],
{1}8-4[4:1],
{4}1/8,2/3,4/5,6/7,
{8}1-4[4:1]/8-5[4:1],1/8,,,,2/7,,,
{4}6h[4:1],5,1/2,3/8,
{4}3h[4:1],4,7/8,1/6,
{4}7h[4:1],8,3/4,2/5,
{4}2h[4:1],1,5/6,4/7,
{8}8,8,1/7,,3/4,,2/5,,
{8}1,1,2/8,,5/6,,4/7,,
{4}1h[4:1],2h[4:1],3h[4:1],4h[4:1],
{4}5h[4:1],6,2/7,,
{2}3h[1:1],4,
{2}6h[1:1],5,
{2}3h[8:7],4h[8:3],
{8},3/4,,3/4,,,,,
{2}7h[1:1],8,
{2}2h[1:1],1,
{2}7h[8:7],8h[8:3],
{8},7/8,,7/8,,,4/5,,
{4}7,5/6,2,3/4,
{4}1,5/6,8,3/4,
{4}6,7/8,3,2/1<5[2:1],
{4},,,4/5,
{4}3/4,2,5/6,7,
{4}3/4,4/5,5/6,4/5,
{8}3/4,,3/4,,7/8,1/6,,5/6,
{8},1/2,1/2,3/8,,,,,
{8}3h[8:3],,,4,4,,2/8,,
{8}6h[8:3],,,5,5,,1/7,,
{8}3h[8:3],,,4,4,,2/8,,
{8}6h[8:3],,,5,5,,1/7,,
{4}2h[4:1],3,7h[4:1],6,
{4}2h[4:1],1,7h[4:1],8,
{4}2h[4:1],3,7h[4:1],6,
{4}2,7,{2}6p3[1:1],{1},
{8},1/8,1/8,1/8,2b/7b,,4/5,,
{4}1-6[8:1]/2-5[8:1],,1/8,3/6,
{4}7-4[8:1]/8-3[8:1],,1/8,3/6,
{4}1-6[8:1]/2-5[8:1],,1/8,4/5,
{2}2b/7b,5/2^5[8:1],
{4}7h[4:1],8,1/6,,
{8}2h[4:1],,1,,3/8,,,6,
{8}5,4/7,,3,4,2/5,,1/8,
{4}1/8,2/7,3/6,4/5,
{4}7^4[8:1]/8^3[8:1],,1/8,3/6,
{4}1^6[8:1]/2^5[8:1],,1/8,3/6,
{4}7^4[8:1]/8^3[8:1],,1/8,4^1[2:1]/5^8[2:1],
{4},,,4/5,
{4}7h[2:1],5,3,5/6,
{4}2h[2:1],4,6,3/4,
{8}5/7,,4/5,,7,7,8,7,
{8}2,2,1,2,,,4/5,,
{4}4/2h[2:1],6,8,3/4,
{4}5/7h[2:1],3,1,4/5,
{2},1h[8:3]/8h[8:3],
{2}2h[8:3]/7h[8:3],1h[8:3]/8h[8:3],
{1}2h[4:3]/7h[2:3],
{4}2,2,2,2/7,
{4}6,5/6,3,3/4,
{4}5/6,3/4,4/5,2b/7b,
{4}6,3/4,3,5/6,
{4}3/4,5/6,4/5,3/6,
{4}7,2,8,1/8,
{4}6/7,4/5,2/3,1h[1:1]/8h[1:1],{1},
{1}2b/6b,
E

MASTER

(175.0){2}1/8,2/7,
{16}3/6,,,,,,4/5,,,,4,5,4,,,,
{4}7/8,5/6,3/4,1/2,
{16}1/8,,1/8,,4,5,4,5,4,,2b/7b,,,,,,
{16}2,,8,,1,,7,,5,6,5,6,5,,4/5,,
{16}7,,1,,8,,2,,4,3,4,3,4,,4/5,,
{16}3,,5,,4,,6,,8,7,8,7,8,,1/8,,
{16}6,,4,,5,,3,,1,2,1,2,1,,1/8,,
{16}3,4,3,4,1,,,,6,5,6,5,8,,,,
{16}2,1,2,1,4,,,,7,8,7,8,5,,,,
{8}1,2,3,4,5,6,7,8,
{8}1/2,1/2,4/5,4/5,7/8,1q5[4:1],1,1,
{8},7p3[4:1],7,7,,2q6[4:1],2,2,
{8},8p4[4:1],8,8,,3p7[4:1],3,7<3[4:1],
{8},3>7[4:1],,7p3[4:1],,3p5[4:1],,5,
{8},7,,7,,8p4[4:1],8,8,
{8},2q6[4:1],2,2,,7p3[4:1],7,7,
{8},1q5[4:1],1,1,,6q2[4:1],6,2>6[4:1],
{8},6<2[4:1],,2q6[4:1],,6q4[4:1],,4,
{8},2,,2,,8b,8b,,
{8}3,4,2/5,4,3,2/5,4,5,
{8}3/6,5,4,3/6,5,6,4/7,4/7,
{8}7,8,1/6,8,7,1/6,8,1,
{8}2/7,1,8,2/7,1,2,3/8,3/8,
{8}4,5,4/6,5,4,3/5,4,5,
{16}4/7,,5,,4,,2/5,,4,5,4,,,,3/4,,
{16}1/2,,,,7/8,,,,4,5,4,,,,4/5,,
{16},,1/8,,2/7,,3/6,,,,3,5,4b,,,,
{8}7<3[4:1],,,2,2,,1/8,,
{8}2>6[4:1],,,7,7,,1/8,,
{8}7<3[8:1],,1,2>6[8:1],,8,,7p4[8:3],
{8},,,8,1,,2/7,,
{8}2,3,4/6,7,8,1,2/4,5,
{8}7,6,3/5,2,1,8,5/7,4,
{16}7,8,7,8,7b,,,,2,1,2,1,2b,,,,
{8}8,7,6,5,4,3,2,1<1[8:5],{1},
{8},1/8,2/7,3/6,4/5,,{641}4b,,,,,,,,,,,,,,,,,,,,{617}5,,,,,,,,,,,,,,,,,,,,,,,,,,,,,,,,,,,,,,,,,,,,,,,,,,,,,,,,,,,,,,,,,,,,,,,,,,,,,,,,,,,,,,,,,,,,,,,,,,,,,,,,,,,,,,,,,,,,,,,,,,,,,,,,,,,,,,,
{16}2-5[8:1],,,2,1,,,,7-4[8:1],,,7,8,,,,
{16}3-8[8:1],,,3,4,,,,6-1[8:1],,,6,5,,,,
{16}2-6[8:1],,,2,1-5[8:1],,,1,8-4[8:1],,,8,7-3[8:1],,,7,
{16}6h[2:1],,,,,,,,7,,,6,,,5,,
{16}4,,,3,5,,,5,3,4,3,4,3,,5,,
{16}6,,,6,4,,,4,6,5,6,5,6,,4,,
{8}3,2/5,,4,6,3/7,,6,
{8}5,4,3,2,1,8,2b/7b,,
{16}7-4[8:1],,,7,8,,,1,2-5[8:1],,,2,1,,,7,
{16}6-1[8:1],,,6,5,,,4,3-8[8:1],,,3,4,,,6,
{16}7-3[8:1],,,7,8-4[8:1],,,8,1-5[8:1],,,1,2-6[8:1],,,2,
{8}3>6[16:3],,,,,,7,8,
{16}6^1[8:1],,,,4,,,,6,,,6,5,,,5,
{8}4h[8:3],,2,3h[8:3],,1,2>6[4:1],,
{8},,,,2h[8:3],1,8,7,
{8}6h[8:3],7,8,1,,,2,1,
{16}3^8[8:1],,,,5,,,,3,,,3,4,,,4,
{8}5h[8:3],,7,6h[8:3],,8,7<3[4:1],,
{2},1h[8:7]/7h[8:3],
{2}3h[8:7],4h[4:13],
{1}5q8[2:3],,
{4}5,5,5,5,
{8}3,7,1,6,4,,2b/7b,,
{12}4,{995}4,,,,,,,,,,,,,,,,,,,,,,,,,,,,,,,,,,,,,,,,,,,,,,,,,,,,,,,,,,,,,,,,,,,,,,,,,,,,,,,,,,,{24}5,,3,,,2/7,,,5,,{995}5,,,,,,,,,,,,,,,,,,,,,,,,,,,,,,,,,,,,,,,,,,,,,,,,,,,,,,,,,,,,,,,,,,,,,,,,,,,,,,,,,,,{24}4,,6,,,2/7,,,
{8}6,5,4,3,2,,1/8,,
{8}3,1,4,6,8,5,4,5,
{8}1,2,3,4,{16}5,6,7,8,{641}1,,,,,,,,,,,,,,,,,,,,{639}2,,,,,,,,,,,,,,,,,,,,3,,,,,,,,,,,,,,,,,,,,{641}4,,,,,,,,,,,,,,,,,,,,5,,,,,,,,,,,,,,,,,,,,{639}6,,,,,,,,,,,,,,,,,,,,7,,,,,,,,,,,,,,,,,,,,{641}8,,,,,,,,,,,,,,,,,,,,{1},
{1}2b/6b,
E

Re:MASTER


名前:
コメント:

タグ:

+ タグ編集
  • タグ:
最終更新:2022年07月09日 21:36