EASY
BASIC
(127.0){1},,,,
{2}1,1,
{2}2,2,
{2}3,3,
{2}4,4,
{2}5,5,
{2}6,5/6,
{2}5,5,
{4}4,5,4,,
{2}4,4,
{2}3,3/4,
{2}4,4,
{4}5,4,5b,,
{4}6,6,6,,
{4}7,7,7/8,,
{4}8,8,8,,
{4}1,8,1,,
{4}2,2,2,,
{4}3,3,3/4,,
{4}4,4,4,,
{4}5,4,5,,
{2}4/5,4/5,
{2}3/6,3/6,
{2}2/7,2/7,
{2}1/8,1b/8b,
{2}2/7,2/7,
{2}3/6,3/6,
{4}4,4,5,5,
{1}4h[2:1]/5h[2:1],
{4}3b,3,2,2,
{4}1,8,1,,
{4}8,8,7,7,
{1}5h[2:1]/6h[2:1],
{4}6,6,7,7,
{4}8,1,8,,
{4}1,1,2,2,
{1}3h[2:1]/4h[2:1],
{1}5-8[4:3],,
{1}4-1[4:3],,
{1}8-4[4:3],,
{1}1-5[4:3],,
{4}6b,6,7,7,
{4}1/8,1/8,2/7,,
{4}2,2,3,3,
{1}4h[2:1]/5h[2:1],
{4}3,3,2,2,
{4}1/8,1/8,2/7,,
{4}7,7,6,6,
{1}4h[2:1]/5h[2:1],
{4}3/4,3/4,5/6,5/6,
{4}7,8,7b,,
{4}1,1,2,2,
{1}3h[2:1]/4h[2:1],
{4}5/6,5/6,3/4,3/4,
{4}2,1,2b,,
{4}8,8,7,7,
{1}5h[2:1]/6h[2:1],
{1}4-1[4:3],,
{1}5-8[4:3],,
E
ADVANCED
(127.0){1}1>8[8:11],,
{1}8<1[8:11],,
{4}7,7,8,8,
{4}1,1,1/2,,
{4}2,2,1,1,
{4}8,8,7/8,,
{4}6h[2:1],5,5,,
{4}3h[2:1],4,4,,
{4}6h[4:1],5,3h[4:1],4,
{4}6,5/6,4/7,,
{4}3h[2:1],4,4,,
{4}6h[2:1],5,5,,
{4}3h[4:1],4,6h[4:1],5,
{4}4,3,2,1/2,
{4}7h[4:1],8,7/8,,
{4}2h[4:1],1,1/2,,
{4}7h[4:1],8,2h[4:1],1,
{4}7h[4:1],8,1/6,,
{4}2h[4:1],1,1/2,,
{4}7h[4:1],8,7/8,,
{4}2h[4:1],1,7h[4:1],8,
{4}2h[4:1],1,3/8,,
{4}7/8-3[4:1],,,3/4,
{4}2/1-6[4:1],,,4/7,
{4}8/7-4[4:1],,,3/4,
{4}1/2-5[4:1],,,4/7,
{4}6/5-2[4:1],,,1/2,
{4}3/4-7[4:1],,,1/6,
{4}6,5/7,3,2/4,
{4}4h[2:1]/5h[2:1],,,3/6,
{4}4b/3h[4:1],5,4/3h[4:1],5,
{4}4/3h[4:1],5,5/6,,
{4}6,5/7,3,2/4^7[8:3],
{4},,,1/8,
{4}8/7h[4:1],1,8/7h[4:1],1,
{4}8/7h[4:1],1,1/2,,
{4}2,1/3,7,6/8,
{1}1-4[8:3]/8-5[8:3],
{2}6h[2:1],5,
{2}3h[2:1],4,
{2}5h[2:1],4,
{1}4h[2:1],
{4}4,4,3,3,
{4}2,2,1,1,
{4}1/8,1/8,2/7,2/7,
{1}3h[16:7]/6h[16:7],
{4}5b/6h[4:1],3,5/6h[4:1],3,
{4}5/6h[4:1],3,3/4,,
{4}3,2/4,6,5/7-3[8:3],
{4},,,4/5,
{4}4/3h[4:1],6,4/3h[4:1],6,
{4}4/3h[4:1],6,5/6,,
{4}6,5/7,3,2/4,
{1}4-1[8:3]/5-8[8:3],
{4}1b/2h[4:1],7,1/2h[4:1],7,
{4}1/2h[4:1],7,6/8,,
{4}6,7/8,3,1-6[8:3]/2-5[8:3],
{4},,,5/6,
{4}8/7h[4:1],2,8/7h[4:1],2,
{4}8/7h[4:1],2,1/3,,
{4}3h[4:1],1,6h[4:1],8,
{1}1^4[16:7]/8^5[16:7],
{1}4qq1[4:5]/5pp8[4:5],,
{8}1/8,,2/7,,3/6,,4/5,4/5,
E
EXPERT
(127.0){1}4h[2:1]/5qq3[4:1],
{1}5h[2:1]/4pp6[4:1],
{1}4h[2:1]/5q2[4:1],
{1}5h[2:1]/4p7[4:1],
{4}3,2/4,6,5/7,
{4}4,1/2,5,7/8,
{4}6,5/7,3,2/4,
{4}6/3>6[4:1],,,2/7,
{4}5h[4:1],6,7,3/4,
{4}4h[4:1],3,2,5/6,
{4}6h[4:1],7,8,1/2,
{4}5/6h[4:1],2,5/6h[4:1],2,
{4}4h[4:1],3,2,5/6,
{4}5h[4:1],6,7,3/4,
{4}3h[4:1],2,1,7/8,
{4}4/3h[4:1],7,4/3h[4:1],7,
{4}5h[4:1],7h[4:1],8,3/4,
{4}4h[4:1],2h[4:1],1,5/6,
{4}4/5h[4:1],7h[4:1],1,3/4,
{4}6/5h[4:1],1,6/5h[4:1],1,
{4}4h[4:1],2h[4:1],1,5/6,
{4}5h[4:1],7h[4:1],8,3/4,
{4}5/4h[4:1],2h[4:1],8,5/6,
{4}3/4,2/4^7[4:1],,,
{4}6h[2:1]/4^1[4:1],,,1/6,
{4}3h[2:1]/5^8[4:1],,,1/8,
{4}6h[2:1]/3^8[4:1],,,6/8,
{4}1/2,3/4,5/6,7/8,
{4}7h[2:1]/1^4[4:1],,,4/7,
{4}2h[2:1]/8^5[4:1],,,2/5,
{8}1,1,1,8,8,8,2/7,,
{4}2-6[4:1]/8-4[4:1],,,2b/7b,
{2}7-4[8:1]/8-4[8:1],7-4[8:1]/8-4[8:1],
{8}6/3>6[4:1],,,,,8,2/8,,
{8}6,6,5/7,,3,3,2/4,,
{8}2/7<2[4:1],,,,,1/8,1/8,,
{2}1-5[8:1]/2-5[8:1],1-5[8:1]/2-5[8:1],
{8}3/6<3[4:1],,,,,1,1/7,,
{8}3,3,2/4,,6,6,5/7,,
{1}7/2>7[4:1],
{4}5/4h[4:3],3,2,1,
{4}4/5h[4:3],6,7,8,
{4}4/3h[4:3],2,1,8,
{4}5/6h[4:3],7,8,1,
{4}3,5/6,7,3/4,
{4}2,4/6,7,3/5,
{4}1,4/6,8,3/5,
{4}2^5[4:1]/6^1[4:1],,,2b/7b,
{2}1-6[8:1]/2-6[8:1],1-6[8:1]/2-6[8:1],
{8}5/2<5[4:1],,,,,7,3/7,,
{8}7,7,6/8,,2,2,1/3,,
{8}7V53[4:1]*V13[4:1],,,,,2/5,2/5,,
{2}7-3[8:1]/8-3[8:1],7-3[8:1]/8-3[8:1],
{8}4/7>4[4:1],,,,,2,2/6,,
{8}2,2,1/3,,7,7,6/8,,
{8}2V86[4:1]*V46[4:1],,,,,4/7,4/7,,
{2}7-4[8:1]/8-3[8:1],7-4[8:1]/8-3[8:1],
{8}2/5<2[4:1],,,,,4,4/6,,
{8}3,3,4,3,6,6,5,6,
{8}3V17[4:1]*V57[4:1],,,,,1/6,1/6,,
{2}1-6[8:1]/2-5[8:1],1-6[8:1]/2-5[8:1],
{8}7/4>7[4:1],,,,,5,3/5,,
{8}6,6,4,4,5,5,3/6,,
{1}2pp5[2:1]/8qq5[2:1],
{4}4/3h[4:1],2,5/6h[4:1],7,
{4}4/3h[4:1],1,5/6h[4:1],8,
{4}3/6,1/8,{8}2-5[8:1]/7-4[8:1],,,,
E
MASTER
(127.0){1},,,,
{8}5/6,5h[8:1]/6h[8:13],,5h[8:1],,4h[8:1],,4h[8:1],
{8},3h[8:1],,4h[8:1],,5h[8:1],,4/5,
{8}3/4,3h[8:13]/4h[8:1],,4h[8:1],,5h[8:1],,5h[8:1],
{8},6h[8:1],,5h[8:1],,4h[8:1],,4/5,
{8}7h[4:1]/2^5[8:1],1,,,6,5,3/4,,
{8}7h[4:1]/2q6[8:1],1,,,6,5,3/4,,
{8}7h[4:1]/2^5[8:1],1,,,7,6,5,6,
{8}4/7,3,2/5,6,4/7,3,2/5,6,
{8}2h[4:1]/7^4[8:1],8,,,3,4,5/6,,
{8}2h[4:1]/7p3[8:1],8,,,3,4,5/6,,
{8}2h[4:1]/7^4[8:1],8,,,1,8,7,6,
{8}2/5,3,4/7,6,1/5,2,4/8,7,
{8}3h[4:1]/6^1[8:1],5,,,2,1,7/8,,
{8}3h[4:1]/6q2[8:1],5,,,2,1,7/8,,
{8}3h[4:1]/6^1[8:1],5,,,3,2,1,2,
{8}3/8,7,1/6,2,3/8,7,1/6,2,
{8}6h[4:1]/3^8[8:1],4,,,7,8,1/2,,
{8}6h[4:1]/3p7[8:1],4,,,7,8,1/2,,
{8}6h[4:1]/3^8[8:1],4,,,5,4,3,2,
{8}1^4[8:1]/6^1[8:1],,,,,2/7,,,
{16}8/6h[4:1],,,,3,,3,4,,4,5,,5/7,,,,
{16}1/3h[4:1],,,,6,,6,5,,5,4,,2/4,,,,
{16}8/6h[4:1],,,,3,,3,4,,4,5,,5/7,,6,,
{8}2/5,3,4/7,6,2/5,,3b/6b,,
{16}4/2h[4:1],,,,7,,7,8,,8,1,,1/3,,,,
{16}5/7h[4:1],,,,2,,2,1,,1,8,,6/8,,1,,
{8}1/2,3/8,4/7,5/6,7/8,1/6,2/5,3/4,
{8}2b/7b,,,,,1/6,2/7,3/8,
{8}7/2^5[8:1],1/6,7,,7/2^5[8:1],1/6,7,8,
{16}1/2,,3/8,,4,5,,5/6h[16:3],,,5,,5/6,,4/7,,
{8}3^6[8:1],3,8<4[8:1],8,3^6[8:1],3,8,8qq3[4:1],
{8}8,,,,,3/8,2/7,1/6,
{8}2/7^4[8:1],3/8,2,,2/7^4[8:1],3/8,2,1,
{16}7/8,,1/6,,5,4,,4/3h[16:3],,,4,,3/4,,2/5,,
{8}6^3[8:1],6,1>5[8:1],1,6^3[8:1],6,1,1pp6[4:1],
{16}1,,,,,,,,5,5,4,4,,,,,
{16}2/7,,,,1,,{24}1,2,3,{16}4/5,5,,6,,6,5,6,
{16},3,4,3,,7,5,6,4,5,3,3,,6,6,,
{16}4/5,,3,3,,6,5,7,,3,4,2,2,,{24}8,7,6,
{16}4/5,,3,4,,4/5,,3/6,,2/7,,2,4,3,5,4,
{16}6h[8:1],,5,5,6h[8:1],,4,,3/7h[8:1],,4,4,7h[8:1],,3,,
{16}2/8h[8:1],,3,3,8h[8:1],,2,,1/7h[8:1],,4,6,3,5,2,4,
{16}3h[8:1],,4,4,3h[8:1],,5,,6/2h[8:1],,5,5,2h[8:1],,6,,
{16}7/3h[8:1],,6,6,3,,4/5,4h[16:5]/5h[16:5],,,,,,,,,
{8}7b/2b^5[8:1],1/6,2/7,8,7/2^5[8:1],1/6,2/7,8,
{16}2/7,,1/6,,5,4,,4/3h[16:3],,,2,,1/4,,5/8,,
{8}7<3[8:1],7,1>5[8:1],1,7<3[8:1],7,1,1pp6[4:1],
{8}1,,,,,3/4,2/5,1/6,
{8}2/7^4[8:1],3/8,2/7,1,2/7^4[8:1],3/8,2/7,1,
{16}2/7,,3/8,,4,5,,5/6h[16:3],,,7,,5/8,,1/4,,
{8}2>6[8:1],2,8<4[8:1],8,2>6[8:1],2,8,8qq3[4:1],
{8}8,,,,,1/2,3/8,4/7,
{8}3/6^1[8:1],2/5,3/6,4,3/6^1[8:1],2/5,3/6,4,
{16}3/6,,2/5,,1,8,,8/7h[16:3],,,6,,5/8,,1/4,,
{8}3>7[8:1],3,5<1[8:1],5,3>7[8:1],3,5,5pp2[4:1],
{8}5,,,,,7/8,1/6,2/5,
{8}6/3^8[8:1],4/7,3/6,5,6/3^8[8:1],4/7,3/6,5,
{16}3/6,,4/7,,8,1,,1/2h[16:3],,,3,,3/5,,4/6,,
{8}2/5,4/7,2/5,4/7,1/6,3/8,1/6,3/8,
{4}2b/7b,,,3/6,
{16}4/5,,3,4,,6,5,,3,4,3,3,,7,7,,
{16}2/5,,3,3,,4/7,,3/6,,2,4,3,5,4,6,5,
{16}7,,6,6,,2/5,,3/6,,7,5,6,4,5,3,4,
E
Re:MASTER
最終更新:2026年10月01日 21:22