EASY
BASIC
ADVANCED
EXPERT
MASTER
(138){1}
6h[4:3],
2h[4:3],
5h[4:3],
1h[4:3],
{4}
6h[4:3]/2,2,2,2,
6h[4:3]/2,3,1,3,
2-5[8:1],,7-4[8:1],,
2,4,2,4,
8-3[8:1],2-6[8:1],,5,
1-6[8:1],7-3[8:1],,4,
34,34,68,68,
26,26,78,78,
37,26,{8}45,34,{4}45,
3-8[8:1]/7-4[8:1],,3-6[8:1]/7-2[8:1],,
3h[4:1],4h[4:1],5h[4:1],6h[1:1],
,1,8,7,
6b,1,23,27,
1,78,67,36,
12,56,78,34,
3-8[8:1],3,3-6[8:1],3,
5,46,78,12,
4,35,12,78,
12,56,78,34,
6-1[8:1],6,6-3[8:1],6,
5h[4:1]/4,4,6h[4:1]/3,3,
2h[4:1]/7,7,8h[4:1]/1,1,
7-2[8:1]/6,,2/3-6[8:1],,
2h[4:1]/7h[4:1],,3h[4:1]/6h[4:1],,
7^4[8:1],,3^8[8:1],,
7h[4:1],8h[4:1],1h[4:1],,
8h[4:1]/1,1,2h[4:1]/7,7,
6h[4:1]/3,3,4h[4:1]/5,5,
24,14,7^2[8:1]/4,4,
57,58,2^7[8:1]/5,5,
78,27,34,36,
8-5[8:1],,1-4[8:1],,
67,57,47,37,
{16}12,,,18,,,28,,{4},1,
5h[4:1]/1,2,4h[4:1]/8,7,
6,7-2[4:1],8,1,
{16}78,,,23,,,6-2[8:1],,{4},3,
{16}12,,,67,,,3-7[8:1],,{4},6,
{16}12,,,17,,,4-1[8:1],,{4},8,
{16}78,,,28,,,5-8[8:1],,{4},1,
56,34,46,35,
7,2,8,1,
{16}8,,,1,,,2h[2:1],,1,,,8,,,7,,
{4}6h[1:1],8,1,8,
1,,,7b/8b,
8^3[8:1]/6,4,7,78,
4^7[8:1]/2,8,3,12,
68,68,13,13,
23,45,67,37,
3-6[4:1]/2,3,4,78,
6-3[4:1]/7,5,4,12,
3^8[4:3]/7^4[4:3],,,,
,16,28,35,
{1}6b,
,
E
Re:MASTER
(138)
{1}7h[4:7]/8V62[2:1],2V48[2:1],2h[4:7]/1V37[2:1],7V51[2:1],
{2}5h[4:1]/6-4[8:1],4h[4:1]/3-5[8:1],6h[4:1]/5-7[8:1],3h[4:1]/4-2[8:1],
7h[4:1]/6-8[8:1],2h[4:1]/3-1[8:1],{4}45,1-6[8:1]/2-5[8:1],12,2b/7b,
1s5[4:1],5s1[4:1],6h[4:1],,8z4[4:1],4z8[4:1],3h[4:1],,
5q1[8:1]/6,8,4p8[8:1]/3,1,3qq3[8:3]/6qq6[8:3],,,78,
2v8[8:1],7V53[8:1],2^7[8:1],,6v4[8:1],3V17[8:1],6^3[8:1],,
{2}1^4[8:1]*^6[8:1],8^5[8:1]*^3[8:1],{4}2^7[8:1]/5h[1:1],2-6[8:1],2-4[8:1],2<3[8:3],
{4}2,,27,45,{16}6,5,,47,,2,1,,{4}4/7^2[8:1],5,
{16}3,4,,52,,7,8,,{4}5/2^7[8:1],4-8[8:1],3-1[8:1],5-7[8:1],4-8[8:1],,
{16}7,8,,16,,3,4,,{4}1/6^3[8:1],8,{16}2,1,,83,,6,5,,{4}8/3^6[8:1],1,
{16}7,8,,16,,3,4,,{4}1/6^3[8:1],2-8[8:1],4-6[8:1],3-7[8:1],4-8[8:1],,
{1}5<4[2:1]/6h[4:3],4>5[2:1]/3h[4:3],5pp5[2:1]*qq5[2:1]/6,{4}4q4[4:1],4<4[8:3],,,
{2}5qq3[8:1]*pp7[8:1],4pp6[8:1]*qq2[8:1],{1}4>5[2:1]/3h[4:3],
{2}1-5[8:1]/8-6[8:1],8-4[8:1]/1-3[8:1],2-7[8:1]/6-3[8:1],{4}18,45,
4>7[2:1]/6,6,5,5,7>4[2:1]/5,5,6,6,
5<2[2:1]/3,3,4,4,2<5[2:1]/4,4,3,3,
8-3[8:1],1,1-6[8:1],8,
{16}5h[8:1]/7h[8:1],,,4h[8:1]/2h[8:1],,,{4}3-1[8:1]/8-6[8:1],38,{8}2q6[8:1],
2h[4:1],,,7p3[8:1],7h[4:1],,,1-5[4:1],{4}1h[4:1],,3b/6b,45,
{4}3/8pp3[8:3]*pp5[8:3],,,78,6/1qq6[8:3]*qq4[8:3],,,21,
{1}4q6[2:1]/6<5[2:1],5p3[2:1]/3>4[2:1],
{2}4v2[8:1]/7V53[8:1],5v7[8:1]/2V46[8:1],5v3[8:1]/8V64[8:1],4v6[8:1]/1V35[8:1],
{16}8h[16:3],,,6h[16:3],,,5,,1h[16:3],,,3h[16:3],,,4,,
{1}4>5[2:1],{4}54,8-3[8:1]/7-4[8:1],87,7b/2b,
8V64[4:1],4V62[4:1],1h[4:1],,1V35[4:1],5V37[4:1],8h[4:1],,
{8}4p8[8:1]/3,2,1,,5q1[8:1]/6,7,8,,{4}6pp6[8:3]/3pp3[8:3],,,21,
7v1[8:1],2V46[8:1],7^2[8:1],,3v5[8:1],6V82[8:1],3^6[8:1],,
{2}8^5[8:1]*^3[8:1],1^4[8:1]*^6[8:1],{4}7^2[8:1]/4h[1:1],7-3[8:1],7-5[8:1],7>6[4:3],
{1}7,,,,E
- Re:MASTER譜面を追加しました。修正等ありましたらよろしくお願いします。 -- けもがみ (2026-03-22 14:57:55)
最終更新:2026年10月03日 08:13