アットウィキロゴ

クノイチでも恋がしたい

アーティスト みきとP

BPM EASY BASIC ADVANCED EXPERT MASTER Re:MASTER
185 2 6 8+ 11 13 -

EXPERT MASTER Re:MASTER
譜面制作者 如月 ゆかり しろいろ -

EASY


BASIC

(185.0){1},,,,
{1}4h[2:1]/5h[2:1],
{1}4h[2:1]/5h[2:1],
{1}3h[2:1]/6h[2:1],
{4}4,5,4,,
{4}5,5,5,,
{4}6,6,6,,
{1}7-3[4:3],,
{4}4,4,4,,
{4}3,3,3,,
{1}2-6[4:3],,
{1}4b/5b,
{2}4,4,
{2}3,3,
{2}2,2,
{4}1,1,1,,
{2}8,8,
{2}7,7,
{2}6,6,
{4}5,5,5,,
{4}5,5,5,,
{4}6,6,6,,
{4}7,7,7,,
{4}8,1,8,,
{4}1,1,1,,
{4}2,2,2,,
{4}3,3,3,,
{1}4h[2:1]/5h[2:1],
{2},3h[2:1],
{2},3h[2:1]/4h[2:1],
{2},6h[2:1],
{2},5h[2:1]/6h[2:1],
{2},7h[2:1],
{2},7h[2:1]/8h[2:1],
{2},1/2,
{4}1/2,,8,8,
{4}1,1,{2}8-4[4:3],{1},
{4},,1,1,
{4}1,1,2,2,
{2}2,3/4,
{4}3/4,,3,4,
{4}3,,5,5,
{4}5,5,6,6,
{2}6,7/8,
{4}7/8,,7,8,
{4}7b,,8,8,
{4}8,8,7,7,
{2}7,5/6,
{4}5/6,,6,5,
{4}6,,4,4,
{4}4,4,3,3,
{2}3,1/2,
{4}1/2,,2,1,
{1}2b,
{2},1-5[4:3],{1},
{2},8-4[4:3],{1},
{2},2-5[4:3],{1},
{2},7-4[4:3],{1},
{2},4/5,
{4}4/5,,4/5,4/5,
{4}3/6,,4,4,
{4}4,4,5,5,
{2}5,5/6,
{4}5/6,,3/4,3/4,
{4}3/4,,5,5,
{4}4,4,4/5,4/5,
{4}3/6,,3,3,
{4}2,2,1,8,
{4}1,,8,8,
{4}7,7,6,5,
{4}6,,6,6,
{4}7,7,8,1,
{4}8,,1,1,
{4}2,2,3/4,3/4,
{4}3b/4b,,5/6,5/6,
{4}5b/6b,,3/4,3/4,
{2}3b/4b,5/6,
{4}3/4,,4/5,4/5,
{1}4-1[4:3]/5-8[4:3],
{4},,1,1,
{4}1,,2,2,
{2}2,3h[1:1]/4h[1:1],{1},
{4},,5,5,
{4}5,,6,6,
{2}6,7h[1:1]/8h[1:1],{1},
{2},1/2,
{2}7/8,1-4[4:3],{1},
{1}5,
E

ADVANCED

(185.0){1},,,,
{1}6^3[4:5],,
{1}3-7[8:5],,
{4}7,7,7/8,,
{4}2,2,1/2,,
{4}6,6,{2}6q1[1:1],{1},
{4}3,3,3/4,,
{4}6,6,5/6,,
{4}2,2,{2}2q5[1:1],{1},,
{4}2,2,3,3,
{4}4,4,5/6,,
{4}7,7,6,6,
{4}5,5,3/4,,
{4}7,7,7/8,,
{4}2,2,1/2,,
{4}1,8,2/7,,
{4}4,5,3/6,,
{4}7,7,6,6,
{4}5,5,3/4,,
{4}2,2,3,3,
{4}4,4,5/6,,
{4}2,2,1/2,,
{4}7,7,7/8,,
{4}5,4,3/6,,
{4}8,1,2/7,,
{2},3h[2:1],
{2}4,6h[2:1],
{2}5,2h[2:1],
{2}3,7h[2:1],
{2}6,2h[2:1],
{2}1,7h[2:1],
{4}8,,1,1,
{4}2b/8b,,8,8,
{2}1b/7b,8b>5[4:5],{1},
{4},,5,5,
{4}6,6,5/6,5/6,
{4}4/7,,4,4,
{4}3,3,3/4,2/5,
{4}1/6,,8,8,
{4}7,7,7/8,7/8,
{4}1/6,,1,1,
{4}2,2,1/2,3/8,
{4}4/7,,4,4,
{4}3,3,3/4,3/4,
{4}2/5,,5,5,
{4}6,6,5/6,4/7,
{4}3/8,,1,1,
{4}2,2,1/2,1/2,
{4}3/8,,8,8,
{4}7,7,7/8,1/6,
{1}7z3[4:3],
{2},3h[2:1],
{2}4,6h[2:1],
{4}5,,4/5,3/6,
{4}2/7,1/8,1,8,
{2}2/7,2h[2:1],
{2}1,7h[2:1],
{4}8,,1/8,2/7,
{4}3/6,4/5,4,5,
{4}3/6,,3,4,
{4}5,6,5,4,
{4}3/6,2,1,8,
{4}7,8,1/7,2/6,
{4}3/5,,6,5,
{4}4,3,4,5,
{4}3/6,7,8,1,
{4}2,1,2/8,3/7,
{4}4/6,,3,3,
{4}4,4,3/5,2/6,
{4}1/7,8,8,1,
{4}1,1,2/8,3/7,
{4}4/6,5,4,3/4,
{4}5,5/6,4/7,3/8,
{2}1/2,2-6[2:1],
{2},7-3[2:1],
{2},1-6[2:1],
{2},8-3[2:1],
{2},1-6[2:1]/2-5[2:1],
{4},,8,7,
{1}7qq4[1:1]/8pp3[1:1],
{4},,3,2,
{4}1,7/8,7,8,
{4}1/2,,2,3,
{4}4,5/6,6,5,
{4}3/4,,6,7,
{4}8,1/2,2,1,
{4}7/8,,7,6,
{4}5,3/4,3,4,
{4}5/6,4,3/5,2/6,
{4}1/7,8s4[1:1],,,{1},
{1}2b/7b,
E

EXPERT

(185.0){2}4,3,
{4}1/2,1/2,3/8,,
{2}5,6,
{4}7/8,7/8,1/6,,
{4}4,4,5,5,
{4}3,3,6,6,
{4}2,2,7,7,
{4}1/8,2/7,3/6,,
{8}3/4,,3/4,,2,1,2,,
{8}5/6,,5/6,,7,8,7,,
{8}3/6,,3/6,,1,8,1,,
{4}4/5,3/6,2/7,1/8,
{8}1/2,,1/2,,7,8,7,,
{8}5/6,,5/6,,3,4,3,,
{8}2/7,,2/7,,5,4,5,,
{4}1/8,2/7,3/6,4b/5b,{1},
{8}6,5,6,,3,4,3,,
{4}1h[4:1]/8h[4:1],,2/8,1/7,
{8}7,8,7,,2,1,2,,
{4}4h[4:1]/5h[4:1],,4/6,3/5,
{8}4,5,3,,5,4,6,,
{4}2h[4:1]/7h[4:1],,1/8,3/6,
{8}1,8,2,,8,1,7,,
{4}3h[4:1]/6h[4:1],,7/8,1/2,
{4}3h[4:1],4,6h[4:1],5,
{4}2h[4:1],3,7h[4:1],6,
{4}1/2,1-6[16:3]/2-5[16:3],,,
{4}7/8,7-4[16:3]/8-3[16:3],,,
{4}2h[4:1],1,7h[4:1],8,
{4}3h[4:1],2,6h[4:1],7,
{4}1/2,1-5[16:3]/2-6[16:3],,,
{4}7/8,7-3[16:3]/8-4[16:3],,,
{4}2b/7b,,3/4,5/6,
{8}3/4,,5/6,,2,1,2,1,
{4}2,,5/6,3/4,
{8}5/6,,3/4,,7,8,7,8,
{4}7,,3/4,2/5,
{8}5/6,,4/7,,8,1,8,1,
{8}8,,5/6,,3/4,,,2/7,
{8}2/7,,,1/8,1/8,,2/7,,
{4}3/6,4/5,4bqq1[2:1]/5bpp8[2:1],,
{4},,2h[4:1],4,
{4}7h[4:1],5,1/2,3/4,
{4}7/8,5/6,1/2,3/8,
{4}4/7,,1/2,3/4,
{8}6,5,6,,7/8,,5/6,,
{8}3,4,3,,7/8,,5/6,,
{4}1/2,3/4,7/8,1/6,
{4}2/5,,3/4,7/8,
{8}6,5,6,,4/7,,3/8,,
{4}1/2,1b/2b,3/8,1/6,
{4}4/7,2/5,7/8,1/6,
{8}2/5,,3,4,3,,7,8,
{4}7,5/6,1/2,3/4,
{4}7/8,5/6,4/7,2/5,
{4}3/8,1/6,7/8,1/6,
{8}2/5,,3,4,3,,6,5,
{4}6,1/8,2/7,3/6,
{1}4bqq4[2:1]/5bpp5[2:1],
{4},3/6,4h[4:1],5h[4:1],
{4}6h[4:1],7h[4:1],8,1,
{4}2,3,5h[4:1],4h[4:1],
{4}3h[4:1],2h[4:1],1,8,
{8}7,,6,,4b/5b,,2,2,
{8},,3/8,,4/5,,7,7,
{8},,1/6,,4/5,,2,1,
{8},1/2,1/2,,4/5,,7,8,
{8},7/8,7/8,,1/2,2,2,,
{8}7/8,7,7,,1/2,,4/5,,
{2}7/8,1-6[16:3]/2-5[16:3],
{4}7-4[16:3]/8-3[16:3],,1/2,3/4,
{8}7/8,,5/6,,7/8,7,7,,
{8}1/2,2,2,,7/8,,4/5,,
{2}1/2,7-4[16:3]/8-3[16:3],
{4}1-6[16:3]/2-5[16:3],,7/8,1/2,
{8}5/6,,3/4,,6,5,6,5,
{8}6,5,6,,1/2,,4/5,,
{4}7/8,7/8,1-5[8:1]/2-4[8:1],,
{4}7-5[8:1]/8-4[8:1],,3/8,1/6,
{8}4/7,,2/5,,3,4,3,4,
{8}3,4,3,,7/8,,4/5,,
{4}1/2,1/2,7-5[8:1]/8-4[8:1],,
{4}1-5[8:1]/2-4[8:1],,7/8,1/6,
{4}2b/5b,3/4,1/2,3/8,
{4}4b/7b,5/6,3/4,1/8,
{8}2b/7b,,6,5,6,,3,4,
{4}3,1/8,2/7,3/6,
{1}4b-1[2:1]/5b-8[2:1],
{4},1b/8b,4/5,3/6,
{8}2,1,2,,8h[4:1],,6,,
{4}1h[4:1],3,5h[4:3],3,
{4}1,7,1/2,1^6[16:3]/2^5[16:3],
{4},,4/5,3/6,
{8}7,8,7,,1h[4:1],,3,,
{4}8h[4:1],6,4h[4:3],6,
{4}8,2,7/8,7^4[8:1]/8^3[8:1],
{8},,,,5,4,5,4,
{8}6,3,6,3,,1/8,1/8,,
{4}2/7,3/6,4/5,,
{1}2b/7b,
E

MASTER

(185.0){8}5/6,,4/7,,3,4,3,,
{8}3/4,,2/5,,6,5,6,,
{4}5/6,5/7,3/4,2/4,
{4}5/7,2/4,3/6,,
{4}4/3h[4:1],2,5/6h[4:1],7,
{4}1/2h[4:1],3,8/7h[4:1],6,
{8}4/3h[4:1],,8,,5/6h[4:1],,1,1/6,
{8},1,8,1,3b/6b,,,,
{4}1-5[8:1],8-4[8:1],2^5[8:1],7^4[8:1],
{4}1,1-4[8:1]/8-5[8:1],1/8,,
{2}7^4[8:1]/8p3[8:1],1q6[8:1]/2^5[8:1],
{8}7,7,1,1,4,4,2/6,,
{4}8-4[8:1],1-5[8:1],7^4[8:1],2^5[8:1],
{4}8,1-4[8:1]/8-5[8:1],1/8,,
{2}1q6[8:1]/2^5[8:1],7^4[8:1]/8p3[8:1],
{8}2,2,8,8,5,5,{4}3b/7b<8[4:3],{1},
{8}3,4,2/5,,7,8,1/6,,
{8}1,2,3,4,6/5-1[8:1],,8,,
{8}6,5,4/7,,2,1,3/8,,
{8}8,7,6,5,3/4-8[8:1],,1,,
{8}3,4,3/5,,7,8,1/7,,
{8}3,4,2,1,7/8-4[8:1],,5,,
{8}6,5,4/6,,2,1,2/8,,
{8}6,5,7,8,2/1-5[8:1],,4,,
{8}2,1,2,1,4,5,4,5,
{8}8,7,1/6,,7-4[8:1]/8-3[8:1],,,,
{8}7,8,7,8,5,4,5,4,
{4}1-6[8:1]/2-5[8:1],1/2,7-4[8:1]/8-3[8:1],7/8,
{8}2,1,3,8,5,6,4,7,
{4}3/4,5/6,4-1[8:1]/5-8[8:1],,
{8}2/7,,1/3,1/3,,6/8,,2/4>5[8:5],
{4},,4,4-8[8:1],
{4},,1/2,3/8,
{8}8/1h[8:3],,3,3,,2q7[4:1]/3^6[4:1],2/3,,
{8},,7,8,7/8,,1/6,,
{8}1/8h[8:3],,6,6,,6^3[4:1]/7p2[4:1],6/7,,
{4},,5/6,3/4,
{8}7/1h[8:3],,3,3,,2^7[4:1]/3^6[4:1],2/3,,
{8},,7-4[8:1]/8-3[8:1],,,,,1-6[8:1]/2-5[8:1],
{8}1/2,,,2,2-5[8:1],,6-1[8:1],,
{4}3-7[8:1],8<1[4:3],1b,,
{4},,3,2,
{16}1,,,,1b/2b,,,,2/5,,3,4,3,,6,,
{16}4/7,,6,5,6,,3,,1-6[8:1],,1,,7-4[8:1],,7,,
{8}2,,2^5[8:1],1,2,,7^4[8:1],8,
{8}7,,2,7,1-6[8:1],,1/7-4[8:1],,
{16}7/2-5[8:1],,,,6,,6,,4/7,,6,5,6,,3,,
{16}2/5,,3,4,3,,6,,1-6[8:1],,1,,7-4[8:1],,7,,
{8}2,,2,1,3/8,,7,8,
{16}1/6,,,,4,5,4,,2-5[8:1]/7-4[8:1],,,,2/7,,,,
{16}3/6,,,,1/8,,,,7/8,,6,5,6,,3,,
{16}1/2,,3,4,3,,6,,1-6[8:1],,1,,7-4[8:1],,7,,
{8}2,,2^5[8:1],1,2,,7^4[8:1],8,
{8}7,,2,2,7-4[8:1],,7/2-5[8:1],,
{16}2/6-1[8:1],,,,3/6,,3,,1/2,,3,4,3,,6,,
{16}7/8,,6,5,6,,3,,7-3[8:1],,7,,2-6[8:1],,2,,
{8}7,,7,8,1/6,,2,1,
{16}3/8,,,,5,4,5,,2-5[8:1]/7-4[8:1],,,,2/7,,,,
{1}3qq5[4:3]/6pp4[4:3],
{8},,1/8,,2,1,2,1,
{8}3/4,,6/8,,6,5,4,3,
{8}1q5[8:1]/2v5[8:1],,,,7,8,7,8,
{8}5/6,,1/3,,3,4,5,6,
{8}7v4[8:1]/8p4[8:1],,,,3/5,,8,8,
{8}1q5[8:1]/2v5[8:1],,1/2,,4/6,,1,1,
{8}7v4[8:1]/8p4[8:1],,7/8,,4/5,,2/7,2/7,
{4}1v4[8:1]/8q4[8:1],1/8,6/8,1/3,
{16}1p5[8:1]/8v5[8:1],,,,,,,,5/6,,3,4,3,,7,,
{16}3/4,,6,5,6,,2,,1b/8b-3[8:1],,,,8b/1b-6[8:1],,,,
{8}1b/8b,,7^4[8:1],8,7,,2^5[8:1],1,
{8}2,,7,2,2/6-1[8:1],,6/3-7[8:1],,
{16}3/8-4[8:1],,,,1,,1,,3/4,,6,5,6,,2,,
{16}5/6,,3,4,3,,7,,1-6[8:1],,1,,7-4[8:1],,7,,
{8}2,,7,8,1/6,,2,1,
{16}3/8,,,,2,7,2,,1^3[8:1]/8^6[8:1],,,,1-5[8:1]/8-4[8:1],,,,
{16}1b/8b,,,,,,,,3/4,,6,5,6,,1/8,,
{16}5/6,,3,4,3,,1/8,,2/7-3[8:1],,7,,2-6[8:1],,2,,
{8}7,,6^1[8:1],5,6,,3^8[8:1],4,
{8}3,,2/7,2/7,1^3[8:1]/8^6[8:1],,1-5[8:1]/8-4[8:1],,
{16}1-3[8:1]/8-6[8:1],,,,,,,,5/6,,3,4,3,,1/8,,
{16}3/4,,6,5,6,,1/8,,7/2-5[8:1],,2,,7-3[8:1],,7,,
{8}2,,7,8,1/6,,2,1,
{8}3/8,,8-4[8:1],8,8/2-5[8:1],,2/7-3[8:1],,
{8}2/7,,1-5[8:1],1,1/7-4[8:1],,7/2-6[8:1],,
{8}2/7,,8-4[8:1],8,8/2-5[8:1],,2/7-4[8:1],,
{8}2/7,,3-8[8:1],4,3,,6-1[8:1],5,
{8}6,,2-5[8:1],2,2/7-4[8:1],,7/1-5[8:1],,
{1}1/8b<1[4:3],
{4},,5-1[8:1],4-8[8:1],
{4}6^1[8:1],3^8[8:1],5,4-1[8:1]/5-8[8:1],
{4}4/5,2/7,3^8[8:1]/4v7[8:1],3/4,
{8}5v2[8:1]/6^1[8:1],,5/6,,3/4,2,5/6,7,
{4}4/5w1[8:1],,4-8[8:1],5-1[8:1],
{4}3^8[8:1],6^1[8:1],4,4-1[8:1]/5-8[8:1],
{4}4/5,2/7,5v2[8:1]/6^1[8:1],5/6,
{8}3^8[8:1]/4v7[8:1],,3/4,,3/4,1,5/6,8,
{8}3/4,5/6,1b/8bs4[8:5]*z4[8:5],,,,,,
{8},,,1/8,,1,1/8,7,
{8}2/7,3,3/6,5,4/5,,,,
{1}1b/6b,
E

Re:MASTER


名前:
コメント:

タグ:

+ タグ編集
  • タグ:
最終更新:2026年10月03日 08:11