アットウィキロゴ

ネトゲ廃人シュプレヒコール

アーティスト さつき が てんこもり

BPM EASY BASIC ADVANCED EXPERT MASTER Re:MASTER
175 2 5 8 10+ 13+ -

EXPERT MASTER Re:MASTER
譜面制作者 rioN ぴちネコ -

EASY


BASIC

(175.0){1},,,
{2}1,1,
{2}2,2,
{2}3,3,
{2}4,4,
{2}5,5,
{2}6,6,
{2}7,7,
{2}8,8b,
{4}1,1,1,,
{4}2,2,2,,
{2}3/4,5/6,
{4}3,4,3,,
{4}5,5,5,,
{4}6,6,6,,
{4}7,7,7,,
{1}1h[2:1]/8h[2:1],
{4}8,8,8,,
{4}7,7,7,,
{2}5/6,3/4,
{4}6,5,6,,
{4}4,4,4,,
{4}3,3,3,,
{4}2,2,2,,
{1}1h[2:1]/8h[2:1],
{1}2/7,
{2}8,8,
{2}7/8,7/8,
{2}6,6,
{2}5/6,5/6,
{2}4,4,
{2}3/4,3/4,
{2}2,2,
{2}1/2,1b/2b,
{4}1,1,1,,
{4}2,2,1/2,,
{4}3,3,3,,
{4}4,4,4/5,,
{4}5,5,5,,
{1}6h[2:1],
{4}7,7,7,,
{4}8,8,1/8,,
{4}1,1,8,,
{4}8,8,1,,
{1}1-5[4:3],,
{4}8,8,1,,
{4}1,1,8,,
{1}8-4[4:3],,
{4}2,1,2,,
{4}7,8,7,,
{1}1-5[4:3],,
{4}7,8,7,,
{4}2,1,2,,
{1}8-4[4:3],,
{4}1,1,1,,
{4}2,2,2,,
{2}3/4,5/6,
{4}3,4,3,,
{4}5,5,5,,
{4}6,6,6,,
{4}7,7,7,,
{1}1h[2:1]/8h[2:1],
{4}8,8,8,,
{4}7,7,7,,
{2}5/6,3/4,
{4}6,5,6,,
{4}4,4,4,,
{4}3,3,3,,
{4}2,2,2,,
{1}1h[2:1]/8h[2:1],
{1}2b/7b,
{4}1,1,2,,
{4}8,8,7,,
{4}6,6,5,5,
{4}4,4,3/4,,
{4}2,1,2,,
{4}7,8,7,,
{2}1/2,3/4,
{2}5/6,7b/8b,
{4}8,8,8,,
{4}7,7,7,,
{2}5/6,3/4,
{4}5/6,5/6,5/6,,
{4}4,4,4,,
{4}3,3,3,,
{4}2,2,2,,
{1}1h[2:1]/8h[2:1],
{4}1,1,1,,
{4}2,2,2,,
{2}3/4,5/6,
{4}3/4,3/4,3/4,,
{4}5,5,5,,
{4}6,6,6,,
{4}7,7,7,,
{4}8,8,1,1,
{4}8h[4:7],,,{1},,
E

ADVANCED

(175.0){1},,,
{4}3,3,2/4,,
{4}6,6,5/7,,
{2}4h[4:1],3h[4:1],
{4}2,2,1/3,,
{4}6,6,5/7,,
{4}3,3,2/4,,
{2}5h[4:1],6h[4:1],
{4}7,7,6/8,,
{4}1/2,1/2,3,4,
{4}5,6,7/8,,
{4}8,8-4[8:3],,,
{4}3,3,1/2,1/2,
{4}8,8,7,7,
{4}8,7,1/6,,
{2}1h[4:1]/2h[4:1],7h[4:1]/8h[4:1],
{1}1^4[2:1]/5^8[2:1],
{4}7/8,7/8,6,5,
{4}4,3,1/2,,
{4}1,1-5[8:3],,,
{4}6,6,7/8,7/8,
{4}1,1,2,2,
{4}1,2,3/8,,
{2}7h[4:1]/8h[4:1],1h[4:1]/2h[4:1],
{1}4^1[2:1]/8^5[2:1],
{1}4h[4:3]/5h[4:3],
{4}2,2,3,3,
{4}4,4,3/5,,
{4}7,7,6,6,
{4}5,5,4/6,,
{4}3,3,2,2,
{4}1,1,2/8,,
{4}6,6,7,7,
{4}8,8,1/7,,
{4}3,4,2/5,,
{4}6,5,4/7,,
{4}3,3,2,2,
{4}1,8,2/7,,
{4}5,5,6,6,
{4}7,8,1/6,,
{4}4,4,3,3,
{4}2,1,3/8,,
{2}6h[2:1],5h[2:1],
{2}4h[2:1],3,
{4}1,1,8,8,
{4}1,2,3/8,,
{4}6,6,5/7,,
{4}3,3,2/4,,
{2}7-5[4:1],1-3[4:1],
{2}8-4[8:3],1,
{2}3h[2:1],4h[2:1],
{2}5h[2:1],6,
{4}8,8,1,1,
{4}8,7,1/6,,
{4}3,3,2/4,,
{4}6,6,5/7,,
{2}2-4[4:1],8-6[4:1],
{2}1-5[8:3],8,
{4}1b/8b,1b/8b,2,3,
{4}4,3,2/5,,
{2}5h[4:1]/6h[4:1],3h[4:1]/4h[4:1],
{4}5h[4:1]/6h[4:1],,7/8,7/8,
{4}1,1,2,2,
{4}1,2,3/8,,
{4}7,6,5,4,
{1}3^8[2:1]/7^4[2:1],
{4}1/8,1/8,7,6,
{4}5,6,4/7,,
{2}3h[4:1]/4h[4:1],5h[4:1]/6h[4:1],
{4}3h[4:1]/4h[4:1],,1/2,1/2,
{4}8,8,7,7,
{4}8,7,1/6,,
{2}2-5[4:1],7-4[4:1],
{4}3,4,5,6,
{1}4h[4:3]/5h[4:3],
{4}4,3,2,1,
{4}8,7-4[4:1],,,
{4}5,6,7,8,
{4}1,2-5[4:1],,,
{4}4,3,2,1,
{4}8,1-4[4:1]/8-5[4:1],,,
{4}4/5,3/6,2/7,8/1p8[8:5],{1},
{4}1b/8b,1b/8b,7,5/6,
{4}4,3,2/5,,
{2}7h[4:1]/8h[4:1],1h[4:1]/2h[4:1],
{4}7h[4:1]/8h[4:1],,1/2,1/2,
{4}3,4,5,6,
{4}7,8,1/6,,
{4}2,3,4,5,
{1}2^5[2:1]/6^1[2:1],
{4}1/8,1/8,2,3/4,
{4}5,6,4/7,,
{2}1h[4:1]/2h[4:1],7h[4:1]/8h[4:1],
{4}1h[4:1]/2h[4:1],,7/8,7/8,
{4}6,5,4,3,
{4}2,1,3/8,,
{4}4/5,3/6,2/7,1/8,
{4}2,4,5,7,
{4}4bqq1[2:3]/5bpp8[2:3],,,{1},,
E

EXPERT

(175.0){1},,,
{4}3h[4:3],4,4,4,
{4}6h[4:3],5,5,5,
{4}3h[4:3],4,4,4,
{4}6h[4:1],5,4/7,1/8,
{4}6h[4:3],5,5,5,
{4}3h[4:3],4,4,4,
{4}6h[4:3],5,5,5,
{4}3h[4:1],4,2/5,4/7b,
{4}3/6,1/8,5/7,4/5,
{4}4/2q7[4:1],,,1/8,
{4}4/2h[4:1],3,5/7h[4:1],6,
{8}3h[8:5]/8h[4:1],,,1b,,2b,,,
{4}8,1,7,2,
{4}5^2[4:1]/6^1[4:1],,,1/8,
{2}7<3[4:1],1>5[4:1],
{8}7,7h[4:1],,8,,2/5,2/5,,
{4}3/8,1/2,7h[4:1],6^3[4:1],
{8},,,8b,,,,,
{4}3/4,5/6,1/3,6/8,
{8}2/7,2-6[4:1]/7-3[4:1],,,,,,,
{4}4/7h[4:1],6,5/2h[4:1],3,
{4}4/7h[4:1],6,3/4,2/5,
{4}5/6,4/7,3/8,1/2,
{4}7/8,1/2,7/8,6/1q4[4:3],{1},
{4}3,2/4,6,5/7,
{4}3,2/4,7/8,7/8,
{8}2,,1/2,,7,,7/8,7h[4:1]/8h[4:1],
{8},,1h[4:1]/2h[4:1],,,4h[4:1]/5h[4:1],,,
{4}6,5/7,3,2/4,
{4}6,5/7,1/2,1/2,
{4}7,7/8,2,1/2,
{1}1pp4[2:1]/8qq5[2:1],
{4}5/6h[4:1],7,4/3h[4:1],2,
{4}6h[4:1],3,7/8,1/2,
{4}4/3h[4:1],1,5/6h[4:1],8,
{4}4/3>6[4:1],,,1/8,
{8}4/5,,2/7,,3,3h[4:1],,1,
{8}1h[4:1],,8,8h[4:1],,6,6h[4:1],,
{4}2h[4:1],3,7h[4:1],6,
{1}4bq5[8:3],
{4}6h[4:1],5h[4:1],4,7/8,
{4}3h[4:1],4h[4:1],5,1/2,
{4}3/6,2/4,5/7,3/6,
{8},7/8,7/8,1/6,,1/2,3/8,,
{4}4/8h[4:1],7,1/5h[4:1],6,
{4}4/7,6/7,2/5,2/3,
{2}7^4[4:1],2^5[4:1],
{1}8q1[8:3],
{4}4/5h[4:1],6h[4:1],7,1/8,
{4}5/4h[4:1],3h[4:1],2,1/8,
{8}3/6,3/6,4/5,,4/7,,2/5,,
{8},,5/6,4/7,,3/4,2/5,,
{4}1/8h[4:1],7h[4:1],6,2/4,
{4}8/1h[4:1],2h[4:1],3,5/7,
{2}3p7[4:1],6q2[4:1],
{4}4h[4:1],5,2b/7b,,
{4}4-1[8:1]/5-8[8:1],,4/7,2/5,
{4}8/3^6[4:1],,,2/7,
{4}8/3h[4:1],4,1/6h[4:1],5,
{8}3h[8:5]/8h[4:1],,,1b,,2b,,,
{4}8/4h[4:3],1,7,2,
{4}5^2[4:1]/6^1[4:1],,,1/8,
{4}7<3[4:1],1,1>5[4:1],7,
{8}7,7h[4:1],,8,,2/5,2/5,,
{4}3/8,1/2,7h[4:1],6^3[4:1],
{8},,,8b,,,,,
{4}3/4,5/6,1/3,6/8,
{8}4/5,4-8[4:1]/5-1[4:1],,,,,,,
{8}2,2,1/2,,7,7,7/8,,
{8}1/8,1/8,,2/7,,4/5,4/5,,
{8}3,3,2/4,,6,6,5/7,,
{4}1/2,7/8,1/2,3/8p5[4:3],{1},
{4}1/8,4/5h[4:1],7,2/7,
{4}4/5p7[4:1],,,3/6,
{4}2/5,4/7,1/6,3/8,
{8}7,7,6/8,,2,2,1/3,,
{8}6,6,4,4,5,5,3,3,
{8}4,4,3/5,,8,8,1/7,,
{4}7/8h[4:1],1h[4:1],2h[4:1],3-7[4:1],
{4},,4/5,1b/8b,
{4}4-1[8:1]/5-8[8:1],,2/4,5/7,
{8}3/4,3/4,,1/6,,6,5,4,
{8},3,4,5,,5/6,5/6,,
{8}3h[8:5]/8h[4:1],,,1b,,2b,,,
{4}7/8,1/8,6/8,2/8,
{8}5/6,5/6-1[8:1],,,,3,3,3h[8:3],
{8},6,6,,1/2,,7/8,,
{1}6/5p4[2:1],
{4}3/8,1/2,7h[4:1],6qq3[8:3],
{8},,,8b,,3,4,3,
{8},6,5,6,,1/8,1/8,,
{8}7,7,2,2,8-5[8:1],,,,
{8}4,3,2,,5,6,7,,
{8}3,4,5,6h[4:1],,5,4,3,
{8},1/8,1/8,,4/5,,6/7,6/7,
{8},2/3,2/3,,2/5,,4/7,,
{1}1b>8[4:7]/8b<1[4:7],,,
E

MASTER

(175.0){1},,
{16}5,,,,2/8,,,,4,5,4,,8,,8,,
{8}1b/7b,,4,,2/6,2-4[8:1]/6-8[8:1],,2/6,
{8},1,1,,4/6,,2/8,,
{8}3h[4:1]/4h[4:1],,,2/5,,1/6,,8/7h[8:3],
{8},6,6,,8/4bv1[8:1]*v7[8:1],,,,
{8}2/6,,5,,3/7,3-1[8:1]/7-5[8:1],,3/7,
{8},8,8,,3/5,,1/7,,
{16}8,1,8,1,7,2,7,2,6,3,6,3,5,4,5,4,
{16}5-1[8:1],,,,4/5,,,,4,5,4,,2b/7b,,,,
{8}4-2[8:1]/8-6[8:1],,8-4[8:1],,8,3,2,1,
{8}7/8,7-5[8:1]/8-4[8:1],,7/8,,2,1,2h[4:1],
{16},,6,,5,,6h[4:1],,,,2,2,1,,2,,
{8}8,8-4[8:1],,8^3[16:3]*^5[16:3],,8,,,
{8}7h[4:1],8,2h[4:1],1,6h[4:1],8,3h[4:1],1,
{8}5,4/5-1[8:1],,4/5,,2,3,4h[4:1],
{8},6,5/6,2,1/2,7,7/8,4>8[4:1],
{8}4,8<4[4:1],,4,,8,8b,,
{8}3-1[8:1]/7-5[8:1],,7-3[8:1],,7,1,8,7,
{8}5/6,5-1[8:1]/6-8[8:1],,5/6,,3,4,3h[4:1],
{16},,7,,8,,7h[4:1],,,,3,3,4,,3,,
{8}6,5q4[8:3]/6<3[8:3],,5/6,,,,,
{8}2h[4:1],1,7h[4:1],8,3h[4:1],1,6h[4:1],8,
{8}4,5/4-8[8:1],,4/5,,7,6,5h[4:1],
{8},3,3/4,7,7/8,2,1/2,5<1[4:1],
{8},1>5[4:1],,5,,1,1,,
{16}1/8,,,,,,,,4,4,4,,3b/5b,,,,
{8}8h[4:1],,,2/4,,5/6,,1/3,
{16},,,,5,4,5,4,6h[8:1],,7h[8:1],,8h[4:1],,,,
{8}4h[4:1],,,1/3,,7/8,,2/4^7[8:1],
{8},8,8^3[8:1],,4,4-8[8:1],,,
{8}1h[4:1],,,5/7,,3/4,,6/8,
{16},,,,4,5,4,5,3h[8:1],,1,,6h[8:1],,8,,
{8}4h[4:1],,,1/3,,7/8,,1pp4[8:5]/5pp8[8:5],{1},
{8}2b/6b,,3/8,,6,5,6,5,
{8},2/8,,7/8,1-5[32:5]/6-2[32:5],,1/6,,
{8},,1/6,,3,4,3,4,
{8},1/7,,1/2,3-7[32:5]/8-4[32:5],,3/8,,
{8},2,1,8,7,6h[4:1],,5,
{8}5h[4:1],,4,4h[4:1],,3,3h[4:1],,
{8}1,,3/8,,6,5,6,5,
{8},4qq4[8:3]/8qq8[8:3],,4b/8b,,,,,
{8}5/6,,2/8,,6,5,4/8,,
{8}3/4,,1/7,,3,4,1/5,,
{2}4/5q2[8:1]*-8[8:1],3V15[4:1]/6V84[4:1],
{8},3/8,1/6,3/8,,1/8,1-5[8:1]/8-2[8:1],,
{8}1b/8b,,1/7,,3,4,1/5,,
{8}5/6,,2/8,,6,5,4/8,,
{2}7h[4:1]/1-5[8:1],3h[4:1]/8-5[8:1],
{2}6h[4:1]/2-5[8:1],4h[4:1]/1-5[8:1],
{8}1/2,,3/8,,6,5,4/7,,
{8}7/8,,1/6,,3,4,2V84[4:1]/5V73[4:1],,
{2}2/5,6pp5[4:1],
{8},,3/4,7/8,,5/6,1-5[8:1]/2v4[8:1],,
{8}1b/2b,,1/6,,3,4,2/5,,
{8}1/2,,3/8,,6,5,4/7,,
{2}7-4[32:3]/8-3[32:3],1-6[32:3]/2-5[32:3],
{16}4-1[32:3]/5-8[32:3],,,,,,,,4,5,4,,2b/7b,,,,
{8}4-2[8:1]/8-6[8:1],,8-4[8:1],,8,3,2,1,
{8}7/8,8h[4:1]/7-3[8:1],,7,,2,1,2h[4:1],
{16},,6,,5,,6h[4:1],,,,2,2,1,,2,,
{8}8,8-4[8:1],,8^3[16:3]*^5[16:3],,8,,,
{8}7h[4:1],8,2h[4:1],1,6h[4:1],8,3h[4:1],1,
{8}5,4/5qq8[8:3],,4/5,,,1,,
{16}1,8,1,8,2,7,2,7,3,6,3,6,4,5,4,5,
{16}4-8[8:1],,,,4/5,,,,5,4,5,,2b/7b,,,,
{8}3-1[8:1]/7-5[8:1],,7-3[8:1],,7,1,8,7,
{8}5/6,6h[4:1]/5-1[8:1],,5,,7,8,7h[4:1],
{16},,3,,4,,3h[4:1],,,,7,7,8,,7,,
{8}7/8,8/7bV53[8:1],,7/2bV48[4:1],,2/6,6,,
{8}4h[4:1],6,5h[4:1],3,4h[4:1],7,5h[4:1],2,
{8}4,5/4pp1[8:3],,4/5,,,8,,
{16}5,4,5,4,6,3,6,3,7,2,7,2,8,1,8,1,
{8}8,,4/5,,3/7,2/6,1pp5[4:3]/5pp1[4:3],,
{1}1/5,
{16}7h[4:1],,8,,2h[4:1],,1,,7,,3,4,,6,5,,
{16}4,5,3,6,2,7,1>5[4:1],,,,6,,7,,8,,
{16}1,,2/8,,3/7,,6,5,7,4,5,2,4h[8:1],,3,,
{8}2/6,3/7,4/8,1p4[16:3]/5p8[16:3],,1/5,,,
{12}7,{995}8,,,,,,,,,,,,,,,,,,,,,,,,,,,,,,,,,,,,,,,,,,,,,,,,,,,,,,,,,,,,,,,,,,,,,,,,,,,,,,,,,,,{12}6,2,{995}1,,,,,,,,,,,,,,,,,,,,,,,,,,,,,,,,,,,,,,,,,,,,,,,,,,,,,,,,,,,,,,,,,,,,,,,,,,,,,,,,,,,{24}3,,8h[4:1],,,2,,,4h[4:1],,,6,,,
{16}8,1,8,1,7,7,3,3,5,,4/6,,3/7,,2/8,,
{16}1,8,2h[8:1],,3h[8:1],,4,,8,1,7h[8:1],,6h[8:1],,5,,
{16}1,,7,8,,2,1,,4b/5b,,3,4,3,4,3,4,
{8}3^8[8:1],,4p7[8:1],,5,5,6,6,
{8}4/7,4^1[8:1]/7^4[8:1],,4/7,,7,8,1/6h[4:1],
{16},,3,,4,,5/2h[4:1],,,,7,7,8,,7,,
{8}2/6,8/4-8[8:1],,4bpp4[16:3]*qq4[16:3],,4b,,,
{8}1/7,8,2/8,1,1/6,8,3/8,1,
{8}1/5,1^4[8:1]/5^8[8:1],,1/5,,6,5,6h[8:3],
{8},1,3h[4:1],8,6h[4:1],1,3h[4:1],8,
{8}6,2^5[16:3]/6^1[16:3],,2/6,,,3b/7b,,
{8}6^1[8:1],,5q2[8:1],,4,4,3,3,
{8}2/5,2^5[8:1]/5^8[8:1],,2/5,,2,1,8/3h[4:1],
{16},,6,6,5,,4/7h[4:1],,,,2,,1,,8,,
{8}3/7,2/6,1/5,4q1[16:3]/8q5[16:3],,4/8,,,
{8}2/8,1,1/7,8,3/8,1,1/6,8,
{8}4/8,4^1[16:3]/8^5[16:3],,4/8,,,3b/4b,,
{16}6,5,6,5,7,4,7,4,8,3,8,3,1,2,1,2,
{8}1w5[8:1],,1,,2/8,3/7,4/6,,
{1}4/5b-1[1:1],
{16}4,,4,,4,,4,,5,5,5,,2b/8b,,,,
{1}4/6,
E

Re:MASTER


名前:
コメント:

タグ:

+ タグ編集
  • タグ:
最終更新:2026年10月03日 22:20