アットウィキロゴ

Sweet Devil

アーティスト 八王子P

BPM EASY BASIC ADVANCED EXPERT MASTER Re:MASTER
132 2 4 8 11 12+ -

EXPERT MASTER Re:MASTER
譜面制作者 mai-Star Techno Kitchen -

EASY


BASIC

(132.0){1}1h[1:1],,
{1}1h[1:1],,
{2}2,3,
{2}4,5,
{2}6,7,
{2}1/8,1/8,
{1}8-4[4:3],,
{1}1-5[4:3],,
{2}7,6,
{2}5,4,
{2}3,2,
{1}1b/8b,
{4}2,2,2,,
{4}3,3,3,,
{4}4,4,4,,
{4}5,5,4/5,,
{4}6,6,6,,
{4}7,7,7,,
{4}8,8,8,,
{4}1,1,1/8,,
{4}7,7,7,,
{4}6,6,5/6,,
{4}5,5,5,,
{4}4,4,4/5,,
{4}3,3,3,,
{4}2,2,1/2,,
{4}1,1,1,1,
{4}8,8,8b,,
{4}1,1,2,2,
{4}3,3,4,,
{4}5,5,6,6,
{4}7,7,8,,
{4}8,8,7,7,
{4}6,6,5,,
{4}4,4,3,3,
{4}2,2,1,,
{4}2,2,3,3,
{4}4,4,5/6,,
{4}7,7,6,6,
{4}5,5,3/4,,
{4}3,3,4,4,
{4}5,5,5/6,,
{2}7/8,1/2,
{4}1/2,1/8,7/8,,
{2}7,6,
{2}5,4,
{2}3,2,
{2}1,1/8,
{4}1,1,2,,
{4}2,2,3,,
{4}3,3,4,4,
{4}5,5,6,6,
E

ADVANCED

(132.0){4}1,2,3,,
{4}5,6,7,,
{4}4,3,2,,
{4}8,7,6,,
{4}1,2,3,4,
{4}5,6,7,8,
{4}1,1,8,8,
{4}1/8,1/2,7/8,1b/8b,
{4}3,4,3/5,,
{4}6,5,4/6,,
{4}2,1,2/8,,
{4}7,8,1/7,,
{4}4/6,5,4/6,,
{4}3/5,4,3/5,,
{4}1/7,8,1/7,,
{4}2/8,1,2/8,,
{4}3,3,4,4,
{4}3,4,2/5,,
{4}6,6,5,5,
{4}6,5,4/7,,
{4}2,2,1,1,
{4}2,1,3/8,,
{4}7,7,8,8,
{4}7,8,1/6,,
{4}3,4,5,6,
{1}7-4[4:1]/8-3[4:1],
{4}6,5,4,3,
{1}1-6[4:1]/2-5[4:1],
{4}4/5,3/6,2/7,1/8,
{1}1-4[4:1]/8-5[4:1],
{4}1/2,3/4,5/6,7/8,
{1}1s5[2:1],
{4}3h[4:1],4,5h[4:1],4,
{4}3h[4:1],4h[4:1],5,6,
{4}6h[4:1],5,4h[4:1],5,
{4}6h[4:1],5h[4:1],4,3,
{4}2h[4:1],1,7h[4:1],8,
{4}1h[4:1],8h[4:1],1,1/8,
{4}2,1/2,7,7/8,
{8}1/8,,2/7,,1,8,1b,,
{4}6,5,4,3,
{4}1/2,7/8,1/6,2/5,
{4}3,4,5,6,
{4}7/8,1/2,3/8,4/7,
{4}4/5,3/6,2/7,1/8,
{1}1^4[4:1]/8^5[4:1],
{4}3,2/4,6,5/7,
{4}3/4,5/6,4/5,2b/7b,
{4}1,2,3,4,
{4}5,6,7,1,
{4}8,7,6,5,
{4}4,3,2,8,
{8}1,1,1,,2,,1/2,,
{8}8,8,8,,7,,7/8,,
{4}1/2,1/2,7/8,7/8,
{8}1,,8,,1,8,1,8b,
E

EXPERT

(132.0){8}1/8,,,1/8,,1/8,,,
{8}1/8,,1/8,1h[4:1]/8h[4:1],,,,,
{8}1/2,,,1/2,,1/2,,,
{8}1/2,,1/2,1h[4:1]/2h[4:1],,,,,
{8}7/8,,,7/8,,7/8,,,
{8}7/8,,7/8,7h[4:1]/8h[4:1],,,,,
{8}4/5,,,4/5,,4/5,,,
{12}3,{995}3,,,,,,,,,,,,,,,,,,,,,,,,,,,,,,,,,,,,,,,,,,,,,,,,,,,,,,,,,,,,,,,,,,,,,,,,,,,,,,,,,,,{12}3,6,{995}6,,,,,,,,,,,,,,,,,,,,,,,,,,,,,,,,,,,,,,,,,,,,,,,,,,,,,,,,,,,,,,,,,,,,,,,,,,,,,,,,,,,{12}6,4/5,{995}4/5,,,,,,,,,,,,,,,,,,,,,,,,,,,,,,,,,,,,,,,,,,,,,,,,,,,,,,,,,,,,,,,,,,,,,,,,,,,,,,,,,,,{12}4/5,2b/7b,,,
{4}1,2,3h[4:1],4,
{8}8,,7,,6h[4:1],,5,5,
{4}3,4,5h[4:1],6,
{8}6,,5,,4h[4:1],,3,3,
{8}2/7,2/7,2/7,,1h[4:1],,8,,
{8}6h[4:1],,7h[4:1],,8h[4:1],,1,1,
{4}3h[4:1],2h[4:1],1h[4:1],8,
{4}8h[4:1],6h[4:1],4h[4:1],2b,
{8}2/4,,3,3,,2/4,,3,
{8}5/7,,6,6,,5/7,,6,
{8}2h[8:3],,1,1-5[8:1],,,,7,
{8}7h[8:3],,8,8-4[8:1],,,,2,
{8}2h[8:3],,7,7^2[8:1],,,,6,
{8}6h[8:3],,3,3p6[8:1],,,,8,
{8}8h[8:3],,1,1,,2/7,,1/8,
{16}3b,,4b,,5b,,6b,,,,2/7,,1,8,1,8,
{8}1^3[8:1],,8,8^6[8:1],,,,4,
{8}5^7[8:1],,4,4^2[8:1],,,,8,
{8}8p3[16:3],,1,1q6[16:3],,,,5,
{8}4^2[8:1],,5,5^7[8:1],,,,2,
{8}2^5[8:1],,7,7^4[8:1],,,,1,
{8}8,,1/8,1-4[8:1]/8-5[8:1],,,,3,
{8}2,1,8,7,6,7,1/8,,
{12}2,{995}2,,,,,,,,,,,,,,,,,,,,,,,,,,,,,,,,,,,,,,,,,,,,,,,,,,,,,,,,,,,,,,,,,,,,,,,,,,,,,,,,,,,{12}2,1,{995}1,,,,,,,,,,,,,,,,,,,,,,,,,,,,,,,,,,,,,,,,,,,,,,,,,,,,,,,,,,,,,,,,,,,,,,,,,,,,,,,,,,,{12}1,8,{995}8,,,,,,,,,,,,,,,,,,,,,,,,,,,,,,,,,,,,,,,,,,,,,,,,,,,,,,,,,,,,,,,,,,,,,,,,,,,,,,,,,,,{12}8,2b/7b,,,
{16}3/4,,,,5/6,,,,3,4,,6,5,,6,,
{16}5/6,,,,3/4,,,,6,5,,3,4,,3,,
{16}1/2,,,,7/8,,,,2,1,,7,8,,7,,
{8}6,5,4,3,2,1,8,7,
{16}1/2,,,,3/8,,,,2,1,,5,6,,3,,
{16}7/8,,,,1/6,,,,7,8,,4,3,,6,,
{16}1/7,,,,2/8,,,,1,8,,2,7^4[8:3],,7,,
{4},,3-7[8:1],5b,
{8},,1-3[8:1]/8-6[8:1],,,,4,5,
{8},2,1/2,7,7/8,3,3/4,5/6,
{16},,7/8,,1/2,,,5,4,,,,7p3[8:1],,7,,
{8},,2,6,1-5[8:1],8-4[8:1],,,
{16},,1/2,,1/2,,7,8,7,,,,2/7,,1/8,,
{8},3,3/4,4,4/5,5,5/6,,
{2}4v1[8:1]/8-5[8:1],1-4[8:1],
{2}1s5[16:3],1s5[16:3],
{4}8h[4:1],6h[4:1],4h[4:1],2,
{8}1h[4:1],,3h[4:1],,5h[4:1],,7,7,
{4}2h[4:1],1h[4:1],8h[4:1],7,
{8}6h[4:1],,5h[4:1],,4h[4:1],,3,3,
{8}1/8,1/8,2b/7b,,1-4[8:1],1,5,,
{8}5-8[8:1],5,3,,3-7[8:1],3,5,,
{8}1-3[8:1]/5-7[8:1],1/5,,,3-5[8:1]/7-1[8:1],3/7,,,
{16}1-6[8:1]/5-2[8:1],,1/5,,,,,,2/7,,,,1,8,1,8,
E

MASTER

(132.0){8}2/4,3,3,5/7,6,6,2/4,5/7,
{8}1/3,2,2,6/8,7,7,1/3,6/8,
{8}1/4,3,3,5/8,6,6,1/4,5/8,
{8}1/4,2,2,5/8,7,7,1/4,5/8,
{8}2/4,3,4,5/7,6,5,2/4,5/7,
{8}1/3,2,1,6/8,7,8,1/3,6/8,
{8}1/4,3,2,5/8,6,7,1/4,5/8,
{12}1,{995}2,,,,,,,,,,,,,,,,,,,,,,,,,,,,,,,,,,,,,,,,,,,,,,,,,,,,,,,,,,,,,,,,,,,,,,,,,,,,,,,,,,,{12}3,4,{995}5,,,,,,,,,,,,,,,,,,,,,,,,,,,,,,,,,,,,,,,,,,,,,,,,,,,,,,,,,,,,,,,,,,,,,,,,,,,,,,,,,,,{12}6,7,{995}8,,,,,,,,,,,,,,,,,,,,,,,,,,,,,,,,,,,,,,,,,,,,,,,,,,,,,,,,,,,,,,,,,,,,,,,,,,,,,,,,,,,{12}1,2b/7b,,,
{4}4-6[8:1],3/4,5-3[8:1],5/6,
{4}4-7[8:1],3/4,5-2[8:1],5/6,
{4}4-8[8:1],2/4,5-1[8:1],5/7,
{4}4-1[8:1],2/4,5-8[8:1],5/7,
{8}4-6[8:1],3,2b/4b,,5-3[8:1],6,5/7,,
{8}4-7[8:1],3,2/4,,5-2[8:1],6,5/7,,
{8}4-8[8:1],3,2/4,,5-1[8:1],6,5/7,,
{8}4h[8:1],3h[8:1],2h[8:1],1h[8:1],8h[8:1],7h[8:1],6h[8:1],5b,
{16}2,4,3,,7,5,6,,2,1,8,7,,4/5,4/5,,
{16}3,1,2,,6,8,7,,3,4,5,6,,1/8,1/8,,
{16}5/7,,4/6,,3/5,,2/4,,3,4,5,6,,2/7,2/7,,
{16}1/3,,2/8,,1/7,,6/8,,7,8,1,2,,3/6,3/6,,
{16}8h[8:1],,2h[8:1],,5h[8:1],,8h[8:1],,7,8,7,8,,4/5,4/5,,
{16}1h[8:1],,7h[8:1],,4h[8:1],,1h[8:1],,2,1,2,1,,4/5,4/5,,
{16}8,1,7,2,6,3,5,4,6,3,7,2,,1/8,1/8,,
{16}8b,1b,7b,2b,6b,3b,5b,4b,5b,,2/7,,1,1,8,8,
{16}2h[8:1],,7h[8:1],,8,6,,7,8,7,8,7,,1/6,1/6,,
{16}7h[8:1],,2h[8:1],,1h[8:1],,3h[8:1],,1,2,1,2,,3/8,3/8,,
{8}2h[8:1],7h[8:1],3h[8:1],6h[8:1],4-1[8:1],5-8[8:1],,,
{16}1h[8:1],,8h[8:1],,4h[8:1],,5h[8:1],,1,8,4,5,1b,,3/7,,
{16}1h[8:1],,6h[8:1],,4h[8:1],,1h[8:1],,2,1,2,1,,4/5,4/5,,
{16}8h[8:1],,3h[8:1],,5h[8:1],,8h[8:1],,7,8,7,8,,4/5,4/5,,
{8}1h[8:1],2h[8:1],3h[8:1],4h[8:1],5h[8:1],6h[8:1],7h[8:1],8h[8:1],
{12}1,{995}2,,,,,,,,,,,,,,,,,,,,,,,,,,,,,,,,,,,,,,,,,,,,,,,,,,,,,,,,,,,,,,,,,,,,,,,,,,,,,,,,,,,{12}3,4,{995}5,,,,,,,,,,,,,,,,,,,,,,,,,,,,,,,,,,,,,,,,,,,,,,,,,,,,,,,,,,,,,,,,,,,,,,,,,,,,,,,,,,,{12}6,7,{995}8,,,,,,,,,,,,,,,,,,,,,,,,,,,,,,,,,,,,,,,,,,,,,,,,,,,,,,,,,,,,,,,,,,,,,,,,,,,,,,,,,,,{12}1,2b/7b,,,
{8}1/8-3[8:1],,8/1-6[8:1],,1/7-4[8:1],,2/7,2h[4:3],
{16},,8,8,,,7,,1-4[8:1],,7h[4:1],,1,,,,
{8}8/1-6[8:1],,1/8-3[8:1],,8/2-5[8:1],,2/7,7h[4:3],
{8},1,1,2,8-5[8:1],2h[4:1],8,,
{4}1v2[8:1],8v7[8:1],2v3[8:1],7v6[8:1],
{8}3v4[8:1],,6v5[8:1],,2b,2b,7b,7b,
{4}4v3[8:1],5v6[8:1],3v2[8:1],6v7[8:1],
{8}2<3[2:1],,,,2b,1b,8b,,
{8}1/8p3[8:1],,8/1q6[8:1],,1/8p3[8:1],,1/8,1h[4:3],
{8},2,2,7,3^6[8:1],7h[4:1],3,,
{8}8/1q6[8:1],,1/8p3[8:1],,8/1q6[8:1],,1/8,8h[4:3],
{8},,7,2,6^3[8:1],2h[4:1],6,,
{4}1v2[8:1],5v6[8:1],2v3[8:1],6v7[8:1],
{8}3v4[8:1],,7v8[8:1],,5b,5b,1b,1b,
{8}1/4,3,2,1,5/8,6,7,8,
{8}1b/3b,2/7,6b/8b,2/7,1b/4b,2b/7b,5b/8b,2b/7b,
{8}4-6[8:1],3,2/4,,5-3[8:1],6,5/7,,
{8}4-7[8:1],3,2/4,,5-2[8:1],6,5/7,,
{8}4-8[8:1],3,2/4,,5-1[8:1],6,5/7,,
{8}4-1[8:1],3,2/4,,5-8[8:1],6,5/7,,
{8}4^6[8:1],3,2b/4b,1,5^3[8:1],6,5/7,8,
{8}4^7[8:1],3,2/4,1,5^2[8:1],6,5/7,8,
{8}4<8[8:1],3,2/4,1,5>1[8:1],6,5/7,8,
{16}4h[8:1],,3h[8:1],,2h[8:1],,1h[8:1],,8h[8:1],,7h[8:1],,6,5,4,3b,
E

Re:MASTER


名前:
コメント:

タグ:

+ タグ編集
  • タグ:
最終更新:2026年10月03日 22:21