EASY
BASIC
(230.0){1},
{1}2,,
{1}4,,
{1}6,,
{1}8,,
{1}7,
{1}6,
{1}5,
{1}4,
{1}3,
{1}2,
{2}1,1,
{1}1h[1:1],,,
{1}7h[1:1],,
{1}6,,
{2}4,4,
{1}4,
{2}3,3,
{1}3,
{2}2,2,
{1}2,
{1}1-5[4:3],,
{2}6,6,
{1}6,
{2}7,7,
{1}7,
{2}8,8,
{1}8,
{2}1,1,
{1}1b,
{1}1h[2:1],
{1}1,
{1}2h[2:1],
{1}2,
{1}3h[2:1],
{1}3,
{1}4h[1:1]/5h[1:1],,
{2}5,5,
{2}4,4,
{2}3,3,
{1}1/2,
{2}1,1,
{2}8,8,
{2}7,7,
{1}5/6,
{2}4,4,
{2}5,5,
{2}6,6,
{1}7/8,
{2}1,1,
{2}8,8,
{2}1/8,1/8,
{1}1b/8b,
{1}1,
{1}2,
{1}3,
{1}4,
{1}5-8[4:3],,
{1}1-4[4:3],,
{1}3h[2:1],
{2}4,4,
{1}5h[2:1],
{2}6,6,
{1}5h[2:1],
{1}4h[2:1],
{1}4/5,
{1}3/6,
{1}4,,
{1}4,,
{1}5,,
{1}5,,
{1}4,,
{1}6,,
{1}8,,
{1}1,
{1}1b/8b,
{2}2,2,
{2}1,1,
{2}8,8,
{1}7h[2:1],
{2}7,7,
{2}8,8,
{2}1,1,
{1}1b/8b,
{4}2,2,2,,
{2}1,1,
{4}8,8,8,,
{1}7h[2:1],
{4}7,7,7,,
{2}8,8,
{4}1,1,1,,
{1}1b/8b,
{1}8-4[4:3],,
{1}1-5[4:3],,
{1}8,
{1}1,
{1}2/7,,
{2}4,5,
{2}6,4b/5b,
E
ADVANCED
(230.0){1},
{1}2/7,,
{1}3/6,
{4},,,1/8,
{1}1/8,
{4},,,4/5,
{1}4/5,,
{2}1/2,7/8,
{4}3,3,6,6,
{2}3/4,5/6,
{4}7,2,1/8,,
{2}2/7,3/6,
{4}1,1,8,8,
{4}2,2,7,7,
{1}3^8[8:3],,,
{1}1b/8b,,,,
{4}4,4,5,5,
{4},3,4,5,
{4}6,6,3,3,
{4},2/7,2/7,,
{4}1,1,8,8,
{4},7,8,1,
{1}2-5[8:3],,
{4}4,5,3,6,
{4},3,4,5,
{4}6,3,7,2,
{4},1/8,1/8,,
{4}2,7,3,6,
{4},4,5,3,
{4}2,1,8,7-4[8:3],{1},
{2}3,1/2,
{2}6,7/8,
{2}2,3/4,
{2}7,5/6,
{2}3/4,1/2,
{2}7/8,5/6,
{4}7,2,7,2,
{4}1/8,1/8,1b/8b,,
{2}2/7,4/5,
{4}3,4,5,6,
{2}4/5,2/7,
{4}1,8,2/7,,
{2}3/6,1/8,
{4}7,8,1,2,
{2}3/4,5/6,
{4}1/8,2/7,3/6,,
{2}1/7,2/8,
{4}3,6,4,5,
{2}4/6,3/5,
{4}7,2,4/5,,
{2}7/8,1/2,
{4}7,2,8,1,
{4}2,3,4,5,
{1}6^1[8:3],
{2}2,5/6,
{2}7,3/4,
{4}5,5,4,4,
{4}6,6,3,3,
{4}7,8,1,,
{4}2,1,8,,
{4}1,8,2,7,
{4}3,6,4,5,
{2}4,3/5,
{2}5,4/6,
{2}3,2/4,
{2}6,5/7,
{2}2,1/3,
{2}7,6/8,
{1}2h[1:1]/7h[1:1],,
{1}3h[1:2],,
{1}4h[1:2],,
{1}5h[1:2],,
{1}6h[1:2],,
{1}3,,
{1}2/7,
{4},,,4/5,
{1}4/5,
{4},,,1/8,
{1}1/8,
{4}4,5,3,6,
{4}7/8,7/8,1/2,1/2,
{4}3,3,6,6,
{4}3/4,3/4,5/6,5/6,
{4}7,2,1/8,,
{4}1/2,1/2,7/8,7/8,
{4}6,6,3,3,
{4}5/6,5/6,3/4,3/4,
{4}2,7,1/8,,
{4}3/4,5/6,3/4,5/6,
{4}4,3,2,1,
{4}7/8,1/2,7/8,1/2,
{4}3,6,4/5,,
{4}2,1,8,7,
{4}6,5,4,3,
{4}4/5,3/6,2/7,1/8,
{1}1-4[4:3]/8-5[4:3],,,,,,,
{8}1/2,,,4/5,,,7/8,,
{8},4/5,,,2/7,,1/8,,
{4}7,6,5,4,
{4}3,2,{1}1-5[4:7],,,
E
EXPERT
(230.0){1},
{1}1/8,,
{1}2/7,
{4},,,1/2,
{1}7/8,
{4},,,5/6,
{1}3/4,
{6}1,1,8,8b,,,
{8}6,,3,4,,6,5,,
{6}4,5,4,5,4,5,
{8}2,,7,8,,2,1,,
{6}8,1,8,1,,,
{8}1/8,,2,7,,1,8,,
{6}1,8,1,8,1,8,
{4}2,1,8,7,
{1}1b/8b,
{1}7h[4:5],
{4}2,2-6[5000:1263],,,
{4}8h[4:3],,,1-5[4:1],
{4},,7,8-4[4:1],{1},
{1}3<7[2:1],
{8}8,,2,2,,,4/7,,
{8}1,,7,7,,,2/5,,
{8}4,,5,5,,,3/7,,
{8}5,,4,4,,,2/7,,
{8}3,,3,4h[8:3],,,2,,
{8}6,,6,5h[8:3],,,7,,
{8}1,,8,2h[8:3],,,7,,
{8}4/5,,3,3,,6,6,,
{8}3,,7,8,,2,1,,
{8}7,,3,5,,6,4,,
{8}2,,1,3,,7,1,,
{8}7,,8,6,,2,8,,
{8}3,,4,2,,7,5,,
{8}6,,5,7,,2,4,,
{4}4/8,3/7,1/5,2b/6b,
{8}8,1,,1,,,,,
{2}2h[2:1],1h[2:1],
{8}8h[8:3],,,7h[8:3],,,6,,
{8}7h[8:3],,,8h[8:3],,,1h[4:1],,
{4}2,,1,8,
{4}7h[2:1],,6,5,
{8}4,,3,5,,4,6,,
{1}2v4[2:1]/8v6[2:1],
{8}1,8b,,8b,,,,,
{2}1-5[16:3],8-4[16:3],
{6}3,3,3,4,4,4,
{2}2-5[16:3],1-6[16:3],
{2}5h[2:1],6b,
{2}8-4[16:3],1-5[16:3],
{6}6,6,6,5,5,5,
{2}7-4[16:3],8-3[16:3],
{2}6h[2:1],3b,
{2}1p4[4:1],8q5[4:1],
{6}4,4,4,5,5,5,
{2}2v4[4:1],7v5[4:1],
{2}1h[2:1],8b,
{2}2p5[4:1],1q6[4:1],
{6}4,4,4,7,7,7,
{4}1/2,1/8,7/8,1/8,
{1}2b/7b,
{8}1/2,,,1/2,,,,,
{8}5/6,,,5/6,,,,,
{4}3,4,2,5,
{4}8,7,1,6,
{8}7/8,,,7/8,,,,,
{8}3/4,,,3/4,,,,,
{4}6,5,7,4,
{4}1,2,8,3,
{4}3h[4:3],,,1,
{4}1,8,8,7,
{4}6h[4:3],,,8,
{4}8,1,1,2,
{4}3h[4:3],,,5,
{4}4,6,3,5,
{1}5h[1:1],
{1}4b,
{1}2h[1:1],
{2}1h[2:1],8h[2:1],
{1}7h[1:1],
{2}6h[2:1],5h[2:1],
{1}4h[1:1],
{2}3h[2:1],2h[2:1],
{1}1h[1:1],
{2}8,3b/6b,
{2}7/8,6h[2:1],
{4}1h[2:1],,5,2,
{2}3/4,5h[2:1],
{4}6h[2:1],,4,8,
{2}1/2,8h[2:1],
{4}1h[2:1],,7,8,
{4}1/2,3/8,4/7,5/6,
{1}3b/8b,
{4}1,7,3,5,
{6}1b,8,1,8b,1,8,
{4}4,6,2,8,
{6}1,8,1,8b,,,
{4}2,8,4,6,
{6}4b,5,4,5b,4,5,
{4}3,1,5,7,
{6}4,5,3,6b,,,
{8}1/8,,1,2/8,,8,1/7,,
{6}1b/8b,1/8,1/8,2b/7b,2/7,2/7,
{8}4,,4,3/5,,5,4/6,,
{12}4,,4,,5,,5b,,,3/6,,,
{8}3/6,,3,2/4,,6,5/7,,
{6}3b/6b,3/6,3/6,4b/5b,4/5,4/5,
{4}5/6,7/8,1/2,3/4,
{1}2b/7b,
{4}5-1[2:1],,,7,
{4}6/8,1/5,2/4,3,
{4}8-4[2:1],,,2,
{4}1/3,4/8,5/7,6,
{4}2-6[2:1],,,8,
{4}1/7,2/6,3/5,4,
{8}3,3,,6,6,,4,4,
{8},5,5,,2/7,,,,
{8}2,,1,,8,8,,,
{4}7/8,1/8,1b/2b,
E
MASTER
(230)
{16}
4h[8:14]/7h[8:14],,,,,,,,,,,,,,,,
,,,,,,,,,,,,,,,,
2h[8:12]/5h[8:12],,,,,,,,,,,,,,,,
,,,,,,,,,,,,56,,,,
1h[8:12]/5h[8:12],,,,,,,,,,,,,,,,
,,,,,,,,,,,,34,,,,
4h[8:6]/8h[8:6],,,,,,,,,,,,,,,,
{24}
37,,,,26,,,,15,,,,4^7[8:1]/8^3[8:1],,,,,,4b/8b,,,,,,
25,,,3,,,4,,,57,,,6,,,5,,,34,,,,,,
1-5[8:1],,,,6,,,,7,,,,8-4[8:1],,,,3,,,,2,,,,
34,,,2,,,3,,,56,,,7,,,6,,,18,,,,,,
45,,,,36,,,,27,,,,1^6[8:1]/8^3[8:1],,,,,,1b/8b,,,,,,
47,,,6,,,5,,,24,,,3,,,4,,,56,,,,,,
8-4[8:1],,,,3,,,,2,,,,1-5[8:1],,,,6,,,,7,,,,
26,,,1,,,8,,,37,,,26,,,,,,4>8[8:4]/8<4[8:4],,,,,,
,,,,,,,,,,,,,,,,,,,,,,,,
{16}
6h[8:2],,,,5,,5,,,,34,,,,3,,
4,,3,,2>7[8:2],,,,,,,,,,,,
2h[8:4]/7h[8:4],,,,,,,,,,,,1,,,,
6,,,,2,,7,,3,,8,,4>5[8:4],,,,
,,,,,,,,,,,,,,,,
47,,6,5,6,,3,,3,,4,,5,,6,,
1^4[8:1],,,,1q5[8:1],,,,1v6[8:1],,,,,,,,
38,,,,24,,3,,57,,6,,45,,,,
8^5[8:1],,,,8p4[8:1],,,,8v3[8:1],,,,,,,,
16,,,,57,,6,,24,,3,,45,,,,
1v6[8:1],,,,1q5[8:1],,,,1^4[8:1],,,,,,,,
38,,,,24,,3,,57,,6,,45,,,,
8v3[8:1],,,,8p4[8:1],,,,8^5[8:1],,,,,,,,
2,,3,4,3,,7,,6,,5,,4,,3,,
1q6[8:1],,,,1p5[8:1],,,,1q3[8:2],,,,1,,,,
,,,,57,,6,,35,,4,,56,,,,
8p3[8:1],,,,8q4[8:1],,,,8p6[8:2],,,,8,,,,
,,,,24,,3,,46,,5,,34,,,,
1q6[8:1],,,,1p5[8:1],,,,1q3[8:2],,,,1,,,,
,,,,57,,6,,35,,4,,56,,,,
8p3[8:1],,,,8q4[8:1],,,,8p6[8:2],,,,8b,,,,
,,,,24,,3,,46,,5,,36,,,,
1-6[8:2],,,,6q3[8:2],,,,3-8[8:2],,,,8q5[8:2],,,,
5-2[8:2],,,,2q7[8:2],,,,7-4[8:2],,,,4q1[8:2],,,,
1^4[8:2],,,,4^7[8:2],,,,7^2[8:2],,,,2,,,,
3b,,,,,,,,2,,,,1,,,,
8-3[8:2],,,,3p6[8:2],,,,6-1[8:2],,,,1p4[8:2],,,,
4-7[8:2],,,,7p2[8:2],,,,2-5[8:2],,,,5p8[8:2],,,,
8^5[8:2],,,,5^2[8:2],,,,2^7[8:2],,,,,,,,
4,,3b/5b,,,,4b/6b,,,,,,,,,,
{24}
2-5[8:1],,,5-2[8:1],,,2-7[8:1],,,7-2[8:1],,,,,,,,,6,,,,,,
25,,,,6,,,,8,,,,47,,,,3,,,,1,,,,
7-4[8:1],,,4-7[8:1],,,7-2[8:1],,,2-7[8:1],,,,,,,,,3,,,,,,
25,,,,47,,,,36,,,,18,,,,,,27,,,,,,
2-5[8:1],,,5-2[8:1],,,2-7[8:1],,,7-2[8:1],,,,,,,,,6,,,,,,
25,,,,6,,,,8,,,,47,,,,3,,,,1,,,,
7-4[8:1],,,4-7[8:1],,,7-2[8:1],,,2-7[8:1],,,,,,,,,3,,,,,,
46,,,,35,,,,45,,,,2b/7b,,,,,,,,,,,,
7-4[8:1],,,4-7[8:1],,,7-2[8:1],,,2-7[8:1],,,2-4[8:1],,,,,,,,,,,,
25,,,,6,,,,8,,,,47,,,,3,,,,1,,,,
2-5[8:1],,,5-2[8:1],,,2-7[8:1],,,7-2[8:1],,,7-5[8:1],,,,,,,,,,,,
47,,,,25,,,,36,,,,18,,,,,,36,,,,,,
7-4[8:1],,,4-7[8:1],,,7-2[8:1],,,2-7[8:1],,,2-4[8:1],,,,,,,,,,,,
25,,,,6,,,,8,,,,47,,,,3,,,,1,,,,
2-5[8:1],,,5-2[8:1],,,2-7[8:1],,,7-2[8:1],,,7-5[8:1],,,,,,,,,,,,
4>5[8:4],,,,,,,,,,,,,,,,,,,,,,,,
{16}
57,,6,,4,,5,,,,24,,3,,4,,
57,,6,,3,,4,,,,4,,3,,2,,
1^4[8:1],,8,,7,,6^1[8:1],,5,,4,,3^6[8:1],,2,,
1,,8^3[8:1],,7,,6,,5,,,,34,,,,
24,,3,,5,,4,,,,,,57,,6,,
3,4,2,,4,,3,,,,5,,6,,7,,
8^5[8:1],,1,,2,,3^8[8:1],,4,,5,,6^3[8:1],,7,,
8,,1^6[8:1],,2,,3,,4,,,,56,,,,
1v3[8:2]/5v7[8:2],,,,,,,,,,,,26,,,,
48,,,,3-6[8:1]/7-2[8:1],,2-7[8:1]/6-3[8:1],,,,,,,,,,
3s7[8:4],,,,,,,,,,,,,,,,
15,,,,2-7[8:1]/6-3[8:1],,3-6[8:1]/7-2[8:1],,,,,,,,,,
1-4[8:1],,,,,,,,8-5[8:1],,,,,,,,
2h[8:2],,,,6,,3h[8:3],,,,,,5h[8:6],,,,
4h[8:4],,,,,,,,,,,,6,,3,,
45,,,,,,,,,,,,,,,,
5h[8:2],,,,4h[8:2],,,,3h[8:2],,,,2h[8:2],,,,
4h[8:2],,,,7h[8:2],,,,6h[8:2],,,,5h[8:2],,,,
4h[8:2],,,,3h[8:2],,,,2h[8:2],,,,3h[8:2],,,,
6h[8:2],,,,5h[8:2],,,,3h[8:2],,,,4h[8:2],,,,
5h[8:2],,,,4h[8:2],,,,5h[8:2],,,,6h[8:2],,,,
7h[8:2],,,,5h[8:2],,,,4h[8:2],,,,3h[8:8],,,,
6h[8:6],,,,,,,,,,,,,,,,
{24}
45,,,,45,,,,45,,,,2b/7b,,,,,,,,,,,,
{16}
26,,,,34,,,3,4,,4,,35,,,,
37,,,,56,,,6,5,,5,,46,,,,
26,,,,34,,,3,4,,4,,35,,,,
6,,5,,4,,5,,6,,5,,46,,,,
37,,,,56,,,6,5,,5,,46,,,,
26,,,,34,,,3,4,,4,,35,,,,
28,,1,,4,,5,,7p3[8:1],,,,2<3[8:4],,,,
2b,,,,,,,,,,,,,,,,
{24}
1-4[8:1],,,4-1[8:1],,,1-6[8:1],,,6-1[8:1],,,6-4[8:1],,,,,,,,,,,,
8-4[8:1],,,,3,,,,2,,,,1-5[8:1],,,,6,,,,7,,,,
8-5[8:1],,,5-8[8:1],,,8-3[8:1],,,3-8[8:1],,,3-5[8:1],,,,,,,,,,,,
28,,,,17,,,,36,,,,18,,,,,,36,,,,,,
1-4[8:1],,,4-1[8:1],,,1-6[8:1],,,6-1[8:1],,,6-4[8:1],,,,,,,,,,,,
8-4[8:1],,,,3,,,,2,,,,1-5[8:1],,,,6,,,,7,,,,
8-5[8:1],,,5-8[8:1],,,8-3[8:1],,,3-8[8:1],,,3-5[8:1],,,,,,,,,,,,
46,,,,35,,,,18,,,,3b/6b,,,,,,,,,,,,
8-5[8:1],,,5-8[8:1],,,8-3[8:1],,,3-8[8:1],,,4-1[8:1],,,,,,,,,,,,
5/1-5[8:1],,,,6,,,,7,,,,4/8-4[8:1],,,,3,,,,2,,,,
1-4[8:1],,,4-1[8:1],,,1-6[8:1],,,6-1[8:1],,,5-8[8:1],,,,,,,,,,,,
17,,,,28,,,,36,,,,18,,,,,,36,,,,,,
8-5[8:1],,,5-8[8:1],,,8-3[8:1],,,3-8[8:1],,,4-1[8:1],,,,,,,,,,,,
5/1-5[8:1],,,,6,,,,7,,,,4/8-4[8:1],,,,3,,,,2,,,,
1-4[8:1],,,4-1[8:1],,,1-6[8:1],,,6-1[8:1],,,5-8[8:1],,,,,,,,,,,,
4>5[8:4],,,,,,,,,,,,,,,,,,,,,,,,
{16}
4,,,,,,,,,,,,2,,,,
3,,,,5,,4,,5,,6,,5,,,,
5,,,,,,,,,,,,7,,,,
6,,,,4,,5,,4,,3,,4,,,,
4,,,,,,,,,,,,2,,,,
3,,,,5,,4,,5,,6,,5,,,,
25,,3,,5,,47,,6,,4,,15,,2,,
3,,48,,7,,6,,4,5,4,,2b/7b,,,,
6,,6,,5,,5,,4,,4,,,,2h[8:2],,
,,3,,3>4[8:32],,,,,,,,,,,,
,,,,,,,,,,,,,,,,
,,,,,,,,,,,,,,,,
,,,,,,,,,,,,,,,,
,,,,,,,,,,1-5[8:1],,1,,,,
,,,,,,,,,,,,,,,,
,,,,,,,,,,,,,,,,
E
Re:MASTER
- MASTER譜面の1^6[16:1]/8^3[16:1],→1^6[8:1]/8^3[8:1],、1-5[8:1],,,,7,,,,6,,,,→1-5[8:1],,,,6,,,,7,,,,の箇所の修正を行いました。 -- けもがみ (2026-05-05 17:48:14)
最終更新:2026年10月04日 08:05