EASY
BASIC
(190.0){1},
{2}1,1,
{1}2,
{1}3h[2:1],
{1}4h[2:1],
{2}5,5,
{1}6,
{1}7h[2:1],
{1}8b,,
{2}8,8,
{2}7,7,
{2}6,6,
{1}4h[2:1]/5h[2:1],
{2}4/5,4/5,
{4}4,4,4,,
{4}5,5,5,,
{4}4,5,4,,
{2}4,4,
{2}3,3,
{2}2,2,
{1}1h[2:1]/8h[2:1],
{2}1/8,1/8,
{4}1,1,1,,
{4}8,8,8,,
{4}1,8,1,,
{1}1-4[4:3],,
{1}1h[1:1]/8h[1:1],,
{1}8-5[4:3],,
{1}1h[1:1]/8h[1:1],,
{2}1/8,1/8,
{4}1/8,1/8,1b/8b,,
{4}1,1,1,,
{4}2,2,2,,
{4}3,3,3,,
{4}4,4,4,,
{1}5h[2:1],
{1}4h[2:1],
{1}4h[1:1]/5h[1:1],,
{4}5,5,5,,
{4}6,6,6,,
{4}7,7,7,,
{4}8,8,8,,
{1}1h[2:1],
{1}8h[2:1],
{1}1h[2:1]/8h[2:1],
{4}1,8,1b,,
{4}8,8,8,,
{4}7,7,7,,
{2}5/6,5/6,
{2}3/4,3/4,
{4}5,5,5,,
{4}4,4,4,,
{2}3/4,3/4,
{2}5/6,5/6,
{4}4,4,4,,
{4}3,3,3,,
{4}2,2,2,,
{1}1h[2:1],
{2}8,8,
{2}1,1,
{4}8,8,8,,
{4}1,1,1,,
{1}1/8,
{1}1/8,
{1}1/8,
{1}1/8,
{1}1h[2:1],
{1}8h[2:1],
{1}1-4[4:3]/8-5[4:3],,
{4}5b,5,5,,
{4}6,6,6,,
{4}7,7,7,,
{4}8,1,8,,
{1}1h[2:1],
{1}8h[2:1],
{1}1h[2:1]/8h[2:1],
{4}1/8,1/8,2b/7b,,
{4}3,3,3,,
{4}4,4,4,,
{4}5,5,4/5,,
{4}4,4,4/5,,
{4}5,5,5,,
{4}6,6,6,,
{4}7,7,7,,
{1}8h[2:1],
{1}1h[2:1],
{1}1b/8b,
E
ADVANCED
(190.0){1},
{4}4,3,4,3,
{4}5,6,5,6,
{4}4,3,4,3,
{4}5,6,5/6,,
{4}8,7,8,7,
{4}1,2,1,2,
{4}8,7,8,7,
{2}7h[2:1],8h[2:1],
{2}1h[2:1],2,
{2}3h[2:1],4,
{1}6^4[4:1],
{2}3h[2:1],4,
{1}3^5[4:1],
{2}6h[2:1],5,
{1}6^4[4:1],
{2}3h[2:1],4,
{2}4b/5b,3b/6b,
{4}7h[2:1],8,8,,
{4}2h[2:1],1,1,,
{4}7,7,8,8,
{2}2h[2:1],1,
{4}6h[2:1],5,5,,
{4}3h[2:1],4,4,,
{4}6h[4:1],5,3h[4:1],4,
{1}4-1[2:1]/5-8[2:1],
{4}2,3,4/5,,
{4}6,7,1/8,,
{4}7,8,2,1,
{2}1h[4:1]/8h[4:1],2/7,
{4}4,3,1/2,,
{4}8,7,5/6,,
{2}5h[4:1]/6h[4:1],3h[4:1]/4h[4:1],
{4}4/5,4/5,3h[4:1]/6h[4:1],,
{2}7h[4:1]/8h[4:1],1h[4:1]/2h[4:1],
{4}1/8,1/8,2b/7b,,
{4}7,8,7/8,7/8,
{4}1/2,1/2,3h[4:1]/8h[4:1],,
{4}2,1,1/2,1/2,
{4}7/8,7/8,1b/6b,,
{1}1-6[2:1]/2-5[2:1],
{1}7-4[2:1]/8-3[2:1],
{4}3,4,5,6,
{4}4/5,3/6,2b/7b,,
{4}3,4,3/4,3/4,
{4}5/6,5/6,4h[4:1]/7h[4:1],,
{4}6,5,5/6,5/6,
{4}3/4,3/4,2b/5b,,
{1}5-2[2:1]/6-1[2:1],
{1}3-8[2:1]/4-7[2:1],
{4}7,8,1,2,
{2}1h[4:1]/8h[4:1],2b/7b,
{4}3,3,4,4,
{4}5,5,6,,
{4}7,7,8,8,
{4}1,1,2,,
{4}2,2,1,1,
{4}8,8,7,7,
{2}7h[4:1]/8h[4:1],1h[4:1]/2h[4:1],
{4}1/8,1/8,2b/7b,,
{2}6h[2:1],5h[2:1],
{2}4h[2:1],3,
{2}2h[2:1],1h[2:1],
{2}8h[2:1],7,
{4}6h[2:1],5,5,,
{4}3h[2:1],4,4,,
{4}2h[2:1],1,1,,
{4}7h[2:1],8,8,,
{1}6h[1:1],
{1}5h[1:1],
{1}4h[1:1],
{2}3h[2:1],4,
{1}2h[1:1],
{1}1h[1:1],
{1}8h[1:1],
{2}7h[2:1],8,
{4}6,5,3/4,2/5,
{4}5/6,5/6,4h[4:1]/7h[4:1],,
{4}3,4,5/6,4/7,
{4}3/4,3/4,2b/5b,,
{1}5-2[2:1]/6-1[2:1],
{1}3-8[2:1]/4-7[2:1],
{4}2,1,8,7,
{4}1/8,2/7,3b/6b,,
{4}4,3,4,3,
{4}5,6,5,6,
{4}4,3,4,3,
{4}5,6,5/6,,
{4}8,7,8,7,
{4}1,2,1,2,
{4}8,7,8,7,
{1}6^1[2:1],
{1}2^5[2:1],
{1}6b,
E
EXPERT
(190.0){1},
{4}3,4,5,7/8,
{4}6,5,4,1/2,
{4}3/4,2/4,5/6,5/7,
{4}4/5,3/6,2b/7b,,
{4}6,5,4,2/8,
{4}3,4,5,1/7,
{4}5/6,5/7,3/4,2/4,
{4}1,1,,8,
{8},,1,,,8,8,,
{2}3h[2:1],4h[2:1],
{4}5h[2:1],,6,4/7,
{2}6h[2:1],5h[2:1],
{4}4h[2:1],,3,2/5,
{2}1h[2:1],8h[2:1],
{4}7,6,5,4,
{2}2h[4:1]/4h[4:1],5h[4:1]/7h[4:1],
{8},4/5,4/5,,2b/7b,,,,
{4}8/6h[4:3],5,8,5,
{4}8/7h[4:3],6,5,4,
{4}3/4,2/4,5/6,5/7,
{4}4/5,3/6,2/7,,
{4}8/2h[4:3],3,8,3,
{4}8/1h[4:3],2,3,4,
{4}7h[4:1],6,2h[4:1],3,
{4}7-4[4:1]/8-3[4:1],,,2b,
{1}7/5>1[2:1],
{4}8h[4:1],7h[4:1],6h[4:1],5,
{1}4/3-8[4:1],
{1}5/6-1[4:1],
{1}3/1<5[2:1],
{4}4h[4:1],3h[4:1],2h[4:1],1,
{2}1h[4:1]/3h[4:1],6h[4:1]/8h[4:1],
{4}1/8,2/7,3b/6b,,
{2}2h[4:1]/4h[4:1],5h[4:1]/7h[4:1],
{4}4/5,3/6,2b/7b,,
{8}7,7,8,,1/2,,5/6,,
{1}1p4[8:3]/8^5[8:3],
{8}2,2,1,,3/4,,7/8,,
{1}4^1[8:3]/5p8[8:3],
{8}2h[8:3],,,3h[8:3],,,4,,
{8}7h[8:3],,,6h[8:3],,,5,,
{4}4h[4:3],3,2,1,
{4}1/4,5/8,2b/7b,,
{8}3,3,4,,1/2,,5/6,,
{1}3^8[8:3]/4p7[8:3],
{8}6,6,5,,7/8,,3/4,,
{1}5q2[8:3]/6^1[8:3],
{8}3h[8:3],,,4h[8:3],,,5,,
{8}8h[8:3],,,7h[8:3],,,6,,
{4}4/5,3/6,2/7,1/8,
{8},1,,8,8,,,,
{4}5,5/6,5/7,5/8,
{4}1/5,5/8,5/7,5/6,
{4}4,3/4,2/4,1/4,
{4}4/8,1/4,2/4,,
{4}5,5/6,5/7,5/8,
{4}4,3/4,2/4,1/4,
{8}2,2,1,,7,7,8,,
{4}1/8,2/7,3b/6b,,
{2}8-6[8:1],2-4[8:1],
{2}7-5[8:1],1-3[8:1],
{4}4h[4:1],5h[4:1],6h[4:1],7h[4:1],
{4}8,1,2b/7b,,
{4}8,7/8,6/8,5/8,
{4}1,1/2,1/3,1/4,
{1}5<2[2:1],
{4}3/4,2/5,1b/6b,,
{1}5h[1:1],
{1}3h[1:1],
{1}1h[1:1],
{2}3h[2:1],4,
{1}3h[1:1],
{1}6h[1:1],
{1}8h[1:1],
{4}6h[1:1],5,4,3h[4:1],
{4},1b/8b,4/5,7/8,
{1}6q4[16:7]/7>3[16:7],
{4}4/5,7/8,4/5,1/2,
{1}2<6[2:1]/3p5[2:1],
{8}2h[8:3],,,4h[8:3],,,5,,
{8}7h[8:3],,,5h[8:3],,,4,,
{4}3/4,1/2,7/8,5/6,
{8},8b,,1b,1b,,,,
{4}2,3,4,5/7,
{4}8,1,2,3/5,
{4}2/4,2/4,5/7,5/7,
{4}4/5,3/6,2b/7b,,
{4}3,4,5,7b/8b,
{4}6,5,4,1b/2b,
{4}2/3,2/3,6/7,6/7,
{1}8h[4:7],
{1}1h[4:3],
{1}2b/7b,
E
MASTER
(190.0){1},
{4}7/8,7/8,1/2,1/2,
{8}5/6,,4/5,,3/4,,2,2h[4:1],
{8},1,2,1,2,1/3h[4:1],,7h[4:1],
{8},8,7,8,1/6,5,4,3,
{4}1/2,1/2,7/8,7/8,
{8}3/4,,4/5,,5/6,,7,7h[4:1],
{8},8,7,8,7,6/8,1/5,2/4,
{8}3h[4:3],,4,4,,4,4,,
{8}8h[4:3],,7,7,,7,7,,
{8}2h[4:1],,3,4h[4:1],,3,2,2,
{8}1h[4:1],,8h[4:1],,7h[4:1],,6,5h[4:1],
{8},6,7h[4:1],,5,4h[4:1],,6,
{1}3V51[8:3]/7V51[8:3],
{8}1-5[8:1],,8-6[8:1],8,,2-4[8:1],2,,
{8}8h[8:3],,1h[1:0],1h[1:0],,,2/7,,
{8}3,4,2/5,,6,5,4/7,,
{8}5h[2:1],4b,4b,4b,4b,,2/7,,
{8}1-5[8:1],,8,8-4[8:1],,2,2^5[4:1],,
{8}5^8[4:1],,8^3[4:1],,4,,5,5h[4:1],
{8},6,5,4h[4:1],,3^6[8:1],,1,
{8}1-5[8:1],,8,8h[8:3],,,1,,
{8}2-5[8:1],2,8,8-4[8:1],,1,1,,
{8}2/6,2q6[8:1]/6q2[8:1],,,,,1/8,,
{8}8-4[8:1],8,1-3[16:3],1,7-5[8:1],7,4,4h[8:5],
{8},5b,5b,5b,5b,,2/7,,
{8}3qq5[16:5],,,6,6,,1/8,,
{8}3qq5[16:5],,,6,6,,1/8,,
{8}6pp4[16:5],,,3,3,,1/8,,
{8}6pp4[16:5],,,3,3,,1/8,,
{8}2pp8[16:5],,,6,6,,1/7,,
{8}2pp8[16:5],,,6,6,,1/7,,
{2}2/8b,1b/7,
{16}2/8b,,,,1b/7,,,,2/8b,,,4,5,,4/6,,
{2}3/7b,1b/5,
{16}3/8b,,,,1b/6,,,,3/8b,,4,5,4,,3/6,,
{8}2-5[8:1],2,8,8,7-4[8:1],7,1,1,
{8}2,2q5[8:3],8,8h[8:3],,,,,
{8}7-4[8:1],7,1,1,2-5[8:1],2,8,8,
{8}7,7p4[8:3],1,1h[8:3],,,,,
{4}1>5[4:1],5<1[4:1],1>5[4:1],5<1[4:1],
{4}1>5[4:1],5<1[4:1],1>5[4:1],5<3[8:3],
{8}8h[8:7],,,,,4>5[8:5],4,4,
{4},,,2/7,
{8}6-1[8:1],6,4,4,3-8[8:1],3,5,5,
{8}6,6pp1[8:3],4,4h[8:3],,,,,
{8}3-8[8:1],3,5,5,6-1[8:1],6,4,4,
{8}3,3qq8[8:3],5,5h[8:3],,,,,
{4}5<1[4:1],1>5[4:1],5<1[4:1],1>5[4:1],
{4}5<1[4:1],1>5[4:1],5<1[4:1],1>8[4:3],
{1}4h[4:3],
{8},4/5,,4,5,,2b/7b,,
{4}2/1qq6[2:1],3,4,5,
{4}5qq2[2:1],6,7,8,
{8}8,4,7,3,6,2,5,1,
{8}6,2,7,3h[4:1],,4,5,6,
{4}7qq4[2:1],1,2,3,
{4}3qq8[2:1],4,5,6,
{8}6,6-1[8:1],,5-2[8:1],,6-8[8:1],,5-3[8:1],
{8},6-1[8:1],,5,5,,2/7,,
{8}6,6,5,5,4,4,3,3,
{8}4,4,5,5,6,6,5,5,
{8}4,3,2,1,8,7,6,4/5,
{16},4,5,4,5,4,5,4,5,4,5,4,,,2/7,,
{8}1h[4:1],8,7,6h[4:1],2,3,4h[4:1],5,
{8}6,7h[4:1],3,2,1h[4:1],8,7,6,
{16}1,2,3,4,5,6,7,8,1,2,3,4,5,6,7,8,
{16}1,2,3,4,5,6,7,8,1/5,,,,3/4,,,,
{1}1b/7,
{1}2/8b,
{1}1b/6,
{2}3/8b,1b/5,
{1}5/7b,
{1}2b/4,
{1}4/8b,
{8},5/6,5/6,5/6,4/7,4/7,3/8,3/8,
{8}1-6[8:1]/2-5[8:1],,1b/2b,,7-4[8:1],7,8,8,
{8}2,2qq5[8:3],8,8h[8:3],,,,,
{8}6^1[8:1],6,5,5,3^8[8:1],3,4,4,
{8}6,6qq1[8:3],4,4h[8:3],,,,,
{4}4b>8[4:1],8b<4[4:1],4b>8[4:1],8b<4[4:1],
{4}4b>8[4:1],8b<4[4:1],4b>8[4:1],8b<1[4:3],
{1}5h[4:3],
{8},1/8,,1,8,,2b/7b,,
{4}1/3,1/3,6/8,6/8,
{8}2/4,,3/5,,4/6,,7,7h[4:1],
{8},8,7,6^1[8:1],5,4,,2h[4:1],
{8},1,2,1,2^5[8:1],1,8,7,
{4}6/8,6/8,1/3,1/3,
{8}5/7,,4/6,,3/5,,2,2h[4:1],
{8},1,2,1,2,1/3,4/8,5/7,
{8}6h[4:3],,5,5,,5,5,,
{8}1h[4:3],,2,2,,2,2,,
{1}3bqq5[4:7]/6bpp4[4:7],,,
E
Re:MASTER
最終更新:2026年10月04日 08:05