アットウィキロゴ

囲い無き世は一期の月影

アーティスト 豚乙女

BPM EASY BASIC ADVANCED EXPERT MASTER Re:MASTER
172 2 5 8+ 10+ 12+ -

EXPERT MASTER Re:MASTER
譜面制作者 はっぴー rioN -

EASY


BASIC

(102.0){1},
{1}1,
{1}1,
{1}2,
{1}2,
{1}3,
{1}3,
{1}4,
(172.0){1}4-1[4:3],,
{2}8,8,
{2}7,7,
{2}6,6,
{4}5,5,5,,
{2}4,4,
{2}3,3,
{2}2,2,
{4}1,1,1,,
{4}8,8,8b,,
{1}1h[2:1],
{2}1,1,
{1}2h[2:1],
{1}1/2,
{1}8h[2:1],
{2}8,8,
{1}7h[2:1],
{1}7/8,
{2}5/6,5/6,
{4}6,6,6,,
{2}3/4,3/4,
{4}3,3,3,,
{2}4/6,4/6,
{4}6,6,6,,
{2}3/5,3/5,
{1}3h[1:1]/5h[1:1],,
{4}5,5,5,,
{4}6,6,6,,
{4}7,7,7,,
{4}1/8,1/8,1/8,,
{4}1,1,1,,
{4}2,2,2,,
{4}3,3,3,,
{1}4b/5b,
{1}4-1[4:3],,
{1}8-5[4:3],,
{4}3,3,3/4,,
{4}4,4,3/4,,
{4}2,2,1/2,,
{4}1,1,1/2,,
{4}7,7,7/8,,
{4}8,8,7/8,,
{4}6,6,5/6,,
{4}5,5,5/6,,
{1}4b/5b,
{1}4-1[4:3],,
{1}5-8[4:3],,
{4}4,4,3,3,
{4}2,2,1/8,,
{4}7,7,6,6,
{1}4h[2:1]/5h[2:1],
{4}6,6,7,7,
{4}8,8,1/2,,
{4}3,3,4,4,
{4}5/6,5/6,5/6,,
{4}3,3,2,2,
{4}1,1,7/8,,
{4}6,6,5,5,
{1}3h[2:1]/4h[2:1],
{4}4,4,5,5,
{4}6,6,7,,
{4}5,5,4,4,
{4}3,3,2,,
{4}1,1,8,8,
{4}7,7,6,,
{4}8,8,1,1,
{1}2-6[4:3],,
{1}7-3[4:3],,
E

ADVANCED

(102.0){1},
{2}2,3,
{2}4,5,
{2}6,7,
{4}8,8,1/8,,
{2}7,6,
{2}5,4,
{2}3,2,
(172.0){1}1b/8b,,
{4}2,3,4,5,
{4}6,6,6,,
{4}7,6,5,4,
{4}3,3,3,,
{4}1,2,3,4,
{4}5,5,6,,
{4}8,7,6,5,
{4}4,4,3,3,
{4}2,2,1b,,
{4}1,2,3,4,
{4}5,5,4/6,,
{4}8,7,6,5,
{4}4,4,3/5,,
{4}4,3,2,1,
{4}8,8,1/7,,
{4}5,6,7,8,
{4}1,1,2/8,,
{2}1-4[4:1],8-5[4:1],
{4}3h[4:3],,4,4,
{4}6h[4:3],,5,5,
{4}1/8,1/8,3/6,,
{2}5-8[4:1],4-1[4:1],
{4}7h[4:3],,8,8,
{4}2h[4:3],,1,1,
{1}8z4[4:3],
{4}1b,,8,7,
{4}6h[4:1],5,3h[4:1],4,
{4}4/5,4/5,5/6,,
{4}7,6,5,4,
{4}3/4,3/4,1/8,,
{4}3h[4:1],4,6h[4:1],5,
{4}4/5,4/5,3/4,,
{4}2,3,4,5,
{1}4^1[2:1]/5^8[2:1],
{1}2V46[2:1],
{1}7V53[2:1],
{1}1>8[4:5],,
{4}3,4,2/5,,
{4}6,5,4/7,,
{4}8,7,6,5,
{4}4,3,2,1,
{4}7,8,1/6,,
{4}2,1,3/8,,
{4}1,2,3,4,
{4}5,6,7,8,
{4}1/8,1/8,1/8,1/8,
{2}2b-5[4:1],1-6[4:1],
{4}3,4,5,,
{2}7-4[4:1],8-3[4:1],
{4}6,5,1b/8b,,
{2}1pp3[4:1],8qq6[4:1],
{4}1,2,3,4,
{4}8,7,6,5,
{4}1b,,2/7,1/8,
{4}2h[4:1],4,7h[4:1],5,
{8}3/6,,4,5,4,,,,
{4}2h[4:1],3,7h[4:1],6,
{4}4/5,3/6,1b/8b,,
{4}7h[4:1],5,2h[4:1],4,
{8}3/6,,5,4,5,,,,
{4}7h[4:1],6,2h[4:1],3,
{1}4^1[2:1]/5^8[2:1],
{4}7,7/8,2,1/2,
{4}7,6/8,1/5,2/4,
{4}3,3/4,6,5/6,
{4}3,3/4,5/6,1/8,
{4}2,1/2,7,7/8,
{4}2,1/3,4/8,5/7,
{4}6,5/6,3,3/4,
{4}5/6,5/6,1/8,1/8,
{4}3/4,3/4,1/8,1/8,
{4}5/6,3/4,1/8,2/7,
{1}8b/1b-4[4:3]*-6[4:3],,
E

EXPERT

(102.0){1},
{2}3h[2:1],4h[2:1],
{2}5h[2:1],6,
{2}6h[2:1],5h[2:1],
{2}4h[2:1],3,
{2}3h[2:1],1h[2:1],
{2}8h[2:1],6,
{2}6h[2:1],8h[2:1],
(172.0){1}1>6[2:1],
{8}3,3,6,6,4/5,,3/6,,
{8}8/7^4[8:1],,,,3,3,2/4,,
{8}6,6,5,7,4,6,5,,
{8}1/2^5[8:1],,,,6,6,5/7,,
{8}3,3,4,2,4,3,5,,
{8}1/2^5[8:1],,,,6,6,5/7,,
{8}3,3,4,2,5,3,4,,
{8}8/7^4[8:1],,,,3,3,2/4,,
{4}3/4,2/5,5/6,4/7,
{4}4/5,2/7,1/8,3/6,
{2}7h[2:1],6,
{4}3/4,3/5,3/6,,
{2}6^3[4:1],2q7[4:1],
{1}8<3[2:1],
{2}2h[2:1],3,
{4}5/6,4/6,3/6,,
{2}3^6[4:1],7p2[4:1],
{2}1b,4/5,
{4}6h[4:1],5,2h[4:1],1,
{4}3/4,7^4[8:3]/8p3[8:3],,,
{4}2h[4:1],3,7h[4:1],6,
{4}1/8,2/7,4/5,,
{4}3h[4:1],4,7h[4:1],8,
{4}1/2,3^8[8:3]/4p7[8:3],,,
{4}6h[4:1],5,3h[4:1],4,
{1}1^4[2:1]/8^5[2:1],
{1}2b/7b,
{2}1-5[8:1]/2-4[8:1],4-8[8:1]/5-7[8:1],
{16}1/8,,,1/8,,,2/7,,2/7,,,,2,,2,,
{8}1,,6,6,5,,4/7,,
{2}3-8[8:1]/4-7[8:1],1/6,
{2}7-5[8:1]/8-4[8:1],4-2[8:1]/5-1[8:1],
{16}1/8,,,1/8,,,2/7,,2/7,,,,7,,7,,
{8}8,,3,3,4,,2/5,,
{1}5/6<3[2:1],
{8}2h[16:3]/4h[16:3],,,3h[16:3]/4h[16:3],,,4/5,,
{8}5h[16:3]/7h[16:3],,,5h[16:3]/6h[16:3],,,4/5,,
{1}3/6z2[1:1],
{8},,,,,,,8h[8:3],
{8},7,7,,3/4,2/5,,1h[8:3],
{8},2,2,,5/6,4/7,,,
{4}2-4[8:1],8-6[8:1],1-5[8:1],8-4[8:1],
{8}1-3[8:1],,7-5[8:1],,8b,,,4h[8:3],
{8},3,3,,7/8,1/6,,5h[8:3],
{8},6,6,,1/2,3/8,,4^1[4:1]/5^8[4:1],
{4},,2/7,4/5,
{4}7h[4:1],8h[4:1],1h[4:1],2h[4:1],
{1}3>6[2:1],
{2}4h[2:1],5,
{2}5h[2:1],4,
{2}3h[4:3],6h[4:1],
{4}4/5,4/5,2b/7b,,
{4}3h[4:1],4,6h[4:1],5,
{16}1/8,,,1/8,,,3/6,,3/6,,,,6,,6,,
{8}5/7,,3,3,2/4,,4/5,,
{1}2-6[8:3]/7-3[8:3],
{2}7-4[8:1]/8-3[8:1],3-8[8:1]/4-7[8:1],
{16}1/2,,,1/2,,,4/7,,4/7,,,,6,,6,,
{8}5/7,,2,2,1/3,,3/4,,
{4}5-2[8:1]/6-1[8:1],,3/8,4/5,
{2}1-6[8:1]/2-5[8:1],5-2[8:1]/6-1[8:1],
{16}7/8,,,7/8,,,2/5,,2/5,,,,3,,3,,
{8}2/4,,7,7,6/8,,4/5,,
{1}2q6[2:1]/6q2[2:1],
{8}8/7^4[8:1],,,,3,3,4,2,
{8}7,7,8,6,1,7,8,,
{8}1/2^5[8:1],,,,6,6,5,7,
{8}2,2,1,3,8,2,1,,
{8}1/2^5[8:1],,,,6,6,5,7,
{8}2,2,1,3,8,2,1,,
{8}8/7^4[8:1],,,,3,3,4,2,
{8}6,6,5/7,,3/4,,4h[4:1]/8h[4:1],,
{4},4/5,5/6,1h[4:1]/5h[4:1],
{4},4/5,3/4,4/8,
{8}5h[8:29]/2bz6[4:9],,,,,{1},,,,
E

MASTER

(102.0){4},,8,7,
{4}6h[4:1],5,3h[4:1],4,
{16}1/8,,,1/8,,,2/7,,4/5,,,,3,,4,,
{8}3,,7,5,6,2,4,3,
{4}5/6,3/4,1/8,,
{4}3h[4:1],4,6h[4:1],5,
{16}1/8,,,1/8,,,2/7,,4/5,,,,6,,5,,
{8}6,,2,4,3,7,5,6,
(172.0){4}1b,1,1,1,
{16}2/7,,1,8,1,,2/7,,3/6,,4/5,,6,5,6,,
{16}3,4,3,,5,,6,,7,,6,,5,,4,,
{8}3/5,4,3,2,1/3,2,3,4,
{16}6,5,6,,4,,3,,2,,3,,4,,5,,
{8}4/6,5,6,7,1/8,2/7,3/6,,
{16}3,4,3,,2/5,,1,,2,,3,,4,,5,,
{8}4/7,6,5,7,1/8,2,3,4,
{16}6,5,6,,4/7,,8,,7,,6,,5,,4,,
{8}5/7,6,5,2/4,3,4,6/8,7,
{8}6,1/3,2,3,4/5,,2b/7b,,
{8}1/2,,3h[8:1],4h[8:1],5h[4:1],,6,,
{4}6/8h[4:1],1,2/7,5,
{4}1V35[4:1],5V71[4:1],1>5[4:1],5-1[4:1],
{4}1<5[4:1]*>5[4:1],,,2/6,
{8}7/8,,6h[8:1],5h[8:1],4h[4:1],,3,,
{4}3/1h[4:1],8,2/7,4,
{4}8V64[4:1],4V28[4:1],8<4[4:1],4-8[4:1],
{4}8<4[4:1]*>4[4:1],,,3/7,
{4}2^5[8:1],2,1^4[8:1],1,
{8}6,7,8,1,2/8,3/7,4/6,,
{4}5-1[8:1],1-5[8:1],5-1[8:1],1,
{8}2,2,3,3,4v2[8:1]/8v6[8:1],,,,
{4}7^4[8:1],7,8^5[8:1],8,
{8}3,2,1,8,1/7,2/6,3/5,,
{8}4-8[8:1],,8-4[8:1],,4-8[8:1],,7,7,
{1}2>6[2:1]/6<2[2:1],
{4}3b/7b,,1/8,4/5,
{2}3qq1[8:1]/7qq5[8:1],2pp4[8:1]/6pp8[8:1],
{16}5/7,,,2/4,,,3/6,,1/8,,,,8,,1,,
{8}2^5[8:1],,1,8,7^4[8:1],8,1,2,
{4}3-8[8:1],3/4-7[8:1],4b/5b,,
{2}2pp4[8:1]/6pp8[8:1],3qq1[8:1]/7qq5[8:1],
{16}2/4,,,5/7,,,3/6,,1/8,,,,1,,8,,
{8}7^4[8:1],,8,1,2^5[8:1],1,8,7,
{1}6b<3[2:1],
{16}5/7,,,5/6,,,2/4,,,3/4,,,5,,4,,
{16}2/5,,,3/4,,,4/7,,,5/6,,,4,,5,,
{1}3>5[4:5]/6<4[4:5],
{8},,,,,,,1/6h[4:1],
{16},,5,,4/7,,3/8,,2,1,2,,,,8/3h[4:1],,
{16},,4,,2/5,,1/6,,7,8,7,,,,1/8,,
{16}7,6,5,2,3,4,6,5,4,,2,,1,,8/3h[4:1],,
{8},4,2/5,1/6h[4:1],,5,,3/8,
{16},,4,,3/5,,6,,4/8,3/7,2/6,,,,1/5,,
{16},,5,,4/6,,3,,1/5,2/6,3/7,,,,4/8,,
{16},,2,,3,,4,,8,1,8,,7,,6,,
{8}5,5,6/7,6/7,4,4,2/3,2/3,
{16}1/8,,1/8,,2/7,,2/7,,1,8,1,8,1,8,1,8,
{8}1b,2,3,4,,7,6,5,
{8},4,5,4,,6,3,,
{8}1/8,,6,4,8,3,5,1,
{4}5/6,3/4,1b/8b,,
{2}2q6[8:1]/6q2[8:1],3p7[8:1]/7p3[8:1],
{16}2/4,,,5/7,,,3/6,,1/8,,,,8-4[8:1],,1/7,,
{8}8,,1/6,2/5,3/4,1/2,3/8,4/7,
{4}5b/6b<3[2:1],,5,4,
{2}3/2-5[8:1]*-7[8:1],6/7-2[8:1]*-4[8:1],
{16}5/7,,,2/4,,,3/6,,1/8,,,,1,,8,,
{8}7qq6[8:1],,8,1,2pp3[8:1],1,8,7,
{4}6-1[8:1],6/5-2[8:1],4b/5b,,
{2}2/6-1[16:1]*-3[16:1],7/3-6[16:1]*-8[16:1],
{16}2/4,,,5/7,,,3/6,,1/8,,,,8,,1,,
{8}2pp3[8:1],,1,8,7qq6[8:1],8,1,2,
{1}3b>6[2:1],
{16}7,8,7,,1/6,,7,,3/8,,2,,4/5,,3/6,,
{8}1/8,2,1/3,2,1/8,7,6/8,7,
{16}2,1,2,,3/8,,2,,1/6,,7,,4/5,,3/6,,
{8}7,6/8,2,1/3,4-1[8:1]/5-8[8:1],3/6,4/5,,
{16}2,1,2,,3/8,,2,,1/6,,7,,4/5,,3/6,,
{8}4/5,6,5/7,6,4/5,3,2/4,3,
{16}7,8,7,,1/6,,7,,3/8,,2,,4/5,,3/6,,
{8}4/5,3/6,2/7,,8/1-5[8:1],,1/3,,
{16}4,,3/8,,2,1,2,,1/8-4[8:1],,,,6/8,,,,
{16}5,,1/6,,7,8,7,,8/1-4[8:1],,,,3/1-6[8:1],,,,
{1}1/8<1[8:27],,,
{8},,,,,{16}8b-4[16:1],,,,,,
E

Re:MASTER


名前:
コメント:

タグ:

+ タグ編集
  • タグ:
最終更新:2026年10月04日 08:15