BASIC
ADVANCED
EXPERT
(157)
{1},
{4}3b/5h[4:3],,,4q5[4:3],,,,,6h[4:3],,,5,5,5/7p4[4:3],,,
,,3,3,3/4q6[2:1],,,,,56,45,3-7[2:1]/4-8[2:1],,,,7x/8x,
1hx[8:11]/6hx[8:11],,,,,,,5x/6x,{8}4b/7b,,,,2x/5x,,,1hx[8:7]/4hx[8:7],{1},
{8}1b/4b,,,,2x/5x,,,4hx[8:7]/7hx[8:7],{1},{8}4b/7b,,,,2x/5x,,,1h[2:1]/4h[2:1],,,,,,1,1,,
{4}3x/7h[4:7],,4,4,5,5,6,8,2h[2:3]/6,,4,4,3,3,1,12,
{2}3h[4:1]/4h[4:1],5h[4:1]/6h[4:1],7h[4:1]/8h[4:1],1h[4:1]/2h[4:1],
{4}12,78,1V38[4:3]/6V47[4:3],,,,,1x/6x,
{2}2h[4:1]/5h[4:1],3h[4:1]/4h[4:1],5h[4:1]/6h[4:1],{4}56,4x/7x,
{8}2,2,{4}4,34,56,78,12,38,38,{8}7,7,{4}5,65,43,21,87,61,61,
{8}8,8,{4}2,34,56,78,16,12,38,{8}6,6,{4}5,4V26[4:3]/7V15[4:3],,,,,4x/7x,
1,{8}2,2,4,4,{4}3,46,18,35,{8}2,2,7,7,5,5,{4}6,38,{8}1x/7x,1x/7x,{4}1x-5[8:1]/7x,,4x/6x,
{8}7,7,5,5,{4}6,17,34,28,56,34,{8}12,12,{4}12,1pp4[4:3]/8qq5[4:3],,,,,2b/7b,
{2}3h[1:2]/6,,B4,B2,8h[1:2],B5,B7,C,
{4}2,2,3,34,6,56,3,24,{8}1,1,8,8,{4}1>8[4:3],,,,,3x/6x,
45,78,46,12,67,34,{8}12,38,{4}47,47,12,34,78,46,23,{8}78,16,{4}25,
47,56,12,43,67,12,{8}34,25,16,,7,7,{4}8,16,{8}34,34,,45,,56,,37,3b/7b,,
{4}5^8[8:1],3,4x/8x,37,1/2h[2:1],3,1,35,4^1[8:1],6,5x/1x,4x/7x,7h[8:1]/8h[8:1],1h[8:1]/8h[8:1],1h[8:1]/2h[8:1],3b/8b,
6^1[8:1],5,4x/8x,2x/6x,34,12,67,34,46,28,3xqq8[4:3]/7xqq4[4:3],,,,,1x/5x,
3b/7hx[2:3],,5,5,6,6,8,8,1hx[2:3]/6b,,4,4,3,3,4-8[8:1],,
2hx[4:1],1,7h[4:1],6,3h[4:1],4,6h[4:1],5,{8}7,7,2,2,{16}8,1,8,1,8,1,8,1,{4}8w4[4:1],,,2x/6x,
7b-5[8:1],8-2[8:1],7-3[8:1],8-4[8:1],7-3[8:1],1^4[8:1],8^5[8:1],2^5[8:1],
1-7[8:1],2-4[8:1],1-5[8:1],2-6[8:1],8-4[8:1],3-7[8:1],5,2b/8b,
3-8[8:1]/7,4-7[8:1],2-5[8:1],1x,7-4[8:1],8-3[8:1],6-1[8:1],4x,
{8}2x/8x,2x/8x,{4}3b/7b,5pp1[4:3]*qq1[4:3]/6,,,,,
{1}3b/7b,,,,,
E
MASTER
(157)
{1}Chf[1:1],
{4},1x/8x,2,{8}3,3qq5[4:3],,6h[8:7],{4},,,,7,18,{8}2,2,,3/6p4[8:5],,2h[8:3],,,,2,
{2},{8}5,3,6,4q5[8:5],,7h[1:1],{4},,,{8},6,5,4,3h[4:1],,4>5[4:3],4,{4},,,{8}1,1,
3b/7b,46,46,,5h[4:1],,3,35,,6,5,47,,34,25,,1b/7b,8,8,,5/7b,6,4,3/7b,,2,1,38,,78,16,,
2b/4,3,45,,5/7b,,18,2b/7b,,3,4,25,,56,47,,2b/8b,1,1,,2b/4,3,5,2b/6,,7,8,16,,12,3/8-4[8:1],,
18,,3,3,4h[4:1],,2,,3,3,4h[4:1],,5,,1-5[8:1],,18,,6,6,5h[4:1],,7,,6,6,5h[4:1],,4,,7-5[8:1],7,
8,,2-4[8:1],2,1,,7-4[8:1],7,8,,2-5[8:1],2,1,,7-3[8:1],7,
{4}2-4[8:1],2/8-6[8:1],1-5[8:1]/8,1/8<1[2:1],4h[8:7]/8,,,{8}8,8,
,E1,C,E5,E3,E4,E7,E6,B2,B4,B7,B5,E1,C,E4/E5/E6,,
1x/8x,6,2x/4,8,3x/5,8,4x/6,8,5/7x,8,4/6x,8,3/5x,8,2/4x,{16}8,1,
{8}8x,3,5/7x,1,4/6x,1,3/5x,1,2x/4,1,3x/5,1,4x/6,{16}2,1x,2x,,7,8,
{8}7x,2,4/6x,1,3x/5,8,5/7x,1,2x/4,8,6x/5,1,3x/4,8,4x/5x,{16}27,27,
{8},15,48,,17,2-6[8:1]/6,35,26,,17,45,28,,27,2z6[8:1]/7s3[8:1],,
{4},4x/5x,{16}2,4,3,,7,5,6,,1,4,3,,8,5,6,4,{8}4,35,26,{16}1,8,
{8}1x-5[8:1],78,1,6,{16}7,8,7,,2,1,2,,{8}7-3[8:1]/3,46,37,{16},1,{8}1,46,{16}8,2,8,2,
{8}8x-4[8:1],12,8,3,{16}2,1,2,,7,8,7,,4,5,{8}4,2-5[8:1]/7-4[8:1],1x/8x,2x/7x,,{16}E1,E7,E3,E5,
{8},12,38,,7,8,16,{16}C,7x,C,8x,C,1x,C,2x,{8}C,,18,2b/7b,,
45,,4/E7,,3/E5,3,E7,2,E5,1h[8:7],E7,,E5,,E7,,E5,,E3/6,,E5/7,,E3/8,8,E5,7,E3,6,Ch[8:1],,8h[8:1],,
2b/6b,35,35,,18,,46,46,,1,28,37,,26,26,,8,17,26,3,47,6,2/5<4[4:3],1,{1},
{4}1V35[8:1]/5h[8:1],1b/7-3[8:1],5-1[8:1]/7,5/7-5[8:1],1V35[8:1]/7,1/7-1[8:1],5-1[8:1]/7,5/7-3[8:1],
1V35[8:1]/7,1/7-1[8:1],5-1[8:1]/7,5/7-5[8:1],1V35[8:1]/7,1/7-3[8:1],5w1[8:1]/7,5,
{8}46,37,{4}2/8V64[8:1],2-6[8:1]/8,2/4-8[8:1],2-4[8:1]/4,2/8V64[8:1],2-8[8:1]/8,4-8[8:1]/2,
2V46[8:1]/4,12,{8}8-4[8:1],2-6[8:1],8,2b,,1^4[8:1]/8^5[8:1],27,18,,26,3-8[8:1]/7-4[8:1],,
{4},2b/6b,{8}4,17,5,2-5[8:1]/8,,2/6-1[8:1],7,46,,45,{16}1/8-4[8:1],27,36,,
{8}8b,2,1,8,17,2-6[8:1]/6,35,2x-4[8:1]/6x-8[8:1],,2x-8[8:1]/6x-4[8:1],,2xV48[8:1]/6xV84[8:1],,2x/6x,Cf,,
,26,26,,34,8,5<4[8:3]/6,1,Cf,,,,36,27,{12}18,18,18,
{8}2-5[8:1]/7-4[8:1],36,27,,1^4[8:1],8^5[8:1],1,8,,34,18,5/6V47[8:1],,4,2-6[8:1],,
{4}2b/8hx[2:3],,7,6,{8}5,5,{4}5,4-1[8:1],7-3[8:1],1hx[2:3],{8}2,2,2,,3,,4,4,4,,5-8[8:1],,2-6[8:1],,
7hx[4:1],,5,4,6h[4:1],,5,6,3h[4:1],,4,5,2h[4:1],,4,3,
{8}6h[8:1],5,3h[8:1],4,7h[8:1],6,2h[8:1],3,{16}E1,E8,E7,E6,E5,E4,E3,E2,{4}E1,1b/8b,
{16}6,5,7,,7,8,,16,,2,4,,4,3,,26,,7,5,,5,6,,37,,1,8,,8,7,6,5,
2,1,2,,3,4,,25,,7,5,,5,6,,47,,3,4,,2,1,,38,,5,4,,{4}2-5[8:1]/6-1[8:1],
26,{16}7,8,7,8,,4,5,,2,1,2,1,,5,4,,1,8,2,7,,45,45,,{24}7x,6,5,2x,3,4,
{8}8x-4[8:1],2x/6x,8b,,2<3[2:1],8<1[2:1],6>7[2:1],4>5[2:1],{4},,,
{1}B1/B4/B5/B8/E1/E5/Cf,,,,
E
Re:MASTER
最終更新:2026年03月31日 19:41