アットウィキロゴ

うまうま

(164){1},
{16}27,,,1,,,1,,{4},8,
,7,,6,
{16}7,,,7,,,7,,{4},8,
,1,,2,
{16}12,,,18,,,8/7^2[8:3],,{4},,
,,6,6,
{16}5,,,5,,,5,,{4},4^7[8:3],
,,,,
6h[2:3]/7,8,,1,
,2,,27,

(165){16}
28,,1,8,,8,7,,7,6,,6,5,,4,,
46,,5,4,,4,3,,3,2,,2,1,,8,,
18,,7,6,,6,5,,5,4,,4,3,,45,,
56,,6,7,,7,8,,8,1,,1,2,,1,,
17,,8,1,,1,2,,2,3,,3,4,,5,,
35,,4,5,,5,6,,6,7,,7,8,,1,,
18,,2,3,,3,2,,4,5,,5,6,5,6,,
34,,3,2,,2,1,,1,8,,8,7,,8,,

{4}28,17,28,17,
{8}28,7,,18,,7,6,7,
{4}45,67,23,78,
{8}12,3,,18,7,6,5,4,
{4}34,56,12,78,
23,67,34,{8}56,45,
{4}56,67,23,78,
12,28,17,28,

(164.5){8}
6,67,,24,3,24,,27,
1,1/8b,,7/6b,,18,,67,
2,12,,68,7,68,,36,
5,5/4b,,3/2b,,45,,23,
4,45,,56,4,34,,34,
5,56,,56,4,34,,34,
8,78,,78,1,12,,12,

,78,37,35,4/8b,,2b/6,,

(165)12,,78,,12,,5,45,
,7,67,,23,,67,,
56,,34,,56,,1,18,
,5,56,,17,28,13,,
15,,48,,15,,2,12,
,3,34,,45,,56,,
16,,38,,18,,2,12,
,3,23,,67,,18,,

(164.5)13,,28,,7,6,7,6,
,57,,46,,57,8b,,
78,,12,,4,5,4,5,
,56,,34,,56,,,
68,,17,,2,3,2,3,
,24,,35,,24,1b,,
38,,16,,38,,16,,
{1}4^1[8:1]/5^8[8:1],

{8}
8,78,,78,6,56,,56,
7,6/7-2[8:1],,,,8,8b,,
3,34,,34,2,12,,12,
3,4/3-6[8:1],,,,1,1b,,
{4}28,17,24,35,
17,28,57,{8}46,7,
{4}78,12,78,12,
7,3b/6b,2b/7b,1b/8b,

(165){8}
13,2,68,7,13,2,68,7,
13,2,8/6-3[8:1],,2-7[8:1],,,,
46,5,35,3,46,5,35,3,
46,5,5/3-7[8:1],,5-1[8:1],,,,
13,2,68,7,13,2,68,7,
24,3,57,6,24,3,57,6,
12,2,78,8,23,3,67,6,
34,3,56,5,15,,3/7^2[8:3],,
{1}
,,
E

タグ:

+ タグ編集
  • タグ:
最終更新:2022年07月20日 17:04