アットウィキロゴ

三妖精SAY YA!!!

アーティスト 森羅万象

BPM BASIC ADVANCED EXPERT MASTER Re:MASTER
150 3 6 10 13 -

EXPERT MASTER Re:MASTER
譜面制作者 じゃこレモン 隅田川星人 -

BASIC


ADVANCED


EXPERT

(150)
{16},
{1},,,{4}4,5,4,45,
{8}3x/5x,3hx[8:5]/5hx[8:5],,,,,,,4x/6x,4x/6x,,,5,,4,,
3x/5x,3hx[8:5]/5hx[8:5],,,,,,,{4}4w8[4:1],,,2x/6x,
{8}1,1,,28,,17,,28,{4}2x/8x,3,4,5,{8}8,8,,17,,28,,17,{4}1x/7x,6,5,45,
2x,3,4,56,7,6,5,34,2,3,4,56,5h[4:1]/7,7,2/4h[4:1],2,
7x,6,5,43,2,3,4,65,7,6,5,43,2q3[2:1],,,,
{8}5,5,{4}4,3h[4:1]/4,2h[4:1],1h[4:1],8^5[4:1],,,{8}4,4,{4}5,56,67,7/8h[4:1],7,1h[4:1]/2,2,
{8}8,8,{4}1h[4:1],2h[4:1],3h[4:1],4h[4:1],5b,3b/7b,,6,57,3,24,45,36,{8}27,1x,1x,,
{4}8z4[2:1],,,,35,2^4[4:1]/6^4[4:1],,,1s5[2:1],,,,46,5qq3[4:1]*pp7[4:1],,,
6h[2:1],5,3h[2:1],4,7h[2:1],5,2h[2:1],4,{1}7xw3[2:1],2xw6[2:1],4x^1[2:1]/5x^8[2:1],
{4}2hx[2:3]/6x,5,4,3,{1}Ch[4:3],1q3[2:1],
{4}4x/5x,18,46,17,35,28,46,17,34,12,78,56,34,25,{8}1x/6x,1x/6x,1x/6x,,
{4}45,18,46,17,35,28,46,17,2b/6b,4h[4:1],5h[4:1],6h[4:1],7h[4:1],8h[4:1],1h[4:1],2,
{2}3-1[8:1]/4,5/6-8[8:1],3-8[8:1]/4,5/6-1[8:1],
{8},3x/8x,3x/8x,,4x/7xc,4x/7x,,5x/6x,5x/6x,,1x/8x,,3x/4x,,2b/6b,,
7,7,,16,,38,,16,{4}16,5,4,3,{8}2,2,,83,,61,,83,{4}83,4,5,36,
{1}2hx[4:3],{8}5,5,46,,B5/B6/E6,,,,{1}2hx[4:3]/8hx[4:3],{8}4,4,35,,B3/B4/E4,,,,{1}8x-4[2:1],{8}5,5,46,,B5/B6/E6,,,,
{4}E4,B1/B2/E2,E6,B7/B8/E8,E4,B1/B2/E2,E5,B3/B6,{8}1x,1x,8x,8x,1x,1x,8x,8x,{1}1xq3[2:1],
{1}7q4[2:1],2p5[2:1],7q4[2:1],{8}3,,4,,5,5,5,,
{2}3h[4:1]/4,5/6h[4:1],2h[4:1]/4,5/7h[4:1],{4}2,B2,B3,B4,B5,B6,B7,,
1h[8:1]/2h[8:1],3h[8:1]/8h[8:1],4h[8:1]/7h[8:1],5h[8:1]/6h[8:1],{1}5xqq2[2:1]/6xpp1[2:1],
{8}3x/8x,3x/8x,,5x/6x,5x/6x,,2b/7b,,
{4}45,18,56,17,34,28,56,17,34,12,78,56,34,25,{8}1x/6x,1x/6x,1x/6x,,
{4}45,18,56,17,34,28,56,17,2b/6b,4h[4:1],5h[4:1],6h[4:1],7h[4:1],8h[4:1],1h[4:1],2,
{2}3-1[8:1]/4h[4:1],5h[4:1]/6-8[8:1],3-8[8:1]/4h[4:1],5h[4:1]/6-1[8:1],
{8},2x/8x,2x/8x,,3x/7x,3x/7x,,4x/6x,,7x/1x,7x/1x,,6x/2x,6x/2x,,5x/3x,
,4x/6x,4x/6x,,3x/7x,,2x/8x,,{4}1^4[4:1]/6^1[4:1],,,B3/B7/Cf,
{1},,,,,,,
E

MASTER

(150)
{32}7x,6x,
{4}5xq3[2:1],,4h[4:3],,3,5,6,{16},,,{32}2x,3x,
{4}4xq5[2:1],,5,,4h[8:1]/6h[8:1],3h[8:1]/5h[8:1],5h[8:1]/7h[8:1],2h[8:1]/4h[8:1],
{16}15,,15,,E2,B2,B3,E4,E8,B7,B6,E6,1x,,,,2,,2h[4:1],,E6,B5,B4,E4,C,,,,1x/8x,,,,
26,,26,,E7,B7,B8,E1,E3,B3,B4,E5,{4}1x<2[2:1],4hx[4:3],,,8b,
{8}45,4x^1[8:1]/5x,,4x^7[8:1]/6x,,2x/4x,,3,3h[4:1],1,4h[4:1],1,3h[4:1],1,4,1/5^2[8:1],
,5x^8[8:1]/7x,,3x/5x^2[8:1],,5x/7x,,6,6h[4:1],8,5h[4:1],8,6,1b/8b,1b/8b,,
3h[8:1]/5,,3h[8:1]/6,,3h[8:1]/5,,3h[8:1],4,3h[8:1]/5,,3h[8:1]/6,,3h[8:1]/5,,3h[8:1],4,
3h[8:1]/5,,3h[8:1]/6,,3h[8:1]/5,,34,5,{2}4-8[8:1]/6-8[8:1],4-8[8:1]/6-8[8:1],
{8}6h[8:1]/4,,6h[8:1]/3,,6h[8:1]/4,,6h[8:1],5,6h[8:1]/4,,6h[8:1]/3,,6h[8:1]/4,,6h[8:1],5,
6h[8:1]/4,,6h[8:1]/3,,56,47,{4}3/8q3[8:3],Cf,,,45,
{8}6b,5,47,8,3,4,25,1,6,5,47,8,3^8[8:1],,5,6,7,8,16,5,2,1,38,4,{4}5-1[8:1]/6-1[8:1],5x/6x,5-1[8:1]/6-1[8:1],5x/6x,
{8}2,1,38,4,7,8,16,16,,2b/7b,2b/7b,,1b/8b,,5,5h[8:1],4h[8:1],B5,B4,7h[8:1],2h[8:1],B7,B2,5,5h[8:1],{16}4,5,{8}4,36,36,8x,8x,,
{4}2>7[2:1],,7<8[4:3],,8,6,4h[4:1],,3/7<2[2:1],,2>1[4:3],,1,3,5h[4:1],C,
1/8h[4:1],6h[4:1],4h[4:1],2h[4:1],{8}1,8,7,6,35,,26,,
1v4[8:1],1v6[8:1],1-5[8:1],,,,3x/7x,,8<2[8:3],6>2[4:1],4^2[8:1],,,,1x/8x,,
37,37,2-7[8:1]/6-3[8:1],,{4},4^1[4:1],1^6[4:1],6^3[4:1],3^8[4:1],8<4[4:1],4>8[4:1],8<4[4:1],4>8[4:1],8q3[2:1]*p5[2:1],,,,
1x-4[8:1]*-6[8:1]/8x,1b-5[8:1],1,{8}3-8[8:1]/7-4[8:1],8,37,,2-5[8:1]/6-1[8:1],5,26,,4^1[8:1]/8^5[8:1],15,4-8[8:1]/8,,
3bqq5[8:3]/4b,,7,7,,6,6,4,7-1[8:1],2-4[8:1],7V58[4:1],2,7,3,Cf,,
1/8w4[8:1],,8,,2-5[8:1]/6-1[8:1],5,26,,3-8[8:1]/7-4[8:1],8,37,,1^4[8:1]/5^8[8:1],48,1/5w1[8:1],,
{4}5b,3h[4:1]/7,1h[4:1],8h[4:1],5>1[4:1],1<5[4:1],5,4-1[8:1],
5-7[8:1],4-2[8:1],5-1[8:1],4-8[8:1],{8}5-7[8:1],5,4-2[8:1],4,5-1[8:1],5,4,2,
,78,16,,12,48,,56,4/8w4[8:1],,{32}8b,B2/B6`Cf,,,,,,,{8}17,,35,3/5^2[8:1],
,5x^8[8:1]/7x,,3x/5x^2[8:1],,5x/7x,,6,6h[4:1],8,5h[4:1],8,6h[4:1],8,5,4^7[8:1]/8,
,2x/4x^1[8:1],,4x^7[8:1]/6x,,2x/4x,,3,3h[4:1],1,4h[4:1],1,3h[4:1],1,4,,
{1}8b>8[2:1]*<8[2:1]/Cf,{8}35,35,4/6qq5[4:1]*pp7[4:1],,6,,,,
{1}8b<4[8:3]*p4[8:3]/B2/Cf,{8}35,35,4/6qq5[4:1]*pp7[4:1],,6,,,,
{1}8bw4[8:3]/B2/B3/Cf,{8}35,35,3/6qq5[4:1]*pp7[4:1],,6,,,,
{4}4h[8:1]/6h[8:1],7h[8:1]/8h[8:1],3h[8:1]/5h[8:1],1h[8:1]/2h[8:1],4h[8:1]/6h[8:1],7h[8:1]/8h[8:1],3h[8:1]/5h[8:1],1h[8:1]/7,
{32}8x,7x,6x,5x,4x,3x,2x,1x,8x,7x,6x,5x,4x,3x,2x,1x,8x,7x,6x,5x,4x,3x,2x,1x,8xpp4[2:1]*p5[2:1],7x,6x,5x,4x,3x,2x,1x,{4},,,45,
{2}1/8h[2:7],B3/B4/C,B1/B2/C,B7/B8/C,B5/B6/C,B3/B4/C,B1/B2/C,B1/B8/E1,
{2}5^8[2:1],4^1[2:1],5^8[2:1],{4}2,3h[4:1],Ch[2:3],E5,E4,E3,E2,E1,E2/E8,,
4h[8:1]/6h[8:1],3h[8:1]/5h[8:1],4h[8:1]/6h[8:1],3h[8:1]/5h[8:1],{16}4,5,4,5,
{8}4>5[2:1],,,,,,,45,45,36,36,27,1/8-3[8:1]*-5[8:1],,
8b-4[8:1],,8,,2^5[8:1]/6^1[8:1],15,26,,3-8[8:1]/7,26,35,4,3-1[8:1]/5,26,37,8,
3-8[8:1]/7,26,35,4,3-1[8:1]/5,26,37,8,1x-5[8:1],8-4[8:1],1^4[8:1],8^5[8:1],1,8,B2/B3/Cf,,
1xw5[8:1]/8x,,1,,3-8[8:1]/7-4[8:1],48,37,,2-5[8:1]/6-1[8:1],15,26,,4^1[8:1]/8^5[8:1],15,4w8[8:1]/8,,
{4}4b,2/6h[4:1],8h[4:1],1h[4:1],4<8[4:1],8>4[4:1],4,5-8[8:1],
4-2[8:1],5-7[8:1],4-8[8:1],5-1[8:1],{8}4-2[8:1],3,5-7[8:1],6,4-8[8:1],3,5,Cf,
,12,48,,56,4-1[8:1]/8-5[8:1],,48,,34,51,,56,4-1[8:1]*-1[8:1]/8-5[8:1]*-5[8:1],,48,
,34,1^4[8:1]/5^8[8:1],,15,,15,48,{4}3/7qq6[4:1]*pp8[4:1],,,5w1[8:1]*w1[8:1]*w1[8:1],
{32}5b,B7/Cf`B3,{1},,,,,
E

Re:MASTER


  • MASTERで、途中2本重なってたり3本重なっているスライドがありますが、そこは確実に正しいので修正不要です。 -- MIKA (2022-07-24 15:07:56)
名前:
コメント:

タグ:

+ タグ編集
  • タグ:
最終更新:2022年07月24日 15:07